osu file format v9

[General]
AudioFilename: Wired Life.mp3
AudioLeadIn: 1000
PreviewTime: 37437
Countdown: 0
SampleSet: Soft
StackLeniency: 0.2
Mode: 0
LetterboxInBreaks: 0

[Editor]
Bookmarks: 46129,47066
DistanceSpacing: 1.2
BeatDivisor: 4
GridSize: 4

[Metadata]
Title:Wired Life (TV Size)
Artist:Kuroki Meisa
Creator:Shourinkai
Version:Light
Source:Ao no Exorcist
Tags:blue exorcist backfire

[Difficulty]
HPDrainRate:3
CircleSize:3
OverallDifficulty:3
ApproachRate:4
SliderMultiplier:0.8
SliderTickRate:1

[Events]
//Background and Video events
Video,-50,"Wired_life_vid.avi"
0,0,"bg-image.jpg"
//Break Periods
//Storyboard Layer 0 (Background)
//Storyboard Layer 1 (Fail)
//Storyboard Layer 2 (Pass)
//Storyboard Layer 3 (Foreground)
//Storyboard Sound Samples
//Background Colour Transformations
3,100,163,162,255

[TimingPoints]
172,468.748461538462,4,2,2,100,1,0
22437,-100,4,2,1,80,0,0
23257,-100,4,2,2,80,0,0
29935,-100,4,2,1,100,0,0
37437,-100,4,2,1,100,0,1
46572,-100,4,2,2,100,0,1
49852,-100,4,2,2,100,0,1
52430,-100,4,2,1,100,0,1
52671,-100,4,2,1,100,0,0
65796,-100,4,2,1,100,0,1
73518,-100,4,2,0,100,0,1
74924,-100,4,2,1,100,0,1
78205,-100,4,2,0,100,0,1
80327,-100,4,2,0,100,0,0
83081,-100,4,2,0,30,0,0
84019,-100,4,2,0,5,0,0

[Colours]
Combo1 : 0,128,0
Combo2 : 0,230,255
Combo3 : 128,0,0
Combo4 : 128,0,128

[HitObjects]
256,172,5093,2,0,B|256:212,1,40
96,128,7671,5,0
176,128,8140,1,0
256,128,8609,1,8
256,256,9546,1,0
336,256,10015,1,0
416,256,10484,1,8
416,128,11421,6,0,B|416:48|416:48,3,80,0|8|0|8
336,48,13296,1,0
256,48,13765,1,0
176,48,14234,1,8
96,192,15171,6,0,B|192:192,1,80
256,192,16109,1,8
336,192,16578,6,0,B|336:144,4,40
416,192,17984,1,8
256,192,18921,5,0
256,112,19390,2,0,B|256:64,3,40
392,160,20796,5,0
392,240,21265,1,0
392,160,21734,1,0
456,112,22203,1,0
392,160,22671,1,2
328,112,23140,1,4
256,64,23609,6,0,B|256:144,1,80,12|8
256,240,24546,2,0,B|256:336,1,80,12|8
216,192,25484,2,0,B|328:192,1,80,12|8
288,112,26421,1,0
208,88,26890,1,0
144,141,27359,6,0,B|192:141|240:173,1,80,12|8
295,227,28296,2,0,B|327:259|391:259,1,80,12|8
227,220,29234,2,0,B|306:141,1,80,12|8
256,64,30171,5,0
336,64,30640,1,0
336,144,31109,1,0
256,144,31578,1,4
176,144,32046,5,0
176,224,32515,1,0
256,224,32984,2,0,B|256:128,1,80,0|4
256,64,33921,6,2,B|224:96,2,40
296,64,34625,1,0
336,64,34859,1,2
379,64,35093,1,2
379,144,35562,5,2
315,192,36031,1,2
251,240,36500,1,2
170,240,36968,2,0,B|127:239,2,40,2|2|4
176,160,37906,6,0,B|176:96,3,40,0|0|0|8
96,112,39078,1,2
96,192,39546,1,8
96,272,40015,1,2
172,304,40484,1,8
250,323,40953,6,0,B|293:339|341:307,1,80,2|8
394,272,41890,2,0,B|429:240|413:176,1,80,2|8
336,192,42828,1,2
256,192,43296,2,0,B|208:192,1,40,8|8
176,192,43765,2,0,B|176:112,1,80,8|8
216,112,44468,2,0,B|272:112,2,40,8|8|8
280,212,45406,6,0,B|240:218,4,40,2|2|2|8|2
328,216,46578,2,0,B|406:200,1,80,6|8
432,160,47281,1,2
442,112,47515,2,0,B|426:48|346:64,1,80,0|8
288,64,48453,6,2,B|240:64,1,40
192,64,48921,2,2,B|112:64,1,80
80,112,49624,2,0,B|80:160|80:160|112:184,1,80,0|8
200,240,50562,6,0,B|248:232,1,40
280,272,51031,2,0,B|304:264|336:264,1,40
368,296,51499,2,0,B|424:312|464:344,1,80,0|12
336,192,52671,5,4
256,192,53140,1,2
176,192,53609,1,2
176,272,54078,2,2,B|224:320,1,40,2|8
256,304,54546,5,10
336,304,55015,1,2
336,224,55484,1,2
336,144,55953,2,2,B|288:112,1,40,2|8
256,128,56421,5,10
176,128,56890,1,2
176,208,57359,1,2
256,240,57828,2,8,B|256:304,1,40,2|8
236,129,58765,6,2,B|284:129,1,40
184,48,59468,2,0,B|112:48,1,40,2|2
144,128,60171,5,2
144,208,60640,1,2
64,208,61109,1,2
64,128,61578,2,0,B|128:128,1,40,2|8
144,128,62046,5,2
224,128,62515,1,2
304,128,62984,1,2
304,208,63453,2,0,B|304:256,1,40,2|8
304,304,63921,2,0,B|280:352|216:368,3,80,2|2|2|2
176,288,65796,6,0,B|216:271|240:224,1,80,8|4
269,143,66734,2,0,B|285:103|317:78,1,80,8|4
400,48,67671,5,4
464,96,68140,1,8
416,160,68609,1,8
352,112,69078,1,2
352,112,69312,1,2
352,112,69546,1,2
288,64,70015,5,8
240,128,70484,1,8
304,176,70953,1,2
304,176,71187,1,2
304,176,71421,1,2
368,224,71890,21,8
328,296,72359,1,8
256,256,72828,1,0
256,256,73062,1,4
256,96,73765,6,0,B|256:288,1,160,2|2
256,336,75171,5,4
336,336,75640,1,0
416,336,76109,1,8
468,278,76577,1,2
468,237,76812,1,6
468,198,77046,1,2
466,118,77515,5,0
385,124,77984,1,8
308,147,78452,2,0,B|243:207,1,80,2|4
309,251,79390,2,0,B|232:296|232:296|200:248|144:256,1,160,0|0
192,176,80796,21,2
272,160,81265,1,2
336,112,81734,1,2
369,40,82202,1,2
256,32,83140,38,0,B|256:208,1,160
