osu file format v12

[General]
AudioFilename: Mobile Suit Gundam Unicorn (UC) OVA Episode 1 Ending Song -Ryuusei no Namida-.mp3
AudioLeadIn: 0
PreviewTime: 55387
Countdown: 0
SampleSet: Soft
StackLeniency: 0.4
Mode: 0
LetterboxInBreaks: 0

[Editor]
Bookmarks: 47995,68459,70173
DistanceSpacing: 1
BeatDivisor: 4
GridSize: 4

[Metadata]
Title:Ryuusei no Namida
TitleUnicode:流星のナミダ
Artist:Kuriyama Chiaki
ArtistUnicode:栗山千明
Creator:mercury2004
Version:Hard
Source:Mobile Suit Gundam Unicorn
Tags:
BeatmapID:223970
BeatmapSetID:79705

[Difficulty]
HPDrainRate:5
CircleSize:4
OverallDifficulty:5
ApproachRate:6
SliderMultiplier:1.4
SliderTickRate:2

[Events]
//Background and Video events
0,0,"new bg clipped.jpg",0,0
//Break Periods
2,84121,98300
2,162979,171800
2,200693,214014
2,217836,223443
//Storyboard Layer 0 (Background)
//Storyboard Layer 1 (Fail)
//Storyboard Layer 2 (Pass)
//Storyboard Layer 3 (Foreground)
//Storyboard Sound Samples
//Background Colour Transformations
3,100,163,162,255

[TimingPoints]
1636.23529411765,428.571428571429,4,2,1,55,1,0
30993,-100,4,2,2,55,0,0
31100,-100,4,2,1,55,0,0
31421,-100,4,2,2,55,0,0
31850,-100,4,2,1,55,0,0
37850,-100,4,2,2,55,0,0
37957,-100,4,2,1,55,0,0
43636,-100,4,2,2,55,0,0
43743,-100,4,2,1,55,0,0
45350,-100,4,2,2,55,0,0
45457,-100,4,2,1,55,0,0
47064,-100,4,2,2,55,0,0
47171,-100,4,2,1,55,0,0
47707,-100,4,2,2,55,0,0
47814,-100,4,2,1,55,0,0
51564,-100,4,2,2,55,0,0
51671,-100,4,2,1,55,0,0
52421,-100,4,2,2,55,0,0
52529,-100,4,2,1,55,0,0
56493,-83.3333333333333,4,2,1,55,0,1
64207,-83.3333333333333,4,2,2,55,0,1
64314,-83.3333333333333,4,2,1,55,0,1
65279,-83.3333333333333,4,2,2,55,0,1
65386,-83.3333333333333,4,2,1,55,0,1
67636,-83.3333333333333,4,2,2,55,0,1
67743,-83.3333333333333,4,2,1,55,0,1
75564,-83.3333333333333,4,2,2,55,0,1
75671,-83.3333333333333,4,2,1,55,0,1
79636,-200,4,2,1,55,0,1
80493,-100,4,2,1,55,0,0
101064,-100,4,2,1,55,0,0
102779,-100,4,2,2,55,0,0
103100,-100,4,2,1,55,0,0
116707,-100,4,2,2,55,0,0
116814,-100,4,2,1,55,0,0
123136,-100,4,2,2,55,0,0
123243,-100,4,2,1,55,0,0
130207,-100,4,2,2,55,0,0
130314,-100,4,2,1,55,0,0
135350,-83.3333333333333,4,2,1,55,0,1
139636,-83.3333333333333,4,2,2,55,0,1
139743,-83.3333333333333,4,2,1,55,0,1
140707,-83.3333333333333,4,2,2,55,0,1
140814,-83.3333333333333,4,2,1,55,0,1
146493,-83.3333333333333,4,2,2,55,0,1
146600,-83.3333333333333,4,2,1,55,0,1
154421,-83.3333333333333,4,2,2,55,0,1
154529,-83.3333333333333,4,2,1,55,0,1
158493,-166.666666666667,4,2,1,55,0,1
159350,-100,4,2,1,55,0,0
181636,-100,4,2,2,55,0,0
181743,-100,4,2,1,55,0,0
188707,-100,4,2,2,55,0,0
188814,-100,4,2,1,55,0,0
192136,-100,4,2,2,55,0,0
192243,-100,4,2,1,55,0,0
231350,-76.9230769230769,4,2,1,55,0,1
236707,-76.9230769230769,4,2,2,55,0,1
236814,-76.9230769230769,4,2,1,55,0,1
239064,-76.9230769230769,4,2,2,55,0,1
239171,-76.9230769230769,4,2,1,55,0,1
240136,-76.9230769230769,4,2,2,55,0,1
240243,-76.9230769230769,4,2,1,55,0,1
242493,-76.9230769230769,4,2,2,55,0,1
242600,-76.9230769230769,4,2,1,55,0,1
244957,-76.9230769230769,4,2,1,55,0,0
245064,-76.9230769230769,4,2,1,55,0,1
250421,-76.9230769230769,4,2,2,55,0,1
250529,-76.9230769230769,4,2,1,55,0,1
254493,-153.846153846154,4,2,1,55,0,1
255350,-100,4,2,1,55,0,0

[Colours]
Combo1 : 108,108,108
Combo2 : 224,79,240
Combo3 : 0,128,0

[HitObjects]
89,199,29064,2,0,P|109:315|257:319,1,280,4|8,0:0|0:0,0:0:0:0:
250,325,30136,1,0,0:0:0:0:
296,272,30350,1,0,0:0:0:0:
272,204,30564,1,8,0:0:0:0:
209,173,30779,6,0,B|233:125|297:109|305:37,1,140,8|0,0:0|0:0,0:0:0:0:
374,66,31421,2,0,B|374:108|438:124|462:172,2,140
298,81,32493,2,0,P|230:66|146:89,2,140,0|0|8,0:0|0:0|0:0,0:0:0:0:
230,203,33779,1,0,0:0:0:0:
177,332,34207,6,0,L|105:332,2,70,0|8|8,0:0|0:0|0:0,0:0:0:0:
260,312,34850,2,0,P|316:336|404:296,2,140,8|0|8,0:0|0:0|0:0,0:0:0:0:
304,240,35921,1,0,0:0:0:0:
400,136,36350,1,0,0:0:0:0:
300,36,36779,1,8,0:0:0:0:
140,120,37636,6,0,P|72:128|-4:96,2,140,8|0|8,0:0|0:0|0:0,0:0:0:0:
240,300,38921,1,0,0:0:0:0:
380,312,39350,6,0,B|328:216|404:144|404:144|404:144|416:92|384:52,1,280,0|8,0:0|0:0,0:0:0:0:
256,192,40421,12,4,42779,0:0:0:0:
236,36,43207,5,0,0:0:0:0:
256,132,43421,2,0,B|140:136|172:56|128:32|52:32,1,210
48,168,44493,2,0,P|80:232|64:320,1,140,0|0,0:0|0:0,0:0:0:0:
16,336,45136,2,0,L|176:336,1,140
156,336,45779,1,0,0:0:0:0:
360,320,46207,6,0,P|424:296|472:224,1,140
376,224,46850,2,0,P|400:160|384:72,1,140
320,160,47493,2,0,P|288:80|232:40,1,140,8|0,0:0|0:0,0:0:0:0:
104,48,48350,1,8,0:0:0:0:
64,184,48779,6,0,L|-4:244,1,70,8|8,0:0|0:0,0:0:0:0:
24,296,49207,2,0,L|80:352,1,70,8|8,0:0|0:0,0:0:0:0:
136,320,49636,2,0,P|184:232|312:192,1,210,4|0,0:0|0:0,0:0:0:0:
352,192,50493,1,8,0:0:0:0:
268,304,50921,1,0,0:0:0:0:
400,257,51350,2,0,P|384:177|396:49,1,210,8|0,0:0|0:0,0:0:0:0:
488,46,52207,2,0,P|388:78|308:10,1,210,8|0,0:0|0:0,0:0:0:0:
311,19,53064,5,4,0:0:0:0:
188,48,53493,1,8,0:0:0:0:
176,174,53921,1,8,0:0:0:0:
293,224,54350,1,8,0:0:0:0:
376,128,54779,6,0,L|424:56,2,70,8|8|0,0:0|0:0|0:0,0:0:0:0:
336,184,55421,2,0,L|280:256,1,70,0|8,0:0|0:0,0:0:0:0:
204,224,55850,2,8,L|260:160,1,70
212,96,56279,2,0,L|164:152,1,70,0|4,0:0|0:0,0:0:0:0:
88,304,56921,6,0,L|8:224,1,83.9999974365235
88,304,57350,2,0,P|104:216|168:120,1,167.999994873047,8|0,0:0|0:0,0:0:0:0:
296,88,58207,2,0,P|280:176|216:272,1,167.999994873047,8|0,0:0|0:0,0:0:0:0:
176,296,58850,2,0,L|88:336,2,83.9999974365235,0|8|0,0:0|0:0|0:0,0:0:0:0:
256,332,59493,2,8,P|328:356|368:348,1,83.9999974365235
320,272,59921,6,0,P|392:248|448:152,1,167.999994873047,8|0,0:0|0:0,0:0:0:0:
320,64,60779,2,0,P|248:88|192:184,1,167.999994873047,8|0,0:0|0:0,0:0:0:0:
48,240,61636,2,0,L|80:320,1,83.9999974365235,0|8,0:0|0:0,0:0:0:0:
144,264,62064,2,0,L|184:352,1,83.9999974365235,0|0,0:0|0:0,0:0:0:0:
240,280,62493,6,0,L|280:368,1,83.9999974365235,8|0,0:0|0:0,0:0:0:0:
336,292,62921,2,8,L|288:188,1,83.9999974365235
392,200,63350,2,0,P|336:120|336:40,1,167.999994873047,4|0,0:0|0:0,0:0:0:0:
400,44,63993,2,0,L|200:44,1,167.999994873047
144,48,64636,2,0,P|96:56|0:152,2,167.999994873047,0|0|8,0:0|0:0|0:0,0:0:0:0:
136,224,65921,5,8,0:0:0:0:
220,264,66136,1,0,0:0:0:0:
232,364,66350,1,0,0:0:0:0:
152,324,66564,1,8,0:0:0:0:
220,264,66779,2,0,P|276:224|380:176,1,167.999994873047,8|0,0:0|0:0,0:0:0:0:
336,96,67421,2,0,L|424:272,1,167.999994873047,8|0,0:0|0:0,0:0:0:0:
432,328,68064,1,0,0:0:0:0:
352,304,68279,1,8,0:0:0:0:
352,304,68493,6,0,L|256:304,1,83.9999974365235,8|8,0:0|0:0,0:0:0:0:
316,216,68921,2,0,L|228:216,1,83.9999974365235,0|8,0:0|0:0,0:0:0:0:
280,132,69350,2,8,L|168:132,1,83.9999974365235,8|8,0:0|0:0,0:0:0:0:
244,48,69779,2,0,L|148:48,1,83.9999974365235,8|0,0:0|0:0,0:0:0:0:
40,56,70207,6,0,P|144:72|240:40,1,167.999994873047,4|0,0:0|0:0,0:0:0:0:
360,128,71064,2,0,P|256:144|160:112,1,167.999994873047,8|0,0:0|0:0,0:0:0:0:
92,256,71921,2,0,P|112:172|184:104,2,167.999994873047,8|0|8,0:0|0:0|0:0,0:0:0:0:
132,328,72993,2,0,P|104:368|56:388,2,83.9999974365235,0|8|8,0:0|0:0|0:0,0:0:0:0:
208,276,73636,6,0,P|228:192|312:172,1,167.999994873047,8|0,0:0|0:0,0:0:0:0:
288,252,74279,1,8,0:0:0:0:
276,336,74493,2,0,P|330:320|363:212,1,167.999994873047,8|0,0:0|0:0,0:0:0:0:
388,124,75136,1,0,0:0:0:0:
288,92,75350,2,0,P|192:84|112:120,1,167.999994873047,8|0,0:0|0:0,0:0:0:0:
104,296,76207,6,0,L|112:200,1,83.9999974365235,8|0,0:0|0:0,0:0:0:0:
184,256,76636,2,8,L|216:152,1,83.9999974365235
280,224,77064,6,0,P|368:208|472:240,2,167.999994873047,4|0|4,0:0|0:0|0:0,0:0:0:0:
160,336,78350,2,0,P|112:296|64:280,1,83.9999974365235,8|0,0:0|0:0,0:0:0:0:
8,304,78779,2,0,P|32:216|88:144,1,167.999994873047,4|0,0:0|0:0,0:0:0:0:
272,200,79636,6,4,B|328:208|384:184|424:200,1,140,0|4,0:0|0:0,0:0:0:0:
256,192,80707,12,0,83921,0:0:0:0:
256,192,99350,12,0,101064,0:0:0:0:
192,280,101921,6,0,P|232:232|320:208,1,140,8|0,0:0|0:0,0:0:0:0:
360,248,102564,2,0,P|328:216|304:48,1,210,0|0,0:0|0:0,0:0:0:0:
300,60,103636,1,8,0:0:0:0:
228,56,103850,2,0,L|156:56,2,70
216,136,104493,6,0,L|72:136,1,140,8|0,0:0|0:0,0:0:0:0:
80,208,105136,1,0,0:0:0:0:
80,208,105350,2,0,L|224:208,1,140,8|0,0:0|0:0,0:0:0:0:
248,268,105993,2,0,L|336:268,2,70,8|0|8,0:0|0:0|0:0,0:0:0:0:
248,196,106636,1,8,0:0:0:0:
248,128,106850,1,0,0:0:0:0:
244,60,107064,2,0,L|164:60,2,70,8|8|0,0:0|0:0|0:0,0:0:0:0:
410,58,107921,6,0,P|370:190|418:346,1,280,4|8,0:0|0:0,0:0:0:0:
472,324,108993,1,0,0:0:0:0:
404,324,109207,1,0,0:0:0:0:
336,324,109421,1,0,0:0:0:0:
268,324,109636,6,0,P|220:268|132:228,1,140,0|8,0:0|0:0,0:0:0:0:
163,236,110279,1,0,0:0:0:0:
16,56,110921,6,0,P|72:40|168:64,1,140
120,184,111779,2,0,L|40:184,1,70
80,248,112207,2,0,P|128:304|232:240,1,210,8|8,0:0|0:0,0:0:0:0:
232,176,113064,2,0,P|264:144|368:144,2,140,8|0|8,0:0|0:0|0:0,0:0:0:0:
264,340,114350,5,8,0:0:0:0:
192,376,114564,1,8,0:0:0:0:
144,312,114779,2,0,P|104:264|8:240,1,140,0|0,0:0|0:0,0:0:0:0:
88,164,115421,1,0,0:0:0:0:
32,92,115636,2,0,P|103:66|143:18,1,140,8|0,0:0|0:0,0:0:0:0:
256,136,116493,6,0,P|328:120|400:144,2,140,8|0|8,0:0|0:0|0:0,0:0:0:0:
232,208,117564,2,0,L|160:208,1,70,8|8,0:0|0:0,0:0:0:0:
112,300,117993,2,0,L|184:300,1,70,0|4,0:0|0:0,0:0:0:0:
328,308,118636,1,0,0:0:0:0:
420,304,118850,1,0,0:0:0:0:
368,224,119064,2,0,P|376:144|440:88,1,140,8|0,0:0|0:0,0:0:0:0:
364,32,119707,5,8,0:0:0:0:
280,56,119921,2,0,P|176:96|128:192,1,210,8|0,0:0|0:0,0:0:0:0:
96,248,120779,6,8,L|56:328,1,70
144,328,121207,2,0,L|208:392,1,70,8|0,0:0|0:0,0:0:0:0:
240,312,121636,2,0,P|272:256|360:200,2,140,4|0|8,0:0|0:0|0:0,0:0:0:0:
272,72,122921,2,0,P|240:128|152:184,2,140
392,168,124207,6,8,L|488:168,1,70,8|0,0:0|0:0,0:0:0:0:
508,248,124636,2,8,L|428:248,1,70,8|8,0:0|0:0,0:0:0:0:
464,332,125064,2,0,L|304:332,1,140
276,264,125707,1,0,0:0:0:0:
192,296,125921,2,0,P|160:240|80:192,2,140,8|0|0,0:0|0:0|0:0,0:0:0:0:
192,296,127207,1,0,0:0:0:0:
260,164,127636,5,8,0:0:0:0:
288,84,127850,1,8,0:0:0:0:
372,88,128064,1,8,0:0:0:0:
392,168,128279,1,8,0:0:0:0:
324,220,128493,1,4,0:0:0:0:
248,304,128921,6,0,P|200:280|160:264,1,70
112,304,129350,2,0,P|104:248|144:160,1,140,8|0,0:0|0:0,0:0:0:0:
200,128,129993,2,0,P|256:104|344:120,1,140,8|8,0:0|0:0,0:0:0:0:
384,168,130636,2,0,L|456:168,2,70,0|0|8,0:0|0:0|0:0,0:0:0:0:
352,240,131279,2,0,L|272:240,2,70,8|8|0,0:0|0:0|0:0,0:0:0:0:
384,312,131921,5,12,0:0:0:0:
181,350,132350,1,0,0:0:0:0:
81,170,132779,1,8,0:0:0:0:
222,19,133207,1,0,0:0:0:0:
409,107,133636,6,0,L|472:64,2,70,8|8|8,0:0|0:0|0:0,0:0:0:0:
408,200,134279,2,0,L|320:216,1,70,0|8,0:0|0:0,0:0:0:0:
272,152,134707,2,8,P|216:176|192:200,1,70
168,264,135136,2,0,P|104:248|72:232,1,70,8|4,0:0|0:0,0:0:0:0:
168,72,135779,6,0,P|136:32|80:32,2,83.9999974365235,0|0|8,0:0|0:0|0:0,0:0:0:0:
224,280,136636,1,0,0:0:0:0:
360,88,137064,2,0,P|328:164|352:272,1,167.999994873047,8|0,0:0|0:0,0:0:0:0:
124,328,137921,6,0,P|84:272|76:224,1,83.9999974365235,8|0,0:0|0:0,0:0:0:0:
72,104,138350,2,0,P|112:160|120:208,1,83.9999974365235,8|0,0:0|0:0,0:0:0:0:
176,248,138779,2,0,P|248:264|360:240,1,167.999994873047,8|0,0:0|0:0,0:0:0:0:
424,144,139421,2,0,P|352:128|240:152,1,167.999994873047
260,143,140064,1,0,0:0:0:0:
184,104,140279,5,0,0:0:0:0:
100,116,140493,2,0,P|28:136|0:232,1,167.999994873047,0|8,0:0|0:0,0:0:0:0:
96,224,141136,1,0,0:0:0:0:
152,296,141350,6,0,P|96:304|40:288,2,83.9999974365235,8|8|0,0:0|0:0|0:0,0:0:0:0:
224,248,141993,1,8,0:0:0:0:
304,240,142207,2,0,P|368:240|408:256,1,83.9999974365235,12|0,0:0|0:0,0:0:0:0:
432,176,142636,2,0,P|348:152|248:168,1,167.999994873047,8|8,0:0|0:0,0:0:0:0:
188,144,143279,1,0,0:0:0:0:
104,120,143493,2,0,P|152:68|248:84,1,167.999994873047,0|8,0:0|0:0,0:0:0:0:
200,328,144564,6,0,P|272:344|312:336,1,83.9999974365235,0|8,0:0|0:0,0:0:0:0:
352,304,144993,1,0,0:0:0:0:
408,248,145207,1,0,0:0:0:0:
408,168,145421,1,8,0:0:0:0:
352,104,145636,6,0,P|288:64|200:40,1,167.999994873047,12|0,0:0|0:0,0:0:0:0:
200,128,146279,2,0,P|176:192|96:272,1,167.999994873047,8|0,0:0|0:0,0:0:0:0:
264,240,146921,1,0,0:0:0:0:
264,240,147136,1,8,0:0:0:0:
288,56,147350,6,0,L|288:152,1,83.9999974365235,8|0,0:0|0:0,0:0:0:0:
352,256,147779,2,0,L|352:160,1,83.9999974365235,8|0,0:0|0:0,0:0:0:0:
416,56,148207,2,8,L|416:152,1,83.9999974365235
480,256,148636,2,8,L|480:160,1,83.9999974365235
256,192,149064,12,4,150779,0:0:0:0:
96,152,151421,5,0,0:0:0:0:
168,112,151636,2,0,P|216:64|256:64,1,83.9999974365235,8|0,0:0|0:0,0:0:0:0:
304,96,152064,2,0,B|368:104|416:80|408:96,2,83.9999974365235,8|8|0,0:0|0:0|0:0,0:0:0:0:
232,248,152921,1,0,0:0:0:0:
176,184,153136,1,8,0:0:0:0:
112,240,153350,2,8,P|128:160|112:72,1,167.999994873047,0|0,0:0|0:0,0:0:0:0:
24,72,153993,1,0,0:0:0:0:
24,72,154207,2,0,L|208:72,1,167.999994873047,8|0,0:0|0:0,0:0:0:0:
276,88,154850,6,0,P|320:104|372:104,1,83.9999974365235,0|8,0:0|0:0,0:0:0:0:
428,152,155279,2,0,P|484:184|500:200,1,83.9999974365235
456,280,155707,2,0,P|416:288|368:320,1,83.9999974365235,0|4,0:0|0:0,0:0:0:0:
224,248,156350,5,8,0:0:0:0:
144,104,156779,1,12,0:0:0:0:
48,240,157207,1,8,0:0:0:0:
152,356,157636,2,0,P|200:332|336:332,1,167.999994873047,4|0,0:0|0:0,0:0:0:0:
304,73,158493,6,4,P|256:97|120:97,1,167.999994873047,0|4,0:0|0:0,0:0:0:0:
256,192,159564,12,0,162779,0:0:0:0:
200,304,172850,5,0,0:0:0:0:
160,232,173064,2,0,P|128:184|56:112,1,140,4|0,0:0|0:0,0:0:0:0:
16,168,173707,1,8,0:0:0:0:
120,72,173921,2,0,P|160:40|272:8,1,140,8|0,0:0|0:0,0:0:0:0:
432,216,174779,6,0,P|400:152|320:104,1,140,8|0,0:0|0:0,0:0:0:0:
280,76,175421,2,0,P|252:52|208:44,1,70
128,176,175850,2,0,P|156:200|200:208,1,70
256,188,176279,1,8,0:0:0:0:
324,168,176493,2,0,P|388:232|388:288,1,140,8|0,0:0|0:0,0:0:0:0:
192,320,177136,5,8,0:0:0:0:
80,272,177350,2,0,P|40:216|56:128,2,140,8|0|8,0:0|0:0|0:0,0:0:0:0:
168,232,178421,2,0,P|176:192|200:152,1,70,8|0,0:0|0:0,0:0:0:0:
344,152,178850,2,0,P|336:192|312:232,1,70,8|8,0:0|0:0,0:0:0:0:
260,128,179279,6,8,P|268:88|292:48,1,70
432,44,179707,2,8,P|424:84|400:124,1,70,8|4,0:0|0:0,0:0:0:0:
256,96,180350,6,0,P|192:72|168:72,1,70
136,120,180779,2,0,P|160:160|152:264,1,140,8|0,0:0|0:0,0:0:0:0:
112,304,181421,2,0,P|152:272|248:272,1,140,8|0,0:0|0:0,0:0:0:0:
288,320,182064,2,0,P|328:328|416:272,1,140,0|8,0:0|0:0,0:0:0:0:
440,216,182707,2,0,L|512:216,2,70
392,168,183350,6,0,P|352:120|256:72,1,140,4|0,0:0|0:0,0:0:0:0:
120,216,184207,2,0,P|160:264|256:312,1,140,4|0,0:0|0:0,0:0:0:0:
256,120,185064,2,0,L|256:280,1,140,4|0,0:0|0:0,0:0:0:0:
120,316,185921,6,8,P|76:324|40:324,1,70
0,240,186350,2,0,P|44:232|80:232,1,70,8|0,0:0|0:0,0:0:0:0:
164,228,186779,2,0,P|228:196|292:124,1,140,4|0,0:0|0:0,0:0:0:0:
296,80,187421,2,0,P|316:52|372:32,1,70,0|8,0:0|0:0,0:0:0:0:
440,192,188064,5,0,0:0:0:0:
440,192,188493,2,0,B|384:176|280:208|224:192,1,210
231,194,189350,1,8,0:0:0:0:
284,64,189779,5,0,0:0:0:0:
176,64,190207,2,0,P|152:128|80:152,1,140
32,192,190850,1,8,0:0:0:0:
89,231,191064,2,0,P|152:256|176:320,1,140,8|0,0:0|0:0,0:0:0:0:
336,320,191921,6,0,P|360:256|432:232,1,140,8|0,0:0|0:0,0:0:0:0:
480,192,192564,1,0,0:0:0:0:
423,153,192779,2,0,P|360:128|336:64,1,140,4|0,0:0|0:0,0:0:0:0:
256,192,193636,12,4,195350,0:0:0:0:
96,200,195779,6,0,P|104:144|104:112,1,70,8|0,0:0|0:0,0:0:0:0:
168,72,196207,2,0,P|168:120|176:152,1,70,8|0,0:0|0:0,0:0:0:0:
224,208,196636,2,0,P|240:152|256:128,1,70,8|0,0:0|0:0,0:0:0:0:
360,144,197064,2,0,P|352:224|312:280,2,140,0|0|8,0:0|0:0|0:0,0:0:0:0:
224,104,198350,5,0,0:0:0:0:
172,152,198564,1,8,0:0:0:0:
236,176,198779,1,8,0:0:0:0:
256,192,198993,12,4,200493,0:0:0:0:
72,272,215064,5,4,0:0:0:0:
80,132,215493,1,0,0:0:0:0:
147,114,215707,1,8,0:0:0:0:
128,180,215921,2,8,P|184:212|248:156,1,140
304,144,216564,5,8,0:0:0:0:
328,80,216779,2,0,P|384:48|448:104,1,140,8|8,0:0|0:0,0:0:0:0:
468,152,217421,1,8,0:0:0:0:
436,216,217636,1,4,0:0:0:0:
256,192,224493,12,0,227921,0:0:0:0:
128,96,228350,5,8,0:0:0:0:
384,96,228779,1,8,0:0:0:0:
384,288,229207,1,8,0:0:0:0:
128,288,229636,1,8,0:0:0:0:
176,144,230064,6,0,P|208:104|256:96,1,70,0|8,0:0|0:0,0:0:0:0:
336,240,230493,2,8,P|304:280|256:288,1,70
304,112,230921,2,8,P|344:144|352:192,1,70
208,272,231350,6,0,P|176:200|88:136,1,181.999991668702,4|0,0:0|0:0,0:0:0:0:
32,216,231993,1,0,0:0:0:0:
32,216,232207,2,0,P|80:136|168:80,1,181.999991668702,8|0,0:0|0:0,0:0:0:0:
328,40,233064,2,0,P|368:96|480:128,1,181.999991668702,8|0,0:0|0:0,0:0:0:0:
464,220,233707,5,0,0:0:0:0:
472,312,233921,2,0,P|424:272|384:264,1,90.9999958343508,8|0,0:0|0:0,0:0:0:0:
352,344,234350,2,0,P|300:316|288:272,1,90.9999958343508,0|8,0:0|0:0,0:0:0:0:
296,192,234779,2,0,P|240:200|208:312,1,181.999991668702,8|0,0:0|0:0,0:0:0:0:
112,304,235421,1,0,0:0:0:0:
24,304,235636,2,0,P|28:208|24:112,1,181.999991668702,8|0,0:0|0:0,0:0:0:0:
88,56,236279,1,0,0:0:0:0:
176,24,236493,2,0,P|168:112|176:216,1,181.999991668702,8|0,0:0|0:0,0:0:0:0:
232,280,237136,5,0,0:0:0:0:
288,352,237350,1,8,0:0:0:0:
336,280,237564,1,8,0:0:0:0:
392,352,237779,1,8,0:0:0:0:
448,280,237993,1,8,0:0:0:0:
472,192,238207,6,0,P|480:120|392:32,1,181.999991668702,4|0,0:0|0:0,0:0:0:0:
376,120,238850,2,0,P|304:96|200:128,1,181.999991668702,8|0,0:0|0:0,0:0:0:0:
176,216,239493,2,0,P|136:184|144:56,2,181.999991668702,0|8|0,0:0|0:0|0:0,0:0:0:0:
248,160,240564,2,0,P|288:128|344:128,2,90.9999958343508,0|8|0,0:0|0:0|0:0,0:0:0:0:
176,216,241207,2,0,P|120:232|76:204,1,90.9999958343508,0|8,0:0|0:0,0:0:0:0:
80,96,241636,6,0,P|168:112|264:72,1,181.999991668702,8|0,0:0|0:0,0:0:0:0:
426,97,242279,2,0,P|338:113|242:73,1,181.999991668702,8|0,0:0|0:0,0:0:0:0:
254,81,242921,1,8,0:0:0:0:
96,80,243350,6,0,L|216:80,1,90.9999958343508,8|0,0:0|0:0,0:0:0:0:
152,208,243779,2,0,L|264:208,1,90.9999958343508,8|0,0:0|0:0,0:0:0:0:
184,144,244207,6,8,L|304:144,1,90.9999958343508
240,272,244636,2,8,L|352:272,1,90.9999958343508
440,232,245064,6,0,P|336:192|272:32,1,272.999987503052,4|0,0:0|0:0,0:0:0:0:
270,52,245921,1,8,0:0:0:0:
270,52,246350,1,8,0:0:0:0:
72,152,246779,6,0,P|176:192|240:352,1,272.999987503052,4|0,0:0|0:0,0:0:0:0:
241,331,247636,1,8,0:0:0:0:
424,328,248064,1,8,0:0:0:0:
360,264,248279,1,8,0:0:0:0:
424,200,248493,6,0,P|400:144|352:104,1,90.9999958343508,8|0,0:0|0:0,0:0:0:0:
232,40,248921,2,0,P|256:96|304:136,1,90.9999958343508
368,296,249350,6,0,P|344:240|296:200,1,90.9999958343508,8|0,0:0|0:0,0:0:0:0:
176,136,249779,2,0,P|200:192|248:232,1,90.9999958343508,8|0,0:0|0:0,0:0:0:0:
360,192,250207,2,0,P|320:88|272:32,1,181.999991668702,8|0,0:0|0:0,0:0:0:0:
64,112,251064,5,8,0:0:0:0:
64,320,251493,2,0,P|72:264|104:232,1,90.9999958343508,0|8,0:0|0:0,0:0:0:0:
64,320,251921,2,0,P|136:280|248:272,2,181.999991668702,12|0|4,0:0|0:0|0:0,0:0:0:0:
240,184,253207,5,0,0:0:0:0:
312,120,253421,1,0,0:0:0:0:
240,64,253636,1,12,0:0:0:0:
240,312,254064,1,0,0:0:0:0:
240,312,254493,6,4,L|240:112,1,181.999991668702,0|4,0:0|0:0,0:0:0:0:
256,192,255457,12,8,257921,0:0:0:0:
104,104,258779,5,8,0:0:0:0:
172,104,258993,1,8,0:0:0:0:
140,168,259207,2,8,L|228:168,1,70
180,232,259636,1,0,0:0:0:0:
249,233,259850,1,8,0:0:0:0:
214,293,260064,2,8,L|302:293,1,70
256,192,260493,12,0,263064,0:0:0:0:
256,96,264564,6,8,L|256:32,2,35
352,224,264993,5,8,0:0:0:0:
160,224,265207,1,0,0:0:0:0:
256,160,265421,1,8,0:0:0:0:
352,224,265636,1,4,0:0:0:0:
256,192,265743,12,0,269064,0:0:0:0:
