osu file format v9

[General]
AudioFilename: level e op.mp3
AudioLeadIn: 0
PreviewTime: -1
Countdown: 1
SampleSet: Normal
StackLeniency: 0.7
Mode: 0
LetterboxInBreaks: 1

[Editor]
DistanceSpacing: 0.8
BeatDivisor: 4
GridSize: 16

[Metadata]
Title:Cold Finger Girl (TV Size)
Artist:Kuriyama Chiaki
Creator:Riik
Version:Insane
Source:Level E
Tags:

[Difficulty]
HPDrainRate:9
CircleSize:6
OverallDifficulty:9
ApproachRate:9
SliderMultiplier:1.4
SliderTickRate:1

[Events]
//Background and Video events
0,0,"lve.jpg"
Video,0,"levele.wmv"
//Break Periods
2,46910,47797
2,49801,50608
//Storyboard Layer 0 (Background)
//Storyboard Layer 1 (Fail)
//Storyboard Layer 2 (Pass)
//Storyboard Layer 3 (Foreground)
//Storyboard Sound Samples
//Background Colour Transformations
3,100,163,162,255

[TimingPoints]
2429.75766919858,324.675324675325,4,2,0,100,1,0
8923,324.675324675325,4,1,0,100,1,0
9572,324.675324675325,4,2,0,100,1,0
15300,319.148936170213,4,2,0,100,1,0
25512,321.199143468951,4,1,0,100,1,1
45426,321.199143468951,4,1,0,100,1,0

[Colours]
Combo1 : 128,0,128
Combo2 : 5,240,5
Combo3 : 255,255,0
Combo4 : 240,5,5
Combo5 : 255,128,0

[HitObjects]
32,352,2429,1,2
32,288,2754,1,2
32,224,3079,1,2
32,160,3403,1,2
96,160,3728,1,2
96,224,4053,1,2
96,288,4377,1,2
176,288,4702,1,2
128,336,5027,5,0
208,336,5351,1,0
352,208,5676,2,0,B|352:352,1,140
448,288,6325,2,0,B|448:144,1,140
448,64,6975,1,2
368,64,7299,1,2
288,64,7624,1,2
224,64,7868,5,2
224,64,7949,1,0
160,64,8192,1,2
160,64,8273,1,0
256,192,8760,5,4
256,192,9572,1,2
256,192,9896,1,2
256,192,10059,1,8
256,192,10221,1,2
400,192,10870,6,2,B|272:112,1,140
208,96,11520,1,0
96,144,12169,6,2,B|96:224,2,70
96,256,12819,2,4,B|256:256,1,140
320,256,13386,1,2
320,256,13711,1,2
320,256,13792,1,6
448,64,14118,2,4,B|304:64,1,140
208,64,14766,1,2
112,64,14929,1,2
32,64,15091,1,2
0,320,15300,5,0
96,320,15619,1,0
192,320,15938,1,0
272,320,16257,1,0
352,176,16576,2,0,B|352:320,1,140
160,192,17055,1,2
240,192,17214,1,2
432,272,17853,5,2
336,272,18172,1,2
288,336,18331,1,0
256,272,18491,1,0
176,272,18810,1,2
112,336,18970,1,0
16,336,19129,2,0,B|176:96,1,280
240,176,20087,1,8
352,160,20406,5,0
288,96,20725,1,2
240,48,20885,1,0
192,96,21044,1,0
96,112,21363,1,2
48,80,21523,1,0
96,32,21682,2,8,B|240:32,1,140
304,32,22321,5,2
304,32,22480,1,2
304,32,22640,1,2
368,112,22959,5,8
448,160,23278,1,2
368,192,23597,1,8
432,256,23917,1,2
368,272,24236,1,8
288,272,24555,1,8
208,320,24874,2,2,B|208:224,1,70
144,256,25193,1,2
256,192,25550,12,0,27118
256,192,27439,5,8
256,192,27599,1,10
256,192,27760,1,8
256,192,27921,1,4
256,96,28714,1,2
240,48,28884,1,8
208,96,29045,1,2
176,48,29205,1,8
160,96,29363,1,2
64,96,30012,1,2
64,96,30169,1,8
48,176,30490,2,2,B|192:176,1,140
256,176,30972,1,2
256,240,31293,1,2
256,304,31614,1,8
272,352,31775,1,0
320,320,31935,2,0,B|320:160,1,140
192,352,32417,5,2
96,352,32578,1,2
64,288,32739,1,2
144,304,33060,6,0,B|144:160,1,140
244,160,34184,1,2
256,192,34826,1,2
256,192,35067,1,8
256,192,35228,1,8
208,240,35469,6,0,B|208:320,1,70
320,320,35790,2,0,B|400:320,1,70
480,320,36111,2,0,B|480:176,1,140
464,128,38038,6,0,B|464:208,1,70
464,288,38359,2,0,B|384:288,1,70
400,208,38681,1,0
384,224,39644,1,2
320,288,39966,1,2
240,288,40287,1,8
240,288,40447,1,8
160,288,40608,1,8
80,288,40769,2,8,B|80:128,1,140
144,160,41250,1,8
208,160,41571,1,8
256,176,42214,6,0,B|256:32,2,140
320,32,43177,1,8
416,64,43338,1,2
416,64,43499,1,2
416,64,43659,1,2
336,64,43820,5,2
400,96,44141,1,0
256,304,45426,5,4
256,240,45586,1,4
256,160,45907,1,8
336,192,46228,1,2
336,192,46389,1,2
336,192,46710,1,8
256,192,48397,5,2
256,192,48798,1,4
256,192,49120,1,2
256,192,49280,1,2
256,192,49601,1,4
256,192,51208,5,4
192,144,51368,1,8
256,96,51529,1,2
384,192,51850,1,8
320,240,52010,1,8
384,304,52171,1,2
240,320,52492,1,0
176,272,52652,1,8
112,320,52814,1,2
80,192,53134,1,4
144,144,53375,1,8
80,80,53456,1,4
208,96,53777,5,10
208,96,54098,1,10
208,96,54419,1,10
208,96,54740,1,10
256,192,55062,5,4
256,192,55383,1,2
256,192,55704,1,4
256,192,55864,5,2
256,192,56025,1,8
112,96,56186,1,2
176,128,56346,1,6
256,112,56507,1,2
160,48,56667,1,2
208,16,56828,1,2
240,48,56989,6,2,B|384:48|512:144|432:336,1,420
144,288,58273,1,8
464,192,58595,1,2
464,192,58916,1,4
400,256,59237,1,2
336,288,59558,2,4,B|336:352|288:336|288:336|192:336|192:336|192:224|192:224,1,280
272,256,60522,6,0,B|272:176,8,70
128,144,62449,2,0,B|128:224,3,70
224,144,63413,2,0,B|304:144,2,70
384,144,64055,2,0,B|384:224,3,70
368,192,65340,1,8
256,192,65982,5,4
256,192,66304,1,8
256,192,66625,1,4
256,112,66946,1,8
336,192,67267,1,8
256,272,67588,1,8
176,192,67909,1,8
64,64,68231,5,8
64,64,68552,1,4
64,64,68873,1,8
64,64,69034,1,4
256,272,69515,5,8
192,272,69837,1,8
128,272,70158,1,8
160,336,70479,1,8
48,320,70800,5,8
48,320,71122,1,4
48,320,71443,1,8
48,320,71603,1,4
208,192,72085,5,8
256,128,72406,1,8
320,192,72727,1,8
256,256,73049,1,8
480,320,73370,5,8
480,320,73691,1,4
152,274,74012,2,8,B|208:400|208:400|416:224|416:224|160:240|176:224|400:48,1,840
317,221,76421,1,8
256,192,76903,12,8,81400
256,192,82042,5,4
256,208,83648,1,8
256,208,84291,1,4
256,208,85254,1,4
