osu file format v9

[General]
AudioFilename: level e op.mp3
AudioLeadIn: 0
PreviewTime: -1
Countdown: 1
SampleSet: Soft
StackLeniency: 0.7
Mode: 0
LetterboxInBreaks: 1

[Editor]
DistanceSpacing: 0.8
BeatDivisor: 4
GridSize: 16

[Metadata]
Title:Cold Finger Girl (TV Size)
Artist:Kuriyama Chiaki
Creator:Riik
Version:Easy
Source:Level E
Tags:

[Difficulty]
HPDrainRate:4
CircleSize:4
OverallDifficulty:4
ApproachRate:2
SliderMultiplier:1.4
SliderTickRate:1

[Events]
//Background and Video events
0,0,"lve.jpg"
Video,0,"levele.wmv"
//Break Periods
2,45626,49648
//Storyboard Layer 0 (Background)
//Storyboard Layer 1 (Fail)
//Storyboard Layer 2 (Pass)
//Storyboard Layer 3 (Foreground)
//Storyboard Sound Samples
//Background Colour Transformations
3,100,163,162,255

[TimingPoints]
2429.75766919858,649.350649350649,4,2,0,100,1,0
15300,638.297872340426,4,2,0,100,1,0
25512,642.401229946524,4,1,0,100,1,1
45426,642.401229946524,4,1,0,100,1,0

[Colours]
Combo1 : 255,255,0
Combo2 : 5,240,5
Combo3 : 5,5,240
Combo4 : 240,5,5
Combo5 : 255,128,0

[HitObjects]
96,304,5027,2,0,B|96:144,1,140
176,192,6325,2,0,B|176:336,1,140
256,256,7624,1,4
352,160,10221,6,0,B|288:64|128:48|80:80,1,280
96,160,12170,1,0
96,256,12819,2,4,B|256:256,1,140
240,320,14118,2,4,B|96:320,1,140
48,48,15300,5,0
96,112,15619,1,0
144,48,15938,1,0
176,128,16257,1,0
240,48,16576,2,0,B|240:192,1,140
144,144,17853,5,2
96,80,18172,1,2
48,144,18491,1,0
0,80,18810,1,2
48,240,19129,2,0,B|192:240,1,140
240,240,20406,5,0
304,192,20725,1,2
240,144,21044,1,0
160,96,21363,1,2
240,48,21682,2,8,B|384:48,1,140
368,112,22959,5,8
448,160,23278,1,2
368,192,23597,1,8
368,272,24236,1,8
288,272,24555,1,8
208,320,24874,2,2,B|208:224,1,70
256,192,25550,12,0,26833
256,192,27416,5,8
256,192,27760,1,10
256,192,28065,1,4
256,96,28714,1,2
160,96,29363,1,2
64,96,30012,1,2
64,96,30330,1,2
64,192,30651,5,4
64,288,31293,2,4,B|224:288,2,140
64,288,32739,1,2
464,288,33220,6,0,B|464:128,1,140
304,240,34505,2,2,B|144:240|160:240,1,140
64,48,35790,6,0,B|64:128,1,70
144,112,36432,2,0,B|224:112,1,70
304,112,37075,2,2,B|304:32,1,70
384,48,37717,1,8
464,48,38038,1,8
464,128,38360,6,0,B|464:208,1,70
464,288,39002,2,0,B|384:288,1,70
352,288,39644,2,0,B|256:288,1,70
208,304,40287,1,8
128,304,40608,1,8
48,304,40929,2,8,B|48:144,1,140
256,176,42214,6,0,B|256:32,2,140
352,64,44141,6,0,B|352:224,1,140
256,304,45426,1,4
256,192,51208,5,4
256,112,51529,1,2
336,112,51850,1,8
336,192,52171,1,2
336,272,52492,1,0
256,272,52814,1,2
176,272,53134,1,4
176,192,53456,1,4
256,192,55062,5,4
256,192,55383,1,2
256,192,55704,1,4
176,128,56346,1,6
256,64,56989,6,4,B|496:64|496:64|496:128,1,280
464,192,58916,1,4
464,288,59558,2,4,B|464:352|416:336|416:336|320:336|320:336|320:224|320:224,1,280
48,192,61486,2,0,B|48:48|48:48|192:48|192:48|304:144,1,420
144,144,64055,1,8
256,192,64698,1,0
368,192,65340,1,8
256,192,65982,1,4
256,192,66304,1,8
256,192,66625,1,4
64,64,68231,1,8
64,64,68552,1,4
64,64,69194,1,4
48,320,70800,1,8
48,320,71122,1,4
48,320,71764,1,4
480,320,73370,1,8
480,320,73691,1,4
416,320,74334,2,8,B|304:208,3,140
256,192,76903,12,8,81400
