osu file format v14

[General]
AudioFilename: Kuricorder Quartet - Oziisan no 11kagetsu.mp3
AudioLeadIn: 0
PreviewTime: 8743
Countdown: 0
SampleSet: None
StackLeniency: 0.7
Mode: 2
LetterboxInBreaks: 0
WidescreenStoryboard: 1

[Editor]
DistanceSpacing: 2
BeatDivisor: 4
GridSize: 16
TimelineZoom: 1.3

[Metadata]
Title:Oziisan no 11kagetsu
TitleUnicode:おじいさんの11ヶ月
Artist:Kuricorder Quartet
ArtistUnicode:栗コーダーカルテット
Creator:-[ Kami ]-
Version:HELL
Source:
Tags:
BeatmapID:714165
BeatmapSetID:320986

[Difficulty]
HPDrainRate:10
CircleSize:10
OverallDifficulty:10
ApproachRate:10
SliderMultiplier:2.2
SliderTickRate:1

[Events]
//Background and Video events
0,0,"bg.jpg",0,0
//Break Periods
//Storyboard Layer 0 (Background)
//Storyboard Layer 1 (Fail)
//Storyboard Layer 2 (Pass)
//Storyboard Layer 3 (Foreground)
//Storyboard Sound Samples

[TimingPoints]
1590,461.538461538462,4,1,0,100,1,0
38519,456.273764258555,4,1,0,100,1,0
53220,455.235204855842,4,1,0,100,1,0
64145,468.75,4,1,0,100,1,0
67895,463.320463320463,4,1,0,100,1,0
82765,469.483568075117,4,1,0,100,1,0
97736,459.770114942529,4,1,0,100,1,0
103214,460.829493087558,4,1,0,100,1,0
112496,461.538461538462,4,1,0,100,1,0

[HitObjects]
448,192,1590,5,0,0:0:0:0:
160,192,2051,1,0,0:0:0:0:
416,192,2513,1,0,0:0:0:0:
128,192,2974,1,0,0:0:0:0:
384,192,3436,5,0,0:0:0:0:
96,192,3897,1,0,0:0:0:0:
352,192,4359,1,0,0:0:0:0:
64,192,4820,1,0,0:0:0:0:
384,192,5282,5,0,0:0:0:0:
96,192,5743,1,0,0:0:0:0:
416,192,6205,1,0,0:0:0:0:
128,192,6666,1,0,0:0:0:0:
448,192,7128,5,0,0:0:0:0:
160,192,7590,1,0,0:0:0:0:
480,192,8282,5,0,0:0:0:0:
256,192,8513,1,0,0:0:0:0:
32,192,8744,1,0,0:0:0:0:
32,192,8974,6,0,L|144:192,1,110
256,192,9436,2,0,L|368:192,1,110
480,192,9897,2,0,L|368:192,1,110
256,192,10359,2,0,L|144:192,1,110
32,192,10820,6,0,L|144:192,1,110
256,192,11282,2,0,L|381:192,1,110
480,192,11743,2,0,L|368:192,1,110
256,192,12205,2,0,L|144:192,1,110
256,320,12666,6,0,L|368:320,1,110
256,320,13128,2,0,L|144:320,1,110
288,256,13590,2,0,L|400:256,1,110
224,256,14051,2,0,L|112:256,1,110
320,192,14513,6,0,L|432:192,1,110
192,192,14974,2,0,L|80:192,1,110
352,128,15436,2,0,L|464:128,1,110
160,128,15897,2,0,L|48:128,1,110
256,192,16359,5,0,0:0:0:0:
400,192,16590,1,0,0:0:0:0:
224,192,16820,1,0,0:0:0:0:
432,192,17051,2,0,P|496:272|432:352,1,220
128,320,17743,1,0,0:0:0:0:
192,256,17974,1,0,0:0:0:0:
256,192,18205,5,0,0:0:0:0:
112,192,18436,1,0,0:0:0:0:
288,192,18666,1,0,0:0:0:0:
80,192,18897,2,0,P|16:112|80:32,1,220
480,192,19590,1,0,0:0:0:0:
416,192,19820,1,0,0:0:0:0:
352,192,20051,6,0,B|256:256|256:256|192:192|192:192|112:112|112:112|16:192,1,440
256,192,21205,1,0,0:0:0:0:
112,192,21436,1,0,0:0:0:0:
320,192,21666,1,0,0:0:0:0:
112,192,21897,6,0,B|96:192|48:184|32:160|24:128|24:112|24:96|32:64|48:48|72:32|96:32|112:32|112:32|416:32,1,550
112,112,23282,1,0,0:0:0:0:
224,336,23743,6,0,L|334:336,1,110
160,240,24205,2,0,L|270:240,1,110
96,144,24666,2,0,L|206:144,1,110
32,48,25128,2,0,L|142:48,1,110
288,336,25590,6,0,L|178:336,1,110
352,240,26052,2,0,L|242:240,1,110
416,144,26513,2,0,L|306:144,1,110
480,48,26975,2,0,L|370:48,1,110
144,48,27436,6,0,L|34:48,1,110
368,144,27898,2,0,L|258:144,1,110
144,240,28359,2,0,L|34:240,1,110
368,336,28821,2,0,L|258:336,1,110
368,48,29282,6,0,L|478:48,1,110
148,144,29744,2,0,L|258:144,1,110
368,240,30205,2,0,L|478:240,1,110
148,336,30667,2,0,L|258:336,1,110
184,192,31128,6,0,L|72:192,2,110
352,112,31820,2,0,P|416:192|352:272,1,220
128,192,32513,1,0,0:0:0:0:
328,192,32743,1,0,0:0:0:0:
328,192,32974,6,0,L|440:192,2,110
160,112,33666,2,0,P|96:192|160:272,1,220
384,192,34359,1,0,0:0:0:0:
184,192,34589,1,0,0:0:0:0:
328,288,34820,6,0,L|448:288,1,110
232,96,35282,2,0,L|352:96,1,110
136,288,35743,2,0,L|256:288,1,110
40,96,36205,2,0,L|160:96,1,110
448,192,36666,5,0,0:0:0:0:
416,192,36782,1,0,0:0:0:0:
112,192,37013,1,0,0:0:0:0:
144,192,37129,1,0,0:0:0:0:
176,192,37244,1,0,0:0:0:0:
480,192,37474,1,0,0:0:0:0:
448,192,37590,1,0,0:0:0:0:
40,40,38519,6,0,L|40:152,1,110
392,136,38975,2,0,L|392:248,1,110
96,88,39431,2,0,L|96:200,1,110
448,192,39887,2,0,L|448:304,1,110
40,144,40344,6,0,L|40:256,1,110
392,240,40800,2,0,L|392:352,1,110
96,88,41256,2,0,L|96:200,1,110
448,192,41712,2,0,L|448:304,1,110
152,32,42169,6,0,L|152:144,1,110
504,136,42625,2,0,L|504:248,1,110
96,88,43081,2,0,L|96:200,1,110
448,192,43538,2,0,L|448:304,1,110
144,192,43994,5,0,0:0:0:0:
288,192,44222,1,0,0:0:0:0:
112,192,44450,1,0,0:0:0:0:
320,192,44678,2,0,B|400:112|400:112|324:36,1,220
80,192,45363,1,0,0:0:0:0:
368,192,45819,5,0,0:0:0:0:
224,192,46047,1,0,0:0:0:0:
400,192,46275,1,0,0:0:0:0:
192,192,46503,2,0,B|112:272|112:272|188:348,1,220
440,192,47188,1,0,0:0:0:0:
304,192,47416,1,0,0:0:0:0:
144,192,47644,5,0,0:0:0:0:
288,192,47872,1,0,0:0:0:0:
112,192,48100,1,0,0:0:0:0:
320,192,48328,2,0,B|400:112|400:112|324:36,1,220
80,192,49013,1,0,0:0:0:0:
216,192,49241,1,0,0:0:0:0:
360,224,49469,6,0,B|376:224|376:224|512:224|512:32|368:32|368:32|360:32|360:32|40:32,1,660
352,160,51066,6,0,B|368:160|368:160|504:160|504:352|360:352|360:352|136:352|136:352|-8:352|-8:160|136:160|136:160|296:160,1,1031.25
288,160,53447,1,0,0:0:0:0:
224,160,53675,1,0,0:0:0:0:
224,160,53902,1,0,0:0:0:0:
352,160,54130,1,0,0:0:0:0:
352,160,54358,1,0,0:0:0:0:
152,160,54585,1,0,0:0:0:0:
152,160,54813,1,0,0:0:0:0:
416,160,55040,5,0,0:0:0:0:
416,160,55268,1,0,0:0:0:0:
96,160,55496,1,0,0:0:0:0:
96,160,55723,1,0,0:0:0:0:
480,160,55951,1,0,0:0:0:0:
480,160,56179,1,0,0:0:0:0:
32,160,56406,1,0,0:0:0:0:
32,160,56634,1,0,0:0:0:0:
416,160,56861,5,0,0:0:0:0:
416,160,57089,1,0,0:0:0:0:
96,160,57317,1,0,0:0:0:0:
96,160,57544,1,0,0:0:0:0:
352,160,57772,1,0,0:0:0:0:
352,160,57999,1,0,0:0:0:0:
160,160,58227,1,0,0:0:0:0:
160,160,58455,1,0,0:0:0:0:
288,160,58682,5,0,0:0:0:0:
288,160,58910,1,0,0:0:0:0:
224,160,59138,1,0,0:0:0:0:
224,96,59365,2,0,L|0:96,1,220
360,232,60048,1,0,0:0:0:0:
360,304,60503,6,0,L|472:304,2,110
32,232,61186,2,0,B|256:232,1,220
392,160,61869,1,0,0:0:0:0:
96,160,62097,1,0,0:0:0:0:
216,80,62324,6,0,L|336:80,1,110
448,80,62779,1,0,0:0:0:0:
144,80,63007,1,0,0:0:0:0:
312,240,63462,2,0,L|432:240,2,110
78,240,64145,5,0,0:0:0:0:
422,240,64613,1,0,0:0:0:0:
46,240,65082,1,0,0:0:0:0:
456,240,65551,1,0,0:0:0:0:
80,240,66020,5,0,0:0:0:0:
80,240,66137,1,0,0:0:0:0:
392,240,66371,1,0,0:0:0:0:
392,240,66488,1,0,0:0:0:0:
392,240,66605,1,0,0:0:0:0:
32,240,66840,1,0,0:0:0:0:
32,240,66957,1,0,0:0:0:0:
144,80,67895,6,0,L|256:80,1,110
368,80,68358,2,0,L|256:80,1,110
112,152,68821,2,0,L|224:152,1,110
400,152,69284,2,0,L|288:152,1,110
80,224,69748,6,0,L|192:224,1,110
432,224,70211,2,0,L|320:224,1,110
48,296,70674,2,0,L|160:296,1,110
464,296,71137,2,0,L|352:296,1,110
144,120,71601,6,0,L|256:120,2,110
368,120,72296,2,0,L|256:120,2,110
80,192,72991,2,0,L|192:192,2,110
432,192,73686,2,0,L|320:192,2,110
158,264,74381,6,0,L|48:264,1,110
354,264,74844,2,0,L|464:264,1,110
144,128,75308,6,0,L|32:128,1,110
216,128,75771,1,0,0:0:0:0:
400,200,76003,2,0,L|178:200,1,220
512,272,76698,2,0,L|400:272,1,110
368,128,77161,6,0,L|480:128,1,110
296,128,77624,1,0,0:0:0:0:
112,200,77856,2,0,L|334:200,1,220
0,272,78551,2,0,L|112:272,1,110
480,40,79014,6,0,L|40:40,1,440
480,112,80172,2,0,L|368:112,1,110
40,112,80636,1,0,0:0:0:0:
480,184,80867,2,0,L|40:184,1,440
152,256,82026,5,0,0:0:0:0:
480,256,82257,1,0,0:0:0:0:
48,48,82765,6,0,B|312:64|248:176|136:176,1,330
464,336,83703,2,0,B|200:320|264:208|376:208,1,330
32,152,84642,2,0,B|244:179|324:75|120:64,1,330
480,232,85581,2,0,B|267:204|187:308|392:320,1,330
40,48,86520,6,0,L|384:48,1,330
192,128,87459,2,0,L|320:128,1,110
8,208,87929,2,0,L|136:208,1,110
472,336,88398,6,0,L|128:336,1,330
424,272,89337,1,0,0:0:0:0:
88,272,89572,1,0,0:0:0:0:
496,272,89807,1,0,0:0:0:0:
16,272,90041,1,0,0:0:0:0:
320,200,90276,6,0,B|520:176|520:96|280:72,1,330
0,136,91215,2,0,L|110:136,1,110
112,304,91685,2,0,L|2:304,1,110
344,304,92154,6,0,B|535:285|535:205|343:185|343:185|143:165|143:85|343:61,1,660
0,280,94032,6,0,L|112:280,1,110
512,144,94502,2,0,L|400:144,1,110
192,192,94971,1,0,0:0:0:0:
408,192,95206,1,0,0:0:0:0:
160,192,95441,1,0,0:0:0:0:
432,192,95675,1,0,0:0:0:0:
32,192,95910,5,0,0:0:0:0:
480,192,96262,1,0,0:0:0:0:
480,192,96379,1,0,0:0:0:0:
32,192,96614,1,0,0:0:0:0:
408,192,96849,1,0,0:0:0:0:
0,192,97736,5,0,0:0:0:0:
192,192,97965,1,0,0:0:0:0:
0,192,98195,1,0,0:0:0:0:
192,192,98425,1,0,0:0:0:0:
64,192,98655,1,0,0:0:0:0:
256,192,98885,1,0,0:0:0:0:
64,192,99115,1,0,0:0:0:0:
256,192,99345,1,0,0:0:0:0:
128,192,99575,5,0,0:0:0:0:
320,192,99804,1,0,0:0:0:0:
128,192,100034,1,0,0:0:0:0:
320,192,100264,1,0,0:0:0:0:
192,192,100494,1,0,0:0:0:0:
384,192,100724,1,0,0:0:0:0:
192,192,100954,1,0,0:0:0:0:
384,192,101184,1,0,0:0:0:0:
256,192,101414,5,0,0:0:0:0:
448,192,101644,1,0,0:0:0:0:
256,192,101873,1,0,0:0:0:0:
448,192,102103,1,0,0:0:0:0:
320,192,102333,1,0,0:0:0:0:
512,192,102563,1,0,0:0:0:0:
320,192,102793,1,0,0:0:0:0:
512,192,103023,1,0,0:0:0:0:
320,192,103214,6,0,L|192:192,1,110
80,192,103674,1,0,0:0:0:0:
210,192,103903,2,0,L|432:192,1,220
320,192,104593,1,0,0:0:0:0:
256,32,105057,6,0,L|144:32,1,110
32,32,105518,1,0,0:0:0:0:
480,96,105748,2,0,L|256:96,1,220
368,96,106439,1,0,0:0:0:0:
144,96,106670,1,0,0:0:0:0:
256,176,106900,6,0,L|368:176,1,110
480,176,107361,1,0,0:0:0:0:
32,240,107591,2,0,L|256:240,1,220
144,240,108283,1,0,0:0:0:0:
368,240,108513,1,0,0:0:0:0:
256,128,108743,6,0,L|144:128,2,110
32,128,109435,1,0,0:0:0:0:
256,128,109665,2,0,L|368:128,2,110
480,128,110357,1,0,0:0:0:0:
32,192,110817,5,0,0:0:0:0:
256,192,111048,1,0,0:0:0:0:
480,192,111278,1,0,0:0:0:0:
224,256,111508,1,0,0:0:0:0:
448,256,111739,1,0,0:0:0:0:
192,320,111969,1,0,0:0:0:0:
416,320,112200,1,0,0:0:0:0:
160,128,112468,5,0,0:0:0:0:
160,128,112726,1,0,0:0:0:0:
160,128,112957,1,0,0:0:0:0:
480,128,113188,1,0,0:0:0:0:
352,128,113419,1,0,0:0:0:0:
352,128,113649,1,0,0:0:0:0:
352,128,113880,1,0,0:0:0:0:
32,128,114111,1,0,0:0:0:0:
192,128,114342,5,0,0:0:0:0:
192,128,114572,1,0,0:0:0:0:
192,128,114803,1,0,0:0:0:0:
512,128,115034,1,0,0:0:0:0:
320,128,115265,1,0,0:0:0:0:
320,128,115496,1,0,0:0:0:0:
320,128,115726,1,0,0:0:0:0:
0,128,115957,1,0,0:0:0:0:
0,256,116188,6,0,L|128:256,1,110
400,256,116649,2,0,L|512:256,1,110
0,256,117111,2,0,L|128:256,1,110
400,256,117572,2,0,L|512:256,1,110
512,256,118034,6,0,L|384:256,1,110
112,256,118495,2,0,L|0:256,1,110
512,256,118957,2,0,L|384:256,1,110
112,256,119418,2,0,L|0:256,1,110
104,72,119880,6,0,L|216:72,1,110
504,72,120342,2,0,L|392:72,1,110
72,152,120803,2,0,L|184:152,1,110
472,152,121265,2,0,L|360:152,1,110
40,232,121726,6,0,L|152:232,1,110
440,232,122188,2,0,L|328:232,1,110
8,312,122649,2,0,L|120:312,1,110
408,312,123111,2,0,L|296:312,1,110
0,192,123572,5,0,0:0:0:0:
284,192,123803,1,0,0:0:0:0:
32,192,124034,1,0,0:0:0:0:
316,192,124265,1,0,0:0:0:0:
64,192,124496,1,0,0:0:0:0:
348,192,124727,1,0,0:0:0:0:
96,192,124957,1,0,0:0:0:0:
380,192,125188,1,0,0:0:0:0:
128,192,125419,5,0,0:0:0:0:
412,192,125650,1,0,0:0:0:0:
160,192,125880,1,0,0:0:0:0:
444,192,126111,1,0,0:0:0:0:
192,192,126342,1,0,0:0:0:0:
476,192,126573,1,0,0:0:0:0:
224,192,126803,1,0,0:0:0:0:
508,192,127034,1,0,0:0:0:0:
0,192,127265,5,0,0:0:0:0:
0,192,127496,1,0,0:0:0:0:
512,192,127726,1,0,0:0:0:0:
512,192,127957,1,0,0:0:0:0:
0,192,128188,1,0,0:0:0:0:
0,192,128419,1,0,0:0:0:0:
256,192,128649,1,0,0:0:0:0:
256,192,128880,12,0,132457,0:0:0:0:
