osu file format v12

[General]
AudioFilename: 01 - OP theme2_unripe hero (TV size).mp3
AudioLeadIn: 2000
PreviewTime: 48231
Countdown: 0
SampleSet: Normal
StackLeniency: 0.7
Mode: 0
LetterboxInBreaks: 0

[Editor]
DistanceSpacing: 1
BeatDivisor: 4
GridSize: 4

[Metadata]
Title:unripe hero (TV Size)
TitleUnicode:unripe hero (TV Size)
Artist:Kuribayashi Minami
ArtistUnicode:栗林みな実
Creator:Totori
Version:Skystar
Source:BLASSREITER
Tags:ブラスレイター GONZO Nitro+ Urobuchi Gen opening Amamiya Yuko Skystar N_E_K_O NEKO
BeatmapID:261702
BeatmapSetID:97911

[Difficulty]
HPDrainRate:7
CircleSize:5
OverallDifficulty:8
ApproachRate:9
SliderMultiplier:1.76
SliderTickRate:1

[Events]
//Background and Video events
0,0,"bg.jpg",0,0
Video,-35,"video.flv"
//Break Periods
2,10858,12584
2,13384,15110
2,15910,17637
//Storyboard Layer 0 (Background)
//Storyboard Layer 1 (Fail)
//Storyboard Layer 2 (Pass)
//Storyboard Layer 3 (Foreground)
//Storyboard Sound Samples
//Background Colour Transformations
3,100,163,162,255

[TimingPoints]
553,315.789473684211,4,1,1,30,1,0
553,-200,4,1,1,30,0,0
3710,-200,4,1,1,20,0,0
4342,-133.333333333333,4,1,1,30,0,0
4658,-100,4,1,1,40,0,0
4974,-80,4,1,1,50,0,0
5289,-66.6666666666667,4,1,1,60,0,0
5605,-100,4,1,1,60,0,0
10184,-100,4,1,1,70,0,0
19500,-100,4,1,1,50,0,0
30868,-200,4,1,1,60,0,0
31342,-100,4,1,1,60,0,0
32131,-100,4,1,1,40,0,0
32447,-200,4,1,1,60,0,0
32921,-100,4,1,1,60,0,0
33395,-200,4,1,1,60,0,0
33868,-100,4,1,1,60,0,0
34658,-100,4,1,1,40,0,0
34974,-200,4,1,1,60,0,0
35447,-100,4,1,1,60,0,0
35921,-200,4,1,1,60,0,0
36395,-100,4,1,1,60,0,0
37184,-100,4,1,1,40,0,0
37500,-200,4,1,1,60,0,0
37974,-100,4,1,1,60,0,0
38447,-200,4,1,1,60,0,0
38921,-100,4,1,1,50,0,0
39710,-100,4,1,1,40,0,0
40026,-200,4,1,1,60,0,0
40500,-100,4,1,1,60,0,0
40658,-100,4,1,1,40,0,0
40974,-100,4,1,1,60,0,0
41447,-200,4,1,1,60,0,0
42237,-200,4,1,1,40,0,0
42553,-100,4,1,1,60,0,0
43026,-200,4,1,1,60,0,0
43500,-100,4,1,1,60,0,0
43974,-200,4,1,1,60,0,0
44605,-200,4,1,1,30,0,0
44763,-100,4,1,1,90,0,0
45079,-100,4,1,1,60,0,0
45237,-200,4,1,1,60,0,0
46026,-100,4,1,1,60,0,0
46500,-100,4,1,1,65,0,0
46974,-200,4,1,1,70,0,0
47921,-100,4,1,1,70,0,0
48553,-100,4,1,2,100,0,1
48710,-100,4,1,2,70,0,1
53605,-100,4,1,2,80,0,1
53763,-100,4,1,2,70,0,1
58579,-100,4,1,2,70,0,0
58658,-100,4,1,2,90,0,1
58816,-100,4,1,2,70,0,1
64974,-200,4,1,2,60,0,1
65921,-100,4,1,2,60,0,1
66631,-100,4,1,2,50,0,1
66868,-100,4,1,2,65,0,1
66947,-100,4,1,2,50,0,1
67184,-100,4,1,2,70,0,1
67263,-100,4,1,2,50,0,1
67342,-100,4,1,2,80,0,0
67658,-100,4,1,2,70,0,0
68763,-100,4,1,2,100,0,1
68921,-100,4,1,2,70,0,1
73816,-100,4,1,2,80,0,1
73974,-100,4,1,2,70,0,1
78868,-100,4,1,2,90,0,1
79026,-100,4,1,2,70,0,1
82658,-100,4,1,2,70,0,0
83289,-100,4,1,1,20,0,0
83921,-100,4,1,1,60,0,1
84000,-100,4,1,1,60,0,0
87395,-66.6666666666667,4,1,1,60,0,0
87710,-80,4,1,1,40,0,0
88026,-100,4,1,1,50,0,0
88342,-133.333333333333,4,1,1,60,0,0
88658,-200,4,1,1,70,0,0

[Colours]
Combo1 : 120,120,120
Combo2 : 30,12,248
Combo3 : 176,9,9
Combo4 : 255,255,157
Combo5 : 225,151,173
Combo6 : 255,255,255
Combo7 : 212,212,212
Combo8 : 176,176,176

[HitObjects]
120,96,553,1,2,0:0:0:0:
192,48,710,1,0,0:0:0:0:
152,180,868,1,2,0:0:0:0:
236,159,1026,1,0,0:0:0:0:
153,269,1184,2,0,L|196:272,1,44,8|2,0:0|0:0,0:0:0:0:
472,212,1658,1,2,0:0:0:0:
388,188,1816,5,2,0:0:0:0:
336,44,1974,1,8,0:0:0:0:
236,159,2131,1,2,0:0:0:0:
392,192,2289,1,0,0:0:0:0:
340,48,2447,2,0,L|272:40,1,66,8|2,0:0|0:0,0:0:0:0:
252,48,2763,2,8,L|200:44,1,44
96,112,3237,5,2,0:0:0:0:
100,156,3395,1,2,0:0:0:0:
92,200,3553,1,0,0:0:0:0:
68,236,3710,2,0,L|80:288,1,44,0|0,0:0|0:0,0:0:0:0:
196,280,4026,6,0,L|208:332,1,44
320,224,4342,70,0,L|336:296,1,66.0000025177003
444,168,4658,6,0,L|464:260,1,88
336,288,4974,6,0,L|309:170,1,110
204,320,5289,6,0,L|172:180,1,132.000005035401,8|0,0:0|0:0,0:0:0:0:
192,56,5605,69,6,0:0:0:0:
358,113,5763,1,0,0:0:0:0:
358,113,5842,1,0,0:0:0:0:
358,113,5921,2,0,P|314:129|276:120,1,88,2|2,0:0|0:0,0:0:0:0:
88,36,6237,2,0,P|60:92|64:160,1,132,8|0,0:0|0:0,0:0:0:0:
63,159,6553,1,2,0:0:0:0:
184,256,6710,6,0,L|280:232,1,88,8|2,0:0|0:0,0:0:0:0:
144,356,7026,1,8,0:0:0:0:
324,320,7184,2,0,L|424:323,1,88,2|0,0:0|0:0,0:0:0:0:
488,240,7500,1,8,0:0:0:0:
208,132,7737,1,8,0:0:0:0:
208,132,7816,2,0,L|308:135,1,88,0|8,0:0|0:0,0:0:0:0:
380,208,8131,5,2,0:0:0:0:
184,256,8289,1,0,0:0:0:0:
210,257,8368,1,0,0:0:0:0:
236,258,8447,1,2,0:0:0:0:
304,144,8605,2,0,P|300:96|272:56,1,88,2|8,0:0|0:0,0:0:0:0:
156,44,8921,1,0,0:0:0:0:
36,180,9079,1,2,0:0:0:0:
36,180,9237,6,0,P|76:188|124:168,1,88,8|2,0:0|0:0,0:0:0:0:
208,132,9553,1,8,0:0:0:0:
340,224,9710,2,0,P|300:232|248:212,1,88,2|0,0:0|0:0,0:0:0:0:
376,92,10026,1,2,0:0:0:0:
464,152,10184,2,0,L|428:328,1,176,4|0,0:0|0:0,0:0:0:0:
428,324,10579,1,0,0:0:0:0:
428,324,10658,69,4,0:0:0:0:
428,324,13184,5,4,0:0:0:0:
428,324,15710,5,4,0:0:0:0:
428,324,18237,5,4,0:0:0:0:
83,59,19500,1,4,0:0:0:0:
172,160,19658,1,0,2:0:0:0:
152,156,19737,1,0,2:0:0:0:
132,152,19816,1,4,0:2:0:0:
228,40,19974,1,0,2:0:0:0:
228,40,20131,2,0,L|324:36,1,88,0|0,0:0|0:0,0:0:0:0:
332,36,20342,2,0,L|388:40,2,29.3333333333333,0|0|0,0:0|0:0|0:0,0:0:0:0:
444,92,20605,1,0,0:0:0:0:
464,76,20684,1,0,0:0:0:0:
484,60,20763,70,0,L|472:152,1,88,6|0,0:0|0:0,0:0:0:0:
352,192,21079,1,8,0:0:0:0:
256,236,21237,2,0,L|264:144,1,88,0|2,0:0|0:0,0:0:0:0:
136,32,21553,1,0,0:0:0:0:
160,136,21710,1,8,0:0:0:0:
76,256,21868,5,0,0:0:0:0:
52,248,21947,1,0,0:0:0:0:
28,240,22026,1,2,0:0:0:0:
148,216,22184,1,0,0:0:0:0:
220,316,22342,2,0,L|308:312,1,88,8|0,0:0|0:0,0:0:0:0:
336,312,22579,2,0,L|388:312,1,44,0|2,0:0|0:0,0:0:0:0:
432,212,22816,1,2,0:0:0:0:
292,92,22974,1,8,0:0:0:0:
328,192,23131,1,2,0:0:0:0:
488,40,23289,6,0,P|448:56|388:48,1,88,2|0,0:0|0:0,0:0:0:0:
328,192,23605,1,8,0:0:0:0:
224,172,23763,2,0,P|176:168|136:132,1,88,0|2,0:0|0:0,0:0:0:0:
260,272,24079,1,0,0:0:0:0:
156,288,24237,1,8,0:0:0:0:
64,236,24395,1,0,0:0:0:0:
60,208,24474,1,0,0:0:0:0:
56,180,24553,5,2,0:0:0:0:
196,200,24710,1,0,0:0:0:0:
332,160,24868,2,0,L|424:160,1,88,8|0,0:0|0:0,0:0:0:0:
440,176,25105,2,0,L|488:160,1,44,0|2,0:0|0:0,0:0:0:0:
408,88,25342,1,2,0:0:0:0:
376,240,25500,1,8,0:0:0:0:
264,132,25658,1,2,0:0:0:0:
228,338,25816,70,0,P|252:308|256:260,1,88,2|0,0:0|0:0,0:0:0:0:
120,224,26131,1,8,0:0:0:0:
116,72,26289,2,0,P|156:88|208:76,1,88,0|2,0:0|0:0,0:0:0:0:
320,56,26605,1,0,0:0:0:0:
424,52,26763,1,8,0:0:0:0:
488,136,26921,5,0,0:0:0:0:
476,160,27000,1,0,0:0:0:0:
464,184,27079,1,2,0:0:0:0:
340,176,27237,1,0,0:0:0:0:
328,200,27316,1,0,0:0:0:0:
316,224,27395,1,8,0:0:0:0:
192,216,27553,1,0,0:0:0:0:
180,240,27631,1,0,0:0:0:0:
168,264,27710,2,0,L|76:264,1,88,2|2,0:0|0:0,0:0:0:0:
132,152,28026,1,8,0:0:0:0:
252,124,28184,1,2,0:0:0:0:
324,304,28342,6,0,P|284:296|252:264,1,88,2|0,0:0|0:0,0:0:0:0:
188,348,28658,1,8,0:0:0:0:
84,328,28816,1,2,0:0:0:0:
80,304,28895,1,8,0:0:0:0:
76,280,28974,1,2,0:0:0:0:
132,152,29131,1,2,0:0:0:0:
266,112,29289,1,8,0:0:0:0:
384,192,29447,6,0,L|400:248,2,44,6|0|2,0:0|0:0|0:0,0:0:0:0:
436,100,29763,1,2,0:0:0:0:
356,28,29921,2,0,L|260:28,1,88,8|2,0:0|0:0,0:0:0:0:
244,36,30158,2,0,L|188:32,1,44,8|2,0:0|0:0,0:0:0:0:
97,61,30395,1,8,0:0:0:0:
82,82,30474,1,0,0:0:0:0:
77,108,30553,1,8,0:0:0:0:
82,134,30631,1,0,0:0:0:0:
96,156,30710,1,0,0:0:0:0:
118,171,30789,1,0,0:0:0:0:
144,176,30868,70,0,L|233:177,1,88,4|8,0:0|0:0,0:0:0:0:
388,216,31342,5,0,0:0:0:0:
420,296,31500,2,0,P|376:300|316:268,1,88,2|2,0:0|0:0,0:0:0:0:
176,256,31816,1,2,0:0:0:0:
208,336,31974,1,10,0:0:0:0:
144,176,32131,5,0,0:0:0:0:
264,268,32289,1,2,0:0:0:0:
264,268,32447,2,0,L|364:264,1,88,8|2,0:0|0:0,0:0:0:0:
352,264,32921,1,2,0:0:0:0:
496,128,33079,5,8,0:0:0:0:
412,156,33237,1,8,0:0:0:0:
328,132,33395,70,0,L|240:132,1,88,4|8,0:0|0:0,0:0:0:0:
180,44,33868,5,0,0:0:0:0:
160,48,33947,1,0,0:0:0:0:
140,52,34026,1,2,0:0:0:0:
36,161,34184,2,0,P|80:160|116:136,1,88,2|2,0:0|0:0,0:0:0:0:
200,156,34500,1,10,0:0:0:0:
352,60,34658,5,0,0:0:0:0:
400,136,34816,1,2,0:0:0:0:
400,136,34974,2,0,P|360:152|328:200,1,88,8|2,0:0|0:0,0:0:0:0:
480,248,35447,1,2,0:0:0:0:
484,228,35526,1,0,0:0:0:0:
488,208,35605,5,8,0:0:0:0:
400,136,35763,1,8,0:0:0:0:
288,160,35921,70,0,L|192:156,1,88,4|8,0:0|0:0,0:0:0:0:
80,240,36395,6,0,L|168:244,1,88,0|2,0:0|0:0,0:0:0:0:
288,160,36710,1,2,0:0:0:0:
284,140,36789,1,0,0:0:0:0:
280,120,36868,1,2,0:0:0:0:
188,36,37026,1,10,0:0:0:0:
92,112,37184,5,0,0:0:0:0:
148,180,37342,1,2,0:0:0:0:
148,180,37500,2,0,P|168:224|164:272,1,88,8|2,0:0|0:0,0:0:0:0:
104,320,37974,1,2,0:0:0:0:
60,196,38131,5,8,0:0:0:0:
180,96,38289,1,8,0:0:0:0:
236,164,38447,70,0,L|328:164,1,88,4|8,0:0|0:0,0:0:0:0:
468,232,38921,5,0,0:0:0:0:
364,272,39079,1,2,0:0:0:0:
372,252,39158,1,0,0:0:0:0:
380,232,39237,1,2,0:0:0:0:
400,352,39395,1,2,0:0:0:0:
312,340,39553,1,10,0:0:0:0:
200,240,39710,5,2,0:0:0:0:
112,252,39868,1,2,0:0:0:0:
112,252,40026,2,0,L|24:244,1,88,8|0,0:0|0:0,0:0:0:0:
84,360,40500,1,0,0:0:0:0:
104,356,40579,1,0,0:0:0:0:
124,352,40658,5,8,0:0:0:0:
168,360,40737,1,0,0:0:0:0:
212,356,40816,1,0,0:0:0:0:
256,344,40895,1,0,0:0:0:0:
292,316,40974,70,0,L|472:304,1,176,4|8,0:0|0:0,0:0:0:0:
504,176,41447,5,0,0:0:0:0:
384,112,41605,2,0,L|400:152,1,44,2|2,0:0|0:0,0:0:0:0:
284,128,41921,1,2,0:0:0:0:
300,40,42079,1,10,0:0:0:0:
176,16,42237,5,0,0:0:0:0:
204,164,42395,1,2,0:0:0:0:
232,312,42553,2,0,P|144:336|64:284,1,176,8|2,0:0|0:0,0:0:0:0:
40,176,43026,1,2,0:0:0:0:
64,140,43105,1,0,0:0:0:0:
88,104,43184,6,0,L|136:92,1,44,8|8,0:0|0:0,0:0:0:0:
300,40,43500,70,0,B|360:56|360:56|400:84|400:84|464:104,1,176,4|8,0:0|0:0,0:0:0:0:
384,248,43974,5,0,0:0:0:0:
480,316,44131,2,0,L|492:268,1,44,2|10,0:0|0:0,0:0:0:0:
296,144,44447,2,0,L|308:192,1,44,2|0,0:0|0:0,0:0:0:0:
348,336,44763,6,0,P|264:316|184:356,1,176,4|0,0:0|0:0,0:0:0:0:
72,372,45237,5,0,0:0:0:0:
72,372,45316,1,0,0:0:0:0:
72,372,45395,2,0,L|52:320,1,44,8|0,0:0|0:0,0:0:0:0:
64,180,45710,1,0,0:0:0:0:
188,244,45868,1,0,0:0:0:0:
188,244,46026,70,0,B|248:252|248:252|304:220|288:144,1,176,4|8,0:0|0:0,0:0:0:0:
176,64,46500,6,0,B|128:108|164:168|164:168|224:176,1,176,4|0,0:0|0:0,0:0:0:0:
360,168,46974,6,0,B|364:108|312:84|312:84|368:80,1,154,4|2,0:0|0:0,0:0:0:0:
384,72,47605,2,0,L|436:80,1,44,0|2,0:0|0:0,0:0:0:0:
484,260,47921,6,8,L|392:249,1,88
396,249,48553,6,2,B|364:280|364:280|232:288,1,176,6|10,0:0|0:0,0:0:0:0:
52,192,49026,2,0,B|128:196|128:196|152:188,1,88,0|2,0:0|0:0,0:0:0:0:
312,88,49342,1,0,0:0:0:0:
224,76,49500,1,10,0:0:0:0:
376,188,49658,6,2,B|368:252|368:252|372:308|372:308|364:368,1,176,2|0,0:0|0:0,0:0:0:0:
444,228,50131,2,2,B|450:182|450:182|436:136,1,88,10|2,0:0|2:0,0:0:0:0:
168,144,50447,2,2,B|162:190|162:190|176:236,1,88,2|2,0:0|2:0,0:0:0:0:
324,252,50763,1,8,0:0:0:0:
280,112,50921,1,2,0:0:0:0:
64,268,51079,6,2,B|92:260|92:260|240:268,1,176,2|8,0:0|0:0,0:0:0:0:
441,339,51553,2,2,B|368:336|368:336|356:328,2,88,2|0|0,0:0|0:0|0:0,0:0:0:0:
496,216,52026,1,10,0:0:0:0:
368,156,52184,1,0,0:0:0:0:
380,188,52263,1,10,0:0:0:0:
392,220,52342,5,0,0:0:0:0:
268,152,52500,1,2,0:0:0:0:
368,52,52658,1,8,0:0:0:0:
168,104,52816,2,0,L|152:192,1,88,2|2,0:2|0:2,0:0:0:0:
252,340,53131,2,0,B|236:300|236:300|244:256,1,88,2|10,0:0|0:0,0:0:0:0:
368,156,53447,1,0,0:0:0:0:
396,136,53526,1,8,0:0:0:0:
424,116,53605,70,2,B|336:120|336:120|260:64,1,176,6|10,0:0|0:0,0:0:0:0:
312,288,54079,2,0,B|331:268|331:268|391:264,1,88,2|0,0:0|0:0,0:0:0:0:
476,360,54395,1,0,0:0:0:0:
336,376,54553,1,10,0:0:0:0:
228,288,54710,6,2,B|196:296|196:296|48:288,1,176,2|0,0:0|0:0,0:0:0:0:
132,112,55184,2,2,B|206:115|206:115|222:127,1,88,10|2,0:0|2:0,0:0:0:0:
408,244,55500,2,2,B|336:266|336:266|323:262,1,88,2|2,0:0|2:0,0:0:0:0:
280,80,55816,1,10,0:0:0:0:
440,124,55974,1,0,0:0:0:0:
456,156,56053,1,10,0:0:0:0:
472,188,56131,5,0,0:0:0:0:
344,312,56289,1,2,0:0:0:0:
360,168,56447,1,8,0:0:0:0:
492,328,56605,2,0,B|448:332|448:332|412:364,1,88,2|2,0:0|0:0,0:0:0:0:
179,246,56921,2,0,B|223:250|223:250|256:280,1,88,0|14,0:0|0:0,0:0:0:0:
92,352,57237,5,0,0:0:0:0:
84,328,57316,1,8,0:0:0:0:
76,304,57395,1,2,0:0:0:0:
144,156,57553,1,8,0:0:0:0:
112,164,57631,1,8,0:0:0:0:
76,172,57710,2,8,L|32:184,2,44,10|8|0,0:0|0:0|0:0,0:0:0:0:
244,180,58026,1,10,0:0:0:0:
392,104,58184,2,0,L|348:96,1,44,0|8,0:0|0:0,0:0:0:0:
284,84,58342,1,10,0:0:0:0:
448,188,58500,2,0,L|480:144,1,44,2|0,0:0|0:0,0:0:0:0:
464,76,58658,70,0,B|440:40|440:40|436:-4,1,88,6|0,0:0|0:0,0:0:0:0:
336,172,58974,1,8,0:0:0:0:
252,264,59131,1,2,0:0:0:0:
216,260,59210,1,8,0:0:0:0:
184,240,59289,1,0,0:0:0:0:
204,112,59447,1,2,0:0:0:0:
320,212,59605,2,0,B|336:256|336:256|332:296,1,88,10|0,0:0|0:0,0:0:0:0:
164,328,59921,5,2,0:0:0:0:
76,340,60079,1,2,2:0:0:0:
152,168,60237,1,8,0:0:0:0:
240,180,60395,1,2,2:0:0:0:
192,340,60553,2,0,L|96:344,1,88,2|2,0:0|2:0,0:0:0:0:
124,160,60868,2,0,L|228:172,1,88,8|2,0:0|0:0,0:0:0:0:
228,100,61105,1,0,0:0:0:0:
228,100,61184,6,2,B|104:85|104:85|72:108|40:128,1,176,2|8,0:0|0:0,0:0:0:0:
8,256,61658,2,0,B|28:264|28:264|100:260,1,88,2|0,0:0|0:0,0:0:0:0:
356,172,61974,2,0,B|289:168|289:168|269:176,1,88,2|8,0:0|0:0,0:0:0:0:
168,328,62289,1,2,0:0:0:0:
204,320,62368,1,8,0:0:0:0:
240,312,62447,5,0,0:0:0:0:
124,252,62605,1,2,0:0:0:0:
316,360,62763,2,0,B|324:316|324:316|364:288,1,88,8|2,0:0|0:2,0:0:0:0:
388,272,63000,1,8,0:0:0:0:
420,252,63079,1,2,0:2:0:0:
240,312,63237,1,2,0:0:0:0:
400,364,63395,2,0,L|476:316,1,88,10|0,0:0|0:0,0:0:0:0:
496,252,63631,1,0,0:0:0:0:
496,252,63710,70,2,B|440:228|440:228|396:100,1,176,2|8,0:0|0:0,0:0:0:0:
368,24,64184,2,2,B|304:60|304:60|200:60,1,176,2|0,0:0|0:0,0:0:0:0:
112,168,64658,2,0,B|160:160|160:160|208:168,1,88,8|6,0:0|0:0,0:0:0:0:
368,224,64974,6,2,L|324:236,1,44,2|2,0:0|2:0,0:0:0:0:
484,276,65289,2,2,L|440:288,1,44,10|2,0:0|2:0,0:0:0:0:
500,128,65605,2,2,L|456:140,1,44,2|2,0:0|2:0,0:0:0:0:
368,132,65921,6,0,L|280:128,1,88,10|0,0:0|0:0,0:0:0:0:
244,128,66158,1,8,0:0:0:0:
208,128,66237,2,0,L|104:144,1,88,6|2,0:0|0:0,0:0:0:0:
144,272,66553,1,8,0:0:0:0:
108,268,66631,1,0,0:0:0:0:
72,264,66710,1,2,0:0:0:0:
236,228,66868,1,8,0:0:0:0:
272,224,66947,1,0,0:0:0:0:
308,220,67026,1,2,0:0:0:0:
444,324,67184,1,8,0:0:0:0:
408,320,67263,1,0,2:0:0:0:
372,316,67342,6,2,B|408:236|408:236|384:144,1,176,6|2,0:0|0:0,0:0:0:0:
352,48,67737,1,0,0:0:0:0:
352,48,67816,2,2,L|264:72,1,88,8|2,0:0|0:0,0:0:0:0:
148,124,68053,1,0,0:0:0:0:
148,124,68131,2,2,L|236:148,1,88,8|2,0:0|0:0,0:0:0:0:
348,208,68368,1,0,0:0:0:0:
348,208,68447,2,2,L|260:232,1,88,8|2,0:0|0:0,0:0:0:0:
188,256,68684,1,0,0:0:0:0:
112,280,68763,70,2,B|60:296|60:296|176:348,1,176,6|10,0:0|0:0,0:0:0:0:
224,156,69237,1,0,0:0:0:0:
68,88,69395,2,0,B|60:136|60:136|80:184,1,88,2|0,0:0|0:0,0:0:0:0:
188,256,69710,1,10,0:0:0:0:
368,296,69868,6,2,B|412:272|412:272|468:148,1,176,2|0,0:0|0:0,0:0:0:0:
340,64,70342,2,2,B|296:64|296:64|256:84,1,88,10|2,0:0|2:0,0:0:0:0:
340,376,70658,2,2,B|384:376|384:376|424:356,1,88,2|2,0:0|2:0,0:0:0:0:
316,200,70974,1,8,0:0:0:0:
180,228,71131,1,2,0:0:0:0:
452,272,71289,6,2,L|472:96,1,176,2|8,0:0|0:0,0:0:0:0:
272,280,71763,2,0,B|316:284|316:284|368:276,2,88,2|0|0,0:0|0:0|0:0,0:0:0:0:
396,188,72237,1,10,0:0:0:0:
312,80,72395,1,0,0:0:0:0:
332,52,72474,1,10,0:0:0:0:
352,24,72553,5,0,0:0:0:0:
452,120,72710,1,2,0:0:0:0:
316,160,72868,1,8,0:0:0:0:
272,4,73026,2,0,L|220:84,1,88,2|2,0:2|0:2,0:0:0:0:
288,312,73342,2,0,L|335:238,1,88,2|10,0:0|0:0,0:0:0:0:
208,168,73658,1,0,0:0:0:0:
208,168,73737,1,8,0:0:0:0:
208,168,73816,70,2,B|168:184|168:184|84:184|84:184|36:208,1,176,6|2,0:0|0:0,0:0:0:0:
108,112,74289,2,0,B|152:112|152:112|192:96,1,88,0|2,0:0|0:0,0:0:0:0:
284,192,74605,1,0,0:0:0:0:
392,248,74763,1,10,0:0:0:0:
496,124,74921,6,2,B|440:148|440:148|324:128,1,176,2|0,0:0|0:0,0:0:0:0:
226,293,75395,2,2,L|312:272,1,88,10|2,0:0|2:0,0:0:0:0:
236,120,75710,2,2,L|150:98,1,88,2|2,0:0|2:0,0:0:0:0:
84,236,76026,1,2,0:0:0:0:
192,208,76184,1,0,0:0:0:0:
228,204,76263,1,10,0:0:0:0:
264,200,76342,5,0,0:0:0:0:
192,372,76500,1,2,0:0:0:0:
344,236,76658,1,8,0:0:0:0:
152,296,76816,2,0,B|116:320|116:320|68:332,1,88,2|2,0:0|0:0,0:0:0:0:
312,332,77131,2,0,B|354:321|354:321|403:326,1,88,0|10,0:0|0:0,0:0:0:0:
488,196,77447,5,0,0:0:0:0:
468,212,77526,1,0,0:0:0:0:
448,228,77605,1,2,0:0:0:0:
376,152,77763,1,0,0:0:0:0:
344,164,77842,1,0,0:0:0:0:
312,176,77921,1,10,0:0:0:0:
256,88,78079,1,0,0:0:0:0:
212,96,78158,1,0,0:0:0:0:
168,104,78237,1,10,0:0:0:0:
136,204,78395,1,0,0:0:0:0:
84,192,78474,1,0,0:0:0:0:
32,180,78553,1,10,0:0:0:0:
8,284,78710,1,0,0:0:0:0:
56,320,78789,1,0,0:0:0:0:
104,356,78868,70,0,L|204:344,1,88,6|0,0:0|0:0,0:0:0:0:
296,280,79184,1,8,0:0:0:0:
424,348,79342,2,0,L|380:348,2,44,2|8|0,0:0|0:0|0:0,0:0:0:0:
488,240,79658,1,2,0:0:0:0:
364,244,79816,2,0,B|336:212|336:212|324:164,1,88,10|0,0:0|0:0,0:0:0:0:
384,36,80131,6,0,L|480:52,1,88,2|0,0:0|0:0,0:0:0:0:
268,56,80447,1,8,0:0:0:0:
141,139,80605,2,0,B|204:132|204:132|260:144|260:144|316:140,2,176,2|10|10,0:0|0:0|0:0,0:0:0:0:
36,96,81395,6,0,B|12:60|12:60|16:8,1,88,2|0,0:0|0:0,0:0:0:0:
132,216,81710,2,0,B|142:258|142:258|120:305,1,88
20,232,82026,2,0,L|4:184,1,44
36,96,82184,1,10,0:0:0:0:
68,84,82263,1,8,0:0:0:0:
104,80,82342,1,10,0:0:0:0:
140,84,82421,1,0,0:0:0:0:
172,100,82500,1,2,0:0:0:0:
196,128,82579,1,0,0:0:0:0:
236,112,82658,6,8,L|348:108,1,88,0|0,0:0|0:0,0:0:0:0:
323,108,82974,2,0,B|363:119|395:91|395:91|408:96|408:96|396:100|396:100|411:103|411:103|396:108|396:108|415:111|415:111|396:116|396:116|411:119|411:119|399:123|399:123|407:131|407:131|388:128|388:128|403:139|403:139|383:139|383:139|395:143|395:143|380:148|380:148|399:151|399:151|384:156|384:156|399:167|399:167|416:216|368:244,1,440,8|0,0:0|0:0,0:0:0:0:
372,241,83921,6,0,L|392:336,1,88,2|0,0:0|0:0,0:0:0:0:
216,212,84237,2,0,L|233:125,1,88,2|0,0:0|0:0,0:0:0:0:
288,284,84553,1,8,0:0:0:0:
288,284,84710,2,0,B|216:304|216:304|100:276,1,176,2|2,0:0|0:0,0:0:0:0:
43,170,85184,5,2,0:0:0:0:
43,46,85342,1,0,0:0:0:0:
160,8,85500,1,2,0:0:0:0:
232,108,85658,1,0,0:0:0:0:
160,208,85816,2,0,L|192:336,1,132,8|2,0:0|0:0,0:0:0:0:
200,360,86131,2,8,B|244:348|244:348|296:360,1,88
484,216,86605,5,2,0:0:0:0:
400,240,86763,1,2,0:0:0:0:
312,224,86921,1,0,0:0:0:0:
252,160,87079,2,0,B|244:116|244:116|260:64,1,88,8|0,0:0|0:0,0:0:0:0:
434,173,87395,6,0,L|396:300,1,132.000005035401,0|8,0:0|0:0,0:0:0:0:
327,194,87710,70,8,L|296:300,1,110
220,215,88026,6,8,L|196:300,1,88
296,300,88342,6,8,L|316:236,1,66.0000025177003
396,300,88658,6,8,L|412:252,1,44
