osu file format v12

[General]
AudioFilename: 01 - OP theme2_unripe hero (TV size).mp3
AudioLeadIn: 2000
PreviewTime: 48231
Countdown: 0
SampleSet: Normal
StackLeniency: 0.7
Mode: 0
LetterboxInBreaks: 0

[Editor]
DistanceSpacing: 1
BeatDivisor: 4
GridSize: 4

[Metadata]
Title:unripe hero (TV Size)
TitleUnicode:unripe hero (TV Size)
Artist:Kuribayashi Minami
ArtistUnicode:栗林みな実
Creator:Totori
Version:Normal
Source:BLASSREITER
Tags:ブラスレイター GONZO Nitro+ Urobuchi Gen opening Amamiya Yuko Skystar N_E_K_O NEKO
BeatmapID:261802
BeatmapSetID:97911

[Difficulty]
HPDrainRate:3
CircleSize:3
OverallDifficulty:4
ApproachRate:5
SliderMultiplier:1.2
SliderTickRate:1

[Events]
//Background and Video events
0,0,"bg.jpg",0,0
Video,-35,"video.flv"
//Break Periods
2,10858,11984
2,13384,14510
2,15910,17037
//Storyboard Layer 0 (Background)
//Storyboard Layer 1 (Fail)
//Storyboard Layer 2 (Pass)
//Storyboard Layer 3 (Foreground)
//Storyboard Sound Samples
//Background Colour Transformations
3,100,163,162,255

[TimingPoints]
553,315.789473684211,4,2,1,30,1,0
553,-100,4,2,1,30,0,0
4500,-100,4,2,1,40,0,0
4816,-100,4,2,1,50,0,0
5131,-100,4,2,1,60,0,0
5605,-100,4,1,1,60,0,0
19500,-100,4,1,1,50,0,0
20447,-100,4,1,1,60,0,0
30868,-100,4,1,1,50,0,0
48237,-100,4,1,1,40,0,0
48553,-100,4,1,3,70,0,1
58579,-100,4,1,3,70,0,0
58658,-100,4,1,3,70,0,1
67342,-100,4,1,3,70,0,0
68763,-100,4,1,3,70,0,1
82658,-100,4,1,1,40,0,0
83921,-100,4,1,1,60,0,0

[Colours]
Combo1 : 225,151,173
Combo2 : 30,12,248
Combo3 : 176,9,9
Combo4 : 225,225,225

[HitObjects]
184,68,710,2,0,L|236:96,1,60,0|8,0:0|0:0,0:0:0:0:
296,96,1026,2,0,L|348:68,1,60,0|8,0:0|0:0,0:0:0:0:
408,80,1342,1,4,0:0:0:0:
408,200,1658,2,0,P|392:260|341:306,1,120,0|8,0:0|0:0,0:0:0:0:
292,200,2289,2,0,L|232:168,2,60,0|0|8,0:0|0:0|0:0,0:0:0:0:
76,308,3237,6,0,L|84:248,1,60,0|8,0:0|0:0,0:0:0:0:
92,188,3553,2,0,L|100:128,1,60,0|8,0:0|0:0,0:0:0:0:
108,68,3868,1,4,0:0:0:0:
224,36,4184,2,0,P|284:20|340:34,1,120,0|8,0:0|0:0,0:0:0:0:
284,136,4816,2,0,L|284:196,2,60,0|0|8,0:0|0:0|0:0,0:0:0:0:
112,96,5605,6,0,P|132:160|172:196,1,120,4|8,0:0|0:0,0:0:0:0:
232,92,6237,2,0,P|269:126|289:190,1,120,0|8,0:0|0:0,0:0:0:0:
256,308,6868,1,0,0:0:0:0:
376,292,7184,1,8,0:0:0:0:
452,200,7500,1,0,0:0:0:0:
424,84,7816,1,8,0:0:0:0:
304,68,8131,6,0,L|184:28,1,120,0|8,0:0|0:0,0:0:0:0:
112,124,8763,2,0,L|225:161,1,120,0|8,0:0|0:0,0:0:0:0:
344,176,9395,1,0,0:0:0:0:
420,268,9710,1,8,0:0:0:0:
300,288,10026,2,0,L|185:250,1,120,0|8,0:0|0:0,0:0:0:0:
72,212,10658,5,4,0:0:0:0:
76,208,13184,5,4,0:0:0:0:
80,204,15710,5,4,0:0:0:0:
84,200,18237,5,4,0:0:0:0:
392,296,19500,5,4,0:0:0:0:
276,264,19816,1,8,0:0:0:0:
176,196,20131,1,0,0:0:0:0:
200,80,20447,2,0,L|260:60,2,60,8|0|2,0:0|0:0|0:0,0:0:0:0:
292,156,21079,6,0,P|348:192|404:204,1,120,8|0,0:0|0:0,0:0:0:0:
492,284,21710,1,8,0:0:0:0:
440,312,21868,2,0,P|384:348|332:359,2,120
260,324,22974,6,0,L|208:292,1,60,8|0,0:0|0:0,0:0:0:0:
160,260,23289,2,0,P|140:200|144:140,1,120,2|8,0:0|0:0,0:0:0:0:
168,88,23763,1,0,0:0:0:0:
212,48,23921,2,0,P|264:80|328:88,1,120,0|8,0:0|0:0,0:0:0:0:
380,80,24395,1,0,0:0:0:0:
448,180,24710,1,0,0:0:0:0:
412,296,25026,1,0,0:0:0:0:
232,308,25500,6,0,L|184:356,2,60,8|0|2,0:0|0:0|0:0,0:0:0:0:
248,188,26131,1,8,0:0:0:0:
192,168,26289,2,0,P|140:128|120:76,2,120
368,208,27395,6,0,P|348:276|300:324,1,120,8|0,0:0|0:0,0:0:0:0:
196,312,28026,1,8,0:0:0:0:
88,256,28342,1,2,0:0:0:0:
112,140,28658,1,8,0:0:0:0:
136,84,28816,2,0,P|196:52|260:48,1,120
316,144,29447,2,0,P|224:144|144:196,1,180,0|8,0:0|0:0,0:0:0:0:
64,272,30237,6,0,P|120:304|176:316,1,120,0|8,0:0|0:0,0:0:0:0:
292,312,30868,1,4,0:0:0:0:
396,252,31184,2,0,L|424:176,1,60,8|0,0:0|0:0,0:0:0:0:
432,136,31500,2,0,P|392:80|344:52,1,120
288,52,31974,1,0,0:0:0:0:
168,52,32289,2,0,P|124:78|84:134,1,120
76,316,33079,6,0,P|144:308|196:280,1,120
288,220,33710,1,8,0:0:0:0:
328,176,33868,1,0,0:0:0:0:
232,24,34342,6,0,P|176:56|148:104,1,120
128,160,34816,1,0,0:0:0:0:
172,336,35289,5,0,0:0:0:0:
292,320,35605,2,0,P|352:300|400:256,1,120
420,144,36237,2,0,L|392:92,1,60,8|0,0:0|0:0,0:0:0:0:
276,64,36710,2,0,P|132:56|56:180,1,300,0|8,0:0|0:0,0:0:0:0:
140,264,37816,1,0,0:0:0:0:
256,292,38131,1,0,0:0:0:0:
256,192,38447,12,0,40026,0:0:0:0:
184,144,40658,6,0,L|288:76,1,120,0|4,0:0|0:0,0:0:0:0:
396,36,41289,2,0,L|428:92,1,60,8|0,0:0|0:0,0:0:0:0:
456,140,41605,1,0,0:0:0:0:
416,252,41921,1,0,0:0:0:0:
360,272,42079,2,0,P|304:306|244:307,1,120
272,194,42710,1,0,0:0:0:0:
96,228,43184,6,0,L|140:104,1,120
240,52,43816,2,0,L|300:68,1,60,8|0,0:0|0:0,0:0:0:0:
460,148,44447,6,0,L|419:261,1,120,0|4,0:0|0:0,0:0:0:0:
316,320,45079,1,8,0:0:0:0:
200,292,45395,1,0,0:0:0:0:
280,204,45710,1,0,0:0:0:0:
163,190,46026,2,0,P|209:109|305:90,2,180,4|0|0,0:0|0:0|0:0,0:0:0:0:
116,88,48237,21,0,0:0:0:0:
232,120,48553,38,0,B|252:176|252:176|192:196|192:196|236:312,1,240,4|0,0:0|0:0,0:0:0:0:
352,316,49500,5,8,0:0:0:0:
396,276,49658,2,0,P|440:196|432:104,1,180,0|8,0:0|0:0,0:0:0:0:
328,56,50447,1,0,0:0:0:0:
212,32,50763,1,8,0:0:0:0:
104,84,51079,6,0,P|72:144|68:208,1,120,2|8,0:0|0:0,0:0:0:0:
72,256,51553,1,0,0:0:0:0:
192,268,51868,1,0,0:0:0:0:
216,324,52026,1,8,0:0:0:0:
416,192,52658,6,0,P|444:136|443:75,1,120,8|0,0:0|0:0,0:0:0:0:
328,108,53289,2,0,P|276:80|216:72,1,120,8|2,0:0|0:0,0:0:0:0:
104,116,53921,1,8,0:0:0:0:
80,172,54079,2,0,P|88:232|128:284,1,120
232,324,54710,2,0,P|320:308|372:232,1,180,0|8,0:0|0:0,0:0:0:0:
256,208,55500,1,0,0:0:0:0:
140,176,55816,2,0,B|132:96|204:32|204:32|124:48,1,240,8|8,0:0|0:0,0:0:0:0:
84,284,57079,6,0,P|140:312|208:320,1,120,4|2,0:0|0:0,0:0:0:0:
316,300,57710,1,8,0:0:0:0:
360,256,57868,1,0,0:0:0:0:
388,140,58184,1,0,0:0:0:0:
292,68,58500,1,0,0:0:0:0:
232,60,58658,2,0,P|120:92|72:204,1,240,4|0,0:0|0:0,0:0:0:0:
176,260,59605,5,8,0:0:0:0:
249,353,59921,1,2,0:0:0:0:
362,310,60237,1,8,0:0:0:0:
356,190,60553,1,0,0:0:0:0:
240,159,60868,1,8,0:0:0:0:
128,116,61184,2,0,P|168:64|224:44,1,120,2|8,0:0|0:0,0:0:0:0:
276,40,61658,1,0,0:0:0:0:
388,84,61974,2,0,P|432:128|452:192,1,120
332,316,62763,6,0,P|272:308|220:276,1,120,8|0,0:0|0:0,0:0:0:0:
124,208,63395,1,8,0:0:0:0:
136,88,63710,1,2,0:0:0:0:
252,52,64026,1,8,0:0:0:0:
312,64,64184,2,0,P|416:124|456:236,1,240,0|4,0:0|0:0,0:0:0:0:
280,272,65289,5,8,0:0:0:0:
164,240,65605,1,0,0:0:0:0:
256,192,65921,12,0,68132,0:0:0:0:
172,172,68763,6,0,P|224:280|336:336,1,240,4|0,0:0|0:0,0:0:0:0:
428,268,69710,1,8,0:0:0:0:
416,208,69868,2,0,P|364:124|296:76,1,180,0|8,0:0|0:0,0:0:0:0:
180,72,70658,5,0,0:0:0:0:
100,160,70974,1,8,0:0:0:0:
132,276,71289,1,2,0:0:0:0:
240,328,71605,1,8,0:0:0:0:
280,284,71763,1,0,0:0:0:0:
388,236,72079,1,0,0:0:0:0:
348,192,72237,1,8,0:0:0:0:
116,128,72868,6,0,P|132:200|162:232,1,120,8|0,0:0|0:0,0:0:0:0:
216,340,73500,2,0,P|273:284|283:225,1,120,8|2,0:0|0:0,0:0:0:0:
228,140,74131,2,0,L|284:116,1,60,8|0,0:0|0:0,0:0:0:0:
396,76,74605,1,0,0:0:0:0:
476,164,74921,2,0,P|480:248|420:340,1,180,0|8,0:0|0:0,0:0:0:0:
312,340,75710,1,0,0:0:0:0:
200,292,76026,2,0,P|200:184|276:76,1,240,8|8,0:0|0:0,0:0:0:0:
452,240,77289,5,8,0:0:0:0:
344,292,77605,2,0,P|288:320|224:328,1,120,2|8,0:0|0:0,0:0:0:0:
172,320,78079,1,0,0:0:0:0:
100,224,78395,1,0,0:0:0:0:
108,104,78710,2,0,P|248:52|396:76,1,300,0|0,0:0|0:0,0:0:0:0:
440,188,79816,5,8,0:0:0:0:
356,272,80131,1,2,0:0:0:0:
244,312,80447,1,8,0:0:0:0:
188,292,80605,1,0,0:0:0:0:
248,188,80921,1,0,0:0:0:0:
160,104,81237,2,0,B|36:288|36:288|28:60,1,420,0|8,0:0|0:0,0:0:0:0:
256,192,83289,5,0,0:0:0:0:
256,192,83921,12,0,87079,0:0:0:0:
256,108,87710,6,0,L|210:153,1,60,8|2,0:0|0:0,0:0:0:0:
171,192,88026,2,0,L|213:234,1,60,8|2,0:0|0:0,0:0:0:0:
256,277,88342,2,0,L|298:234,1,60,8|2,0:0|0:0,0:0:0:0:
340,192,88658,2,0,L|294:146,1,60,8|4,0:0|0:0,0:0:0:0:
