osu file format v12

[General]
AudioFilename: 01 - OP theme2_unripe hero (TV size).mp3
AudioLeadIn: 2000
PreviewTime: 48231
Countdown: 0
SampleSet: Normal
StackLeniency: 0.7
Mode: 0
LetterboxInBreaks: 0

[Editor]
DistanceSpacing: 0.4
BeatDivisor: 4
GridSize: 4

[Metadata]
Title:unripe hero (TV Size)
TitleUnicode:unripe hero (TV Size)
Artist:Kuribayashi Minami
ArtistUnicode:栗林みな実
Creator:Totori
Version:Insane
Source:BLASSREITER
Tags:ブラスレイター GONZO Nitro+ Urobuchi Gen opening Amamiya Yuko Skystar N_E_K_O NEKO
BeatmapID:261486
BeatmapSetID:97911

[Difficulty]
HPDrainRate:7
CircleSize:4
OverallDifficulty:7
ApproachRate:9
SliderMultiplier:1.92
SliderTickRate:1

[Events]
//Background and Video events
0,0,"bg.jpg",0,0
Video,-35,"video.flv"
//Break Periods
//Storyboard Layer 0 (Background)
//Storyboard Layer 1 (Fail)
//Storyboard Layer 2 (Pass)
//Storyboard Layer 3 (Foreground)
//Storyboard Sound Samples
//Background Colour Transformations
3,100,163,162,255

[TimingPoints]
553,315.789473684211,4,2,1,30,1,0
553,-200,4,2,1,30,0,0
4500,-200,4,2,1,40,0,0
4816,-200,4,2,1,50,0,0
5131,-200,4,2,1,60,0,0
5605,-100,4,1,1,60,0,0
10658,-125,4,1,1,60,0,0
10974,-125,4,2,1,50,0,0
13184,-125,4,1,1,60,0,0
13500,-125,4,2,1,50,0,0
15710,-125,4,1,1,60,0,0
16026,-125,4,2,1,50,0,0
18237,-125,4,1,1,60,0,0
18553,-125,4,2,1,50,0,0
19500,-125,4,1,1,50,0,0
20289,-100,4,1,1,60,0,0
30868,-100,4,1,1,50,0,0
40500,-100,4,1,1,60,0,0
40974,-100,4,1,1,50,0,0
46974,-200,4,1,1,60,0,0
47921,-200,4,1,1,40,0,0
48553,-90.9090909090909,4,1,3,70,0,1
58579,-90.9090909090909,4,1,3,70,0,0
58658,-90.9090909090909,4,1,3,70,0,1
67342,-90.9090909090909,4,1,3,70,0,0
68763,-90.9090909090909,4,1,3,70,0,1
82658,-90.9090909090909,4,1,1,70,0,0
83289,-100,4,1,1,40,0,0
83921,-100,4,1,1,60,0,0

[Colours]
Combo1 : 225,151,173
Combo2 : 30,12,248
Combo3 : 176,9,9
Combo4 : 225,225,225

[HitObjects]
156,81,553,1,0,0:0:0:0:
156,81,710,2,0,L|112:64,1,48,0|8,0:0|0:0,0:0:0:0:
228,104,1026,1,0,0:0:0:0:
300,124,1184,1,8,0:0:0:0:
372,144,1342,1,4,0:0:0:0:
124,244,1658,6,0,L|88:292,1,48,0|8,0:0|0:0,0:0:0:0:
240,268,1974,2,0,L|268:229,1,48,0|8,0:0|0:0,0:0:0:0:
116,236,2289,2,0,L|80:284,1,48,0|8,0:0|0:0,0:0:0:0:
248,276,2605,2,0,L|276:237,1,48,0|8,0:0|0:0,0:0:0:0:
108,228,2921,2,0,L|72:276,1,48
172,100,3237,6,0,L|136:148,1,48,0|8,0:0|0:0,0:0:0:0:
240,132,3553,1,0,0:0:0:0:
300,88,3710,1,8,0:0:0:0:
368,120,3868,1,4,0:0:0:0:
424,296,4184,6,0,L|450:335,1,48,0|8,0:0|0:0,0:0:0:0:
364,240,4500,2,0,L|337:200,1,48,0|8,0:0|0:0,0:0:0:0:
344,320,4816,2,0,L|376:368,1,48,0|8,0:0|0:0,0:0:0:0:
284,264,5131,2,0,L|257:224,1,48,0|8,0:0|0:0,0:0:0:0:
88,56,5605,6,0,P|116:96|155:120,1,96,4|0,0:0|0:0,0:0:0:0:
340,72,5921,1,8,0:0:0:0:
432,44,6079,1,0,0:0:0:0:
251,107,6237,2,0,P|244:160|219:193,1,96
92,294,6553,2,0,P|99:241|124:208,1,96,8|0,0:0|0:0,0:0:0:0:
188,280,6868,1,0,0:0:0:0:
410,309,7026,5,0,0:0:0:0:
386,177,7184,1,8,0:0:0:0:
284,264,7342,1,0,0:0:0:0:
386,177,7500,6,0,P|372:124|344:84,1,96
260,52,7816,1,8,0:0:0:0:
164,28,7974,1,0,0:0:0:0:
92,296,8131,6,0,P|80:240|88:196,1,96
128,112,8447,1,8,0:0:0:0:
85,202,8605,1,0,0:0:0:0:
184,192,8763,2,0,L|264:252,1,96
432,309,9079,2,0,L|356:252,1,96,8|0,0:0|0:0,0:0:0:0:
308,164,9395,1,0,0:0:0:0:
428,128,9553,5,2,0:0:0:0:
428,128,9631,1,2,0:0:0:0:
428,128,9710,1,8,0:0:0:0:
336,44,9868,5,2,0:0:0:0:
336,44,9947,1,2,0:0:0:0:
336,44,10026,1,8,0:0:0:0:
216,80,10184,5,2,0:0:0:0:
216,80,10263,1,2,0:0:0:0:
216,80,10342,1,8,0:0:0:0:
192,188,10500,1,0,0:0:0:0:
296,248,10658,6,0,B|288:196|328:140|328:140|268:148,1,153.6,4|0,0:0|0:0,0:0:0:0:
352,343,11289,2,0,P|282:358|204:311,1,153.6
188,224,11763,5,0,0:0:0:0:
160,152,12079,1,0,0:0:0:0:
132,80,12395,1,0,0:0:0:0:
328,281,13184,6,0,P|368:328|456:344,1,153.6,4|0,0:0|0:0,0:0:0:0:
432,236,13658,1,0,0:0:0:0:
432,236,13816,2,0,P|392:189|304:173,1,153.6
232,244,14289,5,0,0:0:0:0:
157,252,14605,1,0,0:0:0:0:
82,258,14921,1,0,0:0:0:0:
80,52,15710,6,0,B|142:59|102:143|178:159,1,153.6,4|0,0:0|0:0,0:0:0:0:
232,244,16184,5,0,0:0:0:0:
272,308,16500,1,0,0:0:0:0:
312,372,16816,1,0,0:0:0:0:
336,192,17289,6,0,P|396:137|487:139,1,153.6,0|0,0:0|0:0,0:0:0:0:
444,252,17921,1,0,0:0:0:0:
444,252,18237,2,0,P|384:307|293:305,1,153.6,4|0,0:0|0:0,0:0:0:0:
314,312,18710,1,0,0:0:0:0:
298,279,19500,5,4,0:0:0:0:
283,246,19816,1,0,0:0:0:0:
267,214,20131,1,0,0:0:0:0:
251,181,20289,5,8,0:0:0:0:
242,163,20368,1,0,0:0:0:0:
234,146,20447,1,8,0:0:0:0:
225,128,20526,1,0,0:0:0:0:
216,110,20605,1,8,0:0:0:0:
207,92,20684,1,0,0:0:0:0:
200,72,20763,6,0,P|236:40|284:28,1,96,4|0,0:0|0:0,0:0:0:0:
480,140,21079,2,0,P|444:172|399:184,1,96,8|0,0:0|0:0,0:0:0:0:
348,100,21395,1,2,0:0:0:0:
398,184,21553,1,2,0:0:0:0:
356,272,21710,1,8,0:0:0:0:
356,272,21868,2,0,L|272:328,1,96,0|2,0:0|0:0,0:0:0:0:
116,325,22184,2,0,L|196:272,1,96,0|8,0:0|0:0,0:0:0:0:
276,216,22500,5,0,0:0:0:0:
136,152,22658,1,2,0:0:0:0:
56,168,22816,1,2,0:0:0:0:
186,87,22974,1,8,0:0:0:0:
186,87,23131,5,0,0:0:0:0:
186,87,23210,1,0,0:0:0:0:
186,87,23289,2,0,P|236:116|288:124,1,96,2|0,0:0|0:0,0:0:0:0:
468,184,23605,1,8,0:0:0:0:
468,184,23763,2,0,P|456:236|423:271,1,96,0|2,0:0|0:0,0:0:0:0:
344,56,24079,2,0,P|380:63|430:92,1,96,2|8,0:0|0:0,0:0:0:0:
372,188,24395,2,0,L|276:140,1,96,0|2,0:0|0:0,0:0:0:0:
237,293,24710,2,0,L|332:276,1,96,0|8,0:0|0:0,0:0:0:0:
140,308,25026,5,0,0:0:0:0:
92,160,25184,1,2,0:0:0:0:
116,236,25342,1,2,0:0:0:0:
68,84,25500,1,8,0:0:0:0:
220,36,25658,5,0,0:0:0:0:
220,36,25737,1,0,0:0:0:0:
220,36,25816,2,0,P|260:68|304:80,1,96,2|0,0:0|0:0,0:0:0:0:
400,80,26131,1,8,0:0:0:0:
472,144,26289,2,0,P|464:192|436:232,1,96,0|2,0:0|0:0,0:0:0:0:
313,278,26605,2,0,P|321:230|348:192,1,96,2|8,0:0|0:0,0:0:0:0:
404,320,26921,5,0,0:0:0:0:
313,278,27079,1,2,0:0:0:0:
224,312,27237,1,0,0:0:0:0:
133,270,27395,1,8,0:0:0:0:
112,176,27553,1,0,0:0:0:0:
112,176,27631,1,0,0:0:0:0:
112,176,27710,2,0,P|80:132|76:88,1,96,2|2,0:0|0:0,0:0:0:0:
232,24,28026,2,0,P|264:68|268:112,1,96,8|0,0:0|0:0,0:0:0:0:
172,100,28342,5,2,0:0:0:0:
212,192,28500,1,0,0:0:0:0:
368,100,28658,1,8,0:0:0:0:
328,192,28816,1,0,0:0:0:0:
384,272,28974,2,2,P|352:316|308:340,1,96,2|2,0:0|0:0,0:0:0:0:
235,280,29289,1,8,0:0:0:0:
173,357,29447,2,0,B|128:311|141:257|141:257|104:224|112:176,1,192,4|0,0:0|0:0,0:0:0:0:
116,164,29842,1,0,0:0:0:0:
124,144,29921,5,8,0:0:0:0:
124,0,30079,1,0,0:0:0:0:
68,68,30237,1,2,0:0:0:0:
212,36,30395,5,8,0:0:0:0:
212,36,30474,1,0,0:0:0:0:
212,36,30553,2,0,L|258:46,1,48,8|0,0:0|0:0,0:0:0:0:
352,16,30710,1,8,0:0:0:0:
352,16,30789,1,0,0:0:0:0:
352,16,30868,2,0,B|364:65|340:100|340:100|352:152|408:172,1,192,4|8,0:0|0:0,0:0:0:0:
495,211,31342,5,0,0:0:0:0:
484,112,31500,2,0,P|472:64|484:20,1,96
408,172,31816,1,0,0:0:0:0:
418,267,31974,2,0,P|376:296|320:308,1,96
158,312,32289,2,0,P|200:283|244:272,1,96,0|8,0:0|0:0,0:0:0:0:
332,307,32605,5,0,0:0:0:0:
243,272,32763,1,0,0:0:0:0:
80,260,32921,1,0,0:0:0:0:
104,168,33079,1,0,0:0:0:0:
192,128,33237,5,0,0:0:0:0:
192,128,33395,2,0,B|234:127|268:103|268:103|293:47|360:41,1,192,4|8,0:0|0:0,0:0:0:0:
436,200,33868,1,0,0:0:0:0:
436,200,34026,2,0,L|360:140,1,96
436,296,34342,1,0,0:0:0:0:
352,248,34500,6,0,P|316:280|264:292,1,96
126,263,34816,1,0,0:0:0:0:
126,263,34895,1,0,0:0:0:0:
126,263,34974,2,0,P|162:231|208:220,1,96,8|0,0:0|0:0,0:0:0:0:
168,64,35289,6,0,L|76:36,1,96
236,130,35605,2,0,P|264:80|257:30,1,96,0|0,0:0|0:0,0:0:0:0:
168,64,35921,1,4,0:0:0:0:
360,40,36079,1,0,0:0:0:0:
444,88,36237,1,8,0:0:0:0:
432,184,36395,1,0,0:0:0:0:
356,128,36553,2,0,L|444:88,1,96
344,224,36868,5,0,0:0:0:0:
204,312,37026,1,0,0:0:0:0:
336,232,37184,1,0,0:0:0:0:
196,304,37342,1,0,0:0:0:0:
104,280,37500,2,0,L|120:184,1,96,8|0,0:0|0:0,0:0:0:0:
223,53,37816,2,0,L|208:148,1,96
128,88,38131,2,0,P|216:128|312:100,1,192,0|4,0:0|0:0,0:0:0:0:
392,64,38605,5,0,0:0:0:0:
392,64,38763,1,8,0:0:0:0:
448,144,38921,1,0,0:0:0:0:
448,144,39079,1,0,0:0:0:0:
360,188,39237,2,0,L|296:264,2,96,2|0|0,0:0|0:0|0:0,0:0:0:0:
360,340,39710,1,0,0:0:0:0:
262,351,39868,2,0,P|221:318|202:273,1,96,0|8,0:0|0:0,0:0:0:0:
73,283,40184,2,0,P|114:250|132:212,1,96
73,77,40500,6,0,L|96:120,1,48,8|0,0:0|0:0,0:0:0:0:
208,152,40658,2,0,L|184:108,1,48,8|0,0:0|0:0,0:0:0:0:
241,21,40816,2,0,L|264:64,1,48,8|0,0:0|0:0,0:0:0:0:
364,72,40974,6,0,P|436:132|456:232,1,192,4|8,0:0|0:0,0:0:0:0:
320,296,41447,1,0,0:0:0:0:
416,312,41605,1,0,0:0:0:0:
356,384,41763,1,2,0:0:0:0:
356,384,41842,1,2,0:0:0:0:
356,384,41921,1,8,0:0:0:0:
320,296,42079,6,0,L|228:332,1,96
98,190,42395,2,0,L|188:156,1,96,0|8,0:0|0:0,0:0:0:0:
257,225,42710,2,0,L|167:259,1,96
35,119,43026,2,0,L|125:85,1,96,0|0,0:0|0:0,0:0:0:0:
291,107,43342,1,0,0:0:0:0:
291,107,43421,1,0,0:0:0:0:
291,107,43500,2,0,P|248:88|216:52,1,96,4|0,0:0|0:0,0:0:0:0:
384,72,43816,5,8,0:0:0:0:
291,107,43974,1,0,0:0:0:0:
308,12,44131,1,0,0:0:0:0:
368,168,44289,1,0,0:0:0:0:
436,284,44447,38,0,P|396:316|352:328,1,96,0|0,0:0|0:0,0:0:0:0:
201,299,44763,2,0,P|241:267|284:256,1,96,4|0,0:0|0:0,0:0:0:0:
124,240,45079,2,0,P|84:272|41:283,1,96,0|0,0:0|0:0,0:0:0:0:
96,148,45395,2,0,P|136:116|178:104,1,96,8|8,0:0|0:0,0:0:0:0:
196,104,45631,1,0,0:0:0:0:
216,104,45710,1,8,0:0:0:0:
236,108,45789,1,0,0:0:0:0:
256,116,45868,1,8,0:0:0:0:
276,120,45947,1,0,0:0:0:0:
296,120,46026,21,4,0:0:0:0:
316,120,46500,1,4,0:0:0:0:
336,120,46974,2,0,B|348:164|348:164|304:176|304:176|336:284,1,192,4|0,0:0|0:0,0:0:0:0:
152,312,47921,5,8,0:0:0:0:
152,312,48079,1,8,0:0:0:0:
152,312,48237,2,0,P|199:325|243:309,1,96,0|4,0:0|0:0,0:0:0:0:
232,204,48710,5,0,0:0:0:0:
144,52,48868,1,8,0:0:0:0:
124,164,49026,1,0,0:0:0:0:
320,52,49184,1,2,0:0:0:0:
232,204,49342,1,2,0:0:0:0:
232,204,49421,1,0,0:0:0:0:
232,204,49500,2,0,P|288:188|332:144,1,105.600003222656,8|0,0:0|0:0,0:0:0:0:
420,104,49816,5,2,0:0:0:0:
389,271,49974,1,0,0:0:0:0:
389,271,50131,2,0,P|436:248|464:204,1,105.600003222656,8|0,0:0|0:0,0:0:0:0:
284,296,50447,5,2,0:0:0:0:
112,360,50605,1,2,0:0:0:0:
212,368,50763,1,8,0:0:0:0:
36,296,50921,1,0,0:0:0:0:
128,244,51079,6,0,P|92:200|84:148,1,105.600003222656,2|0,0:0|0:0,0:0:0:0:
83,153,51395,1,8,0:0:0:0:
222,100,51553,1,0,0:0:0:0:
222,100,51631,1,0,0:0:0:0:
222,100,51710,2,0,P|176:92|132:56,1,105.600003222656,2|2,0:0|0:0,0:0:0:0:
308,36,52026,2,0,B|337:81|323:135|323:135|364:172|424:184,1,211.200006445313,8|2,0:0|0:0,0:0:0:0:
222,100,52500,5,0,0:0:0:0:
212,312,52658,1,8,0:0:0:0:
244,208,52816,1,0,0:0:0:0:
244,208,52895,1,0,0:0:0:0:
244,208,52974,2,0,L|334:262,1,105.600003222656,2|2,0:0|0:0,0:0:0:0:
140,232,53289,2,0,L|51:289,1,105.600003222656,8|0,0:0|0:0,0:0:0:0:
172,128,53605,5,2,0:0:0:0:
260,4,53763,1,0,0:0:0:0:
327,139,53921,1,8,0:0:0:0:
176,132,54079,5,0,0:0:0:0:
264,8,54237,1,2,0:0:0:0:
331,143,54395,1,2,0:0:0:0:
468,208,54553,5,8,0:0:0:0:
468,208,54710,2,0,P|444:260|404:288,1,105.600003222656,0|2,0:0|0:0,0:0:0:0:
245,323,55026,1,0,0:0:0:0:
245,323,55184,2,0,P|269:271|308:244,1,105.600003222656,8|0,0:0|0:0,0:0:0:0:
136,324,55500,2,2,P|112:272|73:244,1,105.600003222656,2|2,0:0|0:0,0:0:0:0:
52,140,55816,2,0,B|80:100|148:104|148:104|196:136|264:120,1,211.200006445313,8|2,0:0|0:0,0:0:0:0:
247,123,56289,1,0,0:0:0:0:
340,68,56447,5,8,0:0:0:0:
484,156,56605,1,0,0:0:0:0:
488,160,56763,1,2,0:0:0:0:
344,72,56921,1,2,0:0:0:0:
470,264,57079,6,0,P|433:296|363:301,1,105.600003222656,8|0,0:0|0:0,0:0:0:0:
384,196,57395,1,2,0:0:0:0:
288,248,57553,5,8,0:0:0:0:
288,248,57631,1,0,0:0:0:0:
288,248,57710,2,0,L|272:300,1,52.8000016113282,8|0,0:0|0:0,0:0:0:0:
160,346,57868,6,0,L|212:360,1,52.8000016113282,8|0,0:0|0:0,0:0:0:0:
188,272,58026,6,0,L|128:256,1,52.8000016113282,8|0,0:0|0:0,0:0:0:0:
76,320,58184,6,0,L|48:268,1,52.8000016113282,8|0,0:0|0:0,0:0:0:0:
52,232,58342,5,8,0:0:0:0:
56,188,58421,1,0,0:0:0:0:
64,148,58500,1,8,0:0:0:0:
76,108,58579,1,0,0:0:0:0:
96,72,58658,6,0,P|200:40|304:48,1,211.200006445313,4|8,0:0|0:0,0:0:0:0:
476,156,59131,5,0,0:0:0:0:
404,76,59289,1,2,0:0:0:0:
422,242,59447,1,2,0:0:0:0:
422,242,59526,1,0,0:0:0:0:
422,242,59605,2,0,P|456:212|476:156,1,105.600003222656,8|0,0:0|0:0,0:0:0:0:
328,196,59921,2,0,P|294:226|274:282,1,105.600003222656,2|0,0:0|0:0,0:0:0:0:
368,332,60237,5,8,0:0:0:0:
274,282,60395,1,0,0:0:0:0:
120,216,60553,2,0,P|136:264|172:304,1,105.600003222656,2|2,0:0|0:0,0:0:0:0:
35,142,60868,2,0,P|86:109|160:112,1,105.600003222656,8|0,0:0|0:0,0:0:0:0:
120,216,61184,5,2,0:0:0:0:
216,164,61342,1,0,0:0:0:0:
216,164,61421,1,0,0:0:0:0:
216,164,61500,2,0,P|256:120|264:76,1,105.600003222656,8|0,0:0|0:0,0:0:0:0:
288,40,61737,1,0,0:0:0:0:
328,56,61816,2,0,P|376:84|432:88,1,105.600003222656,2|2,0:0|0:0,0:0:0:0:
375,280,62131,1,8,0:0:0:0:
375,280,62289,2,0,P|404:252|428:192,1,105.600003222656,0|2,0:0|0:0,0:0:0:0:
272,252,62605,5,0,0:0:0:0:
188,316,62763,1,8,0:0:0:0:
112,240,62921,1,0,0:0:0:0:
76,140,63079,2,0,P|60:88|63:37,1,105.600003222656,2|2,0:0|0:0,0:0:0:0:
180,160,63395,5,8,0:0:0:0:
345,191,63553,1,0,0:0:0:0:
290,32,63710,1,2,0:0:0:0:
272,124,63868,1,0,0:0:0:0:
444,208,64026,1,8,0:0:0:0:
460,104,64184,1,0,0:0:0:0:
460,104,64263,1,0,0:0:0:0:
460,104,64342,2,0,L|444:208,1,105.600003222656,2|2,0:0|0:0,0:0:0:0:
376,292,64658,5,8,0:0:0:0:
212,344,64816,1,2,0:0:0:0:
244,224,64974,1,0,0:0:0:0:
80,276,65131,1,0,0:0:0:0:
64,100,65289,6,0,P|104:60|152:44,1,105.600003222656,8|0,0:0|0:0,0:0:0:0:
309,64,65605,2,2,P|269:104|224:120,1,105.600003222656,2|2,0:0|0:0,0:0:0:0:
408,24,65921,2,0,P|440:68|448:120,1,105.600003222656,8|2,0:0|0:0,0:0:0:0:
448,140,66158,1,2,0:0:0:0:
448,160,66237,1,8,0:0:0:0:
341,311,66395,1,0,0:0:0:0:
341,311,66553,2,0,P|388:300|432:264,1,105.600003222656,8|0,0:0|0:0,0:0:0:0:
271,233,66868,5,8,0:0:0:0:
132,308,67026,1,2,0:0:0:0:
57,168,67184,1,8,0:0:0:0:
197,93,67342,1,2,0:0:0:0:
232,72,67658,5,2,0:0:0:0:
332,44,67816,2,0,P|388:56|432:84,1,105.600003222656,8|8,0:0|0:0,0:0:0:0:
453,225,68131,6,0,L|416:188,1,52.8000016113282,8|0,0:0|0:0,0:0:0:0:
271,162,68289,6,0,L|308:199,1,52.8000016113282,8|0,0:0|0:0,0:0:0:0:
334,343,68447,6,0,L|297:306,1,52.8000016113282,8|0,0:0|0:0,0:0:0:0:
152,281,68605,6,0,L|189:318,1,52.8000016113282,8|0,0:0|0:0,0:0:0:0:
80,200,68763,6,0,B|88:72|208:52,1,211.200006445313,4|8,0:0|0:0,0:0:0:0:
392,129,69237,1,0,0:0:0:0:
204,52,69395,1,2,0:0:0:0:
308,72,69553,1,2,0:0:0:0:
308,72,69631,1,0,0:0:0:0:
308,72,69710,2,0,P|348:112|408:132,1,105.600003222656,8|0,0:0|0:0,0:0:0:0:
280,308,70026,2,0,P|324:325|364:365,1,105.600003222656,2|0,0:0|0:0,0:0:0:0:
344,224,70342,5,8,0:0:0:0:
176,328,70500,1,0,0:0:0:0:
279,307,70658,1,2,0:0:0:0:
96,260,70816,1,2,0:0:0:0:
156,172,70974,6,0,P|136:120|103:82,1,105.600003222656,8|0,0:0|0:0,0:0:0:0:
196,28,71289,1,2,0:0:0:0:
248,120,71447,1,0,0:0:0:0:
352,96,71605,1,8,0:0:0:0:
436,277,71763,2,0,P|440:222|422:176,1,105.600003222656,0|2,0:0|0:0,0:0:0:0:
336,240,72079,1,2,0:0:0:0:
336,240,72237,2,0,B|292:272|240:272|240:272|204:232|144:212,1,211.200006445313,8|2,0:0|0:0,0:0:0:0:
140,108,72710,5,0,0:0:0:0:
48,252,72868,1,8,0:0:0:0:
140,108,73026,1,0,0:0:0:0:
344,96,73184,6,0,P|392:72|424:32,1,105.600003222656,2|2,0:0|0:0,0:0:0:0:
240,72,73500,1,8,0:0:0:0:
240,72,73658,1,0,0:0:0:0:
344,96,73816,6,0,P|376:144|379:196,1,105.600003222656,2|0,0:0|0:0,0:0:0:0:
270,179,74131,1,8,0:0:0:0:
270,179,74289,1,0,0:0:0:0:
316,276,74447,1,2,0:0:0:0:
316,276,74605,2,0,L|228:340,1,105.600003222656,2|8,0:0|0:0,0:0:0:0:
58,338,74921,2,0,L|144:276,1,105.600003222656,0|2,0:0|0:0,0:0:0:0:
124,172,75237,5,0,0:0:0:0:
56,56,75395,1,8,0:0:0:0:
228,160,75553,1,0,0:0:0:0:
232,24,75710,1,2,0:0:0:0:
332,176,75868,1,2,0:0:0:0:
404,60,76026,2,0,B|504:128|496:244,1,211.200006445313,8|2,0:0|0:0,0:0:0:0:
313,337,76500,2,0,P|360:316|396:276,1,105.600003222656,0|8,0:0|0:0,0:0:0:0:
228,272,76816,2,0,P|181:293|145:333,1,105.600003222656,0|2,0:0|0:0,0:0:0:0:
148,124,77131,5,2,0:0:0:0:
228,272,77289,1,8,0:0:0:0:
148,124,77447,1,0,0:0:0:0:
296,40,77605,1,0,0:0:0:0:
360,124,77763,6,0,L|400:160,1,52.8000016113282,2|2,0:0|0:0,0:0:0:0:
432,184,77921,1,12,0:0:0:0:
300,212,78079,2,0,L|340:248,1,52.8000016113282,2|2,0:0|0:0,0:0:0:0:
372,272,78237,1,12,0:0:0:0:
232,124,78395,2,0,L|196:164,1,52.8000016113282,8|0,0:0|0:0,0:0:0:0:
176,200,78553,1,8,0:0:0:0:
160,236,78631,1,0,0:0:0:0:
152,276,78710,1,8,0:0:0:0:
102,90,78868,6,0,P|146:50|188:32,1,105.600003222656,4|0,0:0|0:0,0:0:0:0:
296,40,79184,1,8,0:0:0:0:
296,40,79342,1,0,0:0:0:0:
400,64,79500,1,2,0:0:0:0:
400,64,79658,1,2,0:0:0:0:
440,164,79816,2,0,P|424:220|392:256,1,105.600003222656,8|0,0:0|0:0,0:0:0:0:
249,306,80131,2,0,P|265:250|296:216,1,105.600003222656,2|0,0:0|0:0,0:0:0:0:
144,308,80447,5,8,0:0:0:0:
80,224,80605,1,0,0:0:0:0:
80,224,80684,1,0,0:0:0:0:
80,224,80763,1,2,0:0:0:0:
113,117,80921,2,0,P|156:144|186:190,1,105.600003222656,8|0,0:0|0:0,0:0:0:0:
200,52,81237,2,0,P|244:24|296:20,1,105.600003222656,8|0,0:0|0:0,0:0:0:0:
400,72,81553,5,0,0:0:0:0:
456,236,81710,1,8,0:0:0:0:
464,140,81868,1,0,0:0:0:0:
372,272,82026,1,0,0:0:0:0:
288,232,82184,1,8,0:0:0:0:
269,240,82263,1,0,0:0:0:0:
251,248,82342,1,8,0:0:0:0:
233,256,82421,1,0,0:0:0:0:
214,264,82500,1,8,0:0:0:0:
196,272,82579,1,0,0:0:0:0:
176,280,82658,5,6,0:0:0:0:
300,116,82816,1,6,0:0:0:0:
456,236,82974,1,6,0:0:0:0:
120,116,83289,5,0,0:0:0:0:
256,192,83921,12,8,87079,0:0:0:0:
152,92,87395,6,0,P|192:124|240:144,1,96,4|8,0:0|0:0,0:0:0:0:
328,132,87710,2,0,L|360:232,3,96,8|2|8|2,0:0|0:0|0:0|0:0,0:0:0:0:
260,224,88342,1,8,0:0:0:0:
146,328,88500,1,2,0:0:0:0:
112,179,88658,1,8,0:0:0:0:
260,224,88816,1,4,0:0:0:0:
