osu file format v12

[General]
AudioFilename: 01 - OP theme2_unripe hero (TV size).mp3
AudioLeadIn: 2000
PreviewTime: 48231
Countdown: 0
SampleSet: Normal
StackLeniency: 0.7
Mode: 0
LetterboxInBreaks: 0

[Editor]
DistanceSpacing: 1
BeatDivisor: 4
GridSize: 4

[Metadata]
Title:unripe hero (TV Size)
TitleUnicode:unripe hero (TV Size)
Artist:Kuribayashi Minami
ArtistUnicode:栗林みな実
Creator:Totori
Version:Easy
Source:BLASSREITER
Tags:ブラスレイター GONZO Nitro+ Urobuchi Gen opening Amamiya Yuko Skystar N_E_K_O NEKO
BeatmapID:261801
BeatmapSetID:97911

[Difficulty]
HPDrainRate:1
CircleSize:3
OverallDifficulty:2
ApproachRate:3
SliderMultiplier:0.999999999999999
SliderTickRate:1

[Events]
//Background and Video events
0,0,"bg.jpg",0,0
Video,-35,"video.flv"
//Break Periods
2,10858,11744
2,13384,14270
2,15910,16797
//Storyboard Layer 0 (Background)
//Storyboard Layer 1 (Fail)
//Storyboard Layer 2 (Pass)
//Storyboard Layer 3 (Foreground)
//Storyboard Sound Samples
//Background Colour Transformations
3,100,163,162,255

[TimingPoints]
553,315.789473684211,4,2,1,30,1,0
553,-100,4,2,1,30,0,0
4500,-100,4,2,1,40,0,0
4816,-100,4,2,1,50,0,0
5131,-100,4,2,1,60,0,0
5605,-100,4,1,1,60,0,0
30868,-100,4,1,1,50,0,0
48237,-100,4,1,1,40,0,0
48553,-100,4,1,3,70,0,1
58579,-100,4,1,3,70,0,0
58658,-100,4,1,3,70,0,1
67342,-100,4,1,3,70,0,0
68763,-100,4,1,3,70,0,1
82658,-100,4,1,1,40,0,0
83921,-100,4,1,1,60,0,0

[Colours]
Combo1 : 225,151,173
Combo2 : 30,12,248
Combo3 : 176,9,9
Combo4 : 225,225,225

[HitObjects]
115,36,710,2,0,P|92:123|174:205,1,200,0|4,0:0|0:0,0:0:0:0:
192,104,1658,2,0,P|248:88|304:96,1,99.9999999999999,0|8,0:0|0:0,0:0:0:0:
352,168,2289,2,0,P|296:184|240:176,1,99.9999999999999,0|8,0:0|0:0,0:0:0:0:
452,220,3237,6,0,P|436:120|356:48,1,200,0|4,0:0|0:0,0:0:0:0:
284,108,4184,2,0,L|252:8,1,99.9999999999999,0|8,0:0|0:0,0:0:0:0:
156,32,4816,2,0,L|186:127,1,99.9999999999999,0|8,0:0|0:0,0:0:0:0:
316,200,5605,6,0,L|286:295,2,99.9999999999999,4|8|0,0:0|0:0|0:0,0:0:0:0:
228,148,6553,1,8,0:0:0:0:
181,236,6868,2,0,P|128:149|179:60,1,200
368,72,8131,6,0,L|480:116,1,99.9999999999999,0|8,0:0|0:0,0:0:0:0:
404,192,8763,2,0,L|310:155,1,99.9999999999999,0|8,0:0|0:0,0:0:0:0:
212,156,9395,2,0,P|200:252|264:332,1,200
404,192,10658,5,4,0:0:0:0:
400,188,13184,5,4,0:0:0:0:
396,184,15710,5,4,0:0:0:0:
392,180,18237,5,4,0:0:0:0:
130,131,20447,6,0,L|76:48,2,99.9999999999999,8|2|8,0:0|0:0|0:0,0:0:0:0:
114,231,21395,2,0,P|188:215|231:144,1,150
256,60,22184,2,0,L|356:52,1,99.9999999999999
420,188,22974,6,0,L|474:104,2,99.9999999999999,8|2|8,0:0|0:0|0:0,0:0:0:0:
436,287,23921,2,0,P|362:271|319:200,1,150
228,244,24710,2,0,L|132:284,1,99.9999999999999
132,132,25500,6,0,P|159:85|201:62,1,99.9999999999999,8|2,0:0|0:0,0:0:0:0:
232,160,26131,2,0,L|369:100,1,150,8|0,0:0|0:0,0:0:0:0:
392,196,26921,2,0,L|244:260,1,150,0|8,0:0|0:0,0:0:0:0:
158,279,27710,2,0,P|88:204|116:113,1,200,0|2,0:0|0:0,0:0:0:0:
184,184,28658,2,0,L|296:76,1,150,8|0,0:0|0:0,0:0:0:0:
388,52,29447,1,4,0:0:0:0:
396,304,30237,5,0,0:0:0:0:
296,296,30553,1,8,0:0:0:0:
200,272,30868,2,0,P|120:204|112:112,1,200,4|0,0:0|0:0,0:0:0:0:
252,64,31974,2,0,L|156:24,2,99.9999999999999
356,172,33079,5,0,0:0:0:0:
304,260,33395,2,0,P|236:288|164:264,1,150
68,152,34342,2,0,P|132:108|152:36,1,150
300,52,35289,6,0,L|404:80,1,99.9999999999999
488,124,35921,2,0,P|448:216|360:264,2,200,4|0|0,0:0|0:0|0:0,0:0:0:0:
396,77,37500,2,0,L|300:52,1,99.9999999999999,0|0,0:0|0:0,0:0:0:0:
256,192,38131,12,0,40342,0:0:0:0:
288,95,40974,6,0,P|197:106|153:200,2,200,4|0|0,0:0|0:0|0:0,0:0:0:0:
412,180,42710,1,0,0:0:0:0:
316,296,43184,6,0,L|216:308,1,99.9999999999999
156,228,43816,2,0,L|256:216,1,99.9999999999999,0|0,0:0|0:0,0:0:0:0:
324,144,44447,5,0,0:0:0:0:
260,68,44763,1,4,0:0:0:0:
160,56,45079,1,0,0:0:0:0:
80,116,45395,2,0,L|56:216,1,99.9999999999999
112,296,46026,2,0,P|184:340|260:348,2,150,4|0|4,0:0|0:0|0:0,0:0:0:0:
124,68,48237,5,0,0:0:0:0:
224,52,48553,6,0,P|320:80|352:168,1,200,4|0,0:0|0:0,0:0:0:0:
380,264,49500,2,0,P|284:236|252:148,1,200,8|8,0:0|0:0,0:0:0:0:
224,52,50447,5,0,0:0:0:0:
124,68,50763,1,8,0:0:0:0:
92,164,51079,1,2,0:0:0:0:
132,256,51395,2,0,P|212:316|312:300,2,200,8|8|8,0:0|0:0|0:0,0:0:0:0:
200,184,52974,6,0,L|215:85,1,99.9999999999999,0|8,0:0|0:0,0:0:0:0:
316,84,53605,2,0,L|300:182,1,99.9999999999999,4|8,0:0|0:0,0:0:0:0:
400,180,54237,1,0,0:0:0:0:
500,184,54553,2,0,P|483:235|447:267,1,99.9999999999999,8|2,0:0|0:0,0:0:0:0:
360,308,55184,1,8,0:0:0:0:
264,336,55500,1,0,0:0:0:0:
168,308,55816,2,0,P|80:196|152:60,1,300,8|0,0:0|0:0,0:0:0:0:
240,52,57079,6,0,P|292:40|348:52,1,99.9999999999999,8|2,0:0|0:0,0:0:0:0:
340,148,57710,2,0,P|294:155|242:143,1,99.9999999999999,8|0,0:0|0:0,0:0:0:0:
144,164,58342,1,8,0:0:0:0:
52,208,58658,6,0,P|128:280|228:288,1,200,4|0,0:0|0:0,0:0:0:0:
308,244,59605,2,0,L|392:176,2,99.9999999999999,8|2|8,0:0|0:0|0:0,0:0:0:0:
292,144,60553,2,0,L|214:206,1,99.9999999999999,0|8,0:0|0:0,0:0:0:0:
145,136,61184,6,0,P|116:200|148:280,1,150,2|0,0:0|0:0,0:0:0:0:
228,324,61974,1,0,0:0:0:0:
324,292,62289,1,0,0:0:0:0:
464,84,63079,6,0,P|364:48|264:64,1,200,0|2,0:0|0:0,0:0:0:0:
200,128,64026,1,8,0:0:0:0:
248,216,64342,2,0,P|348:252|448:236,2,200,0|2|0,0:0|0:0|0:0,0:0:0:0:
256,192,65921,12,0,68131,0:0:0:0:
256,192,68763,6,0,B|108:148|108:148|224:44,1,300,4|0,0:0|0:0,0:0:0:0:
316,52,70026,2,0,L|412:78,1,99.9999999999999,2|8,0:0|0:0,0:0:0:0:
420,180,70658,1,0,0:0:0:0:
372,268,70974,1,8,0:0:0:0:
276,296,71289,2,0,P|192:268|144:216,2,150,2|0|8,0:0|0:0|0:0,0:0:0:0:
92,60,73184,6,0,L|192:84,1,99.9999999999999,0|8,0:0|0:0,0:0:0:0:
288,100,73816,1,4,0:0:0:0:
348,180,74131,2,0,P|324:260|250:295,1,150,8|0,0:0|0:0,0:0:0:0:
166,304,74921,2,0,P|190:224|244:192,1,150,0|8,0:0|0:0,0:0:0:0:
256,92,75710,1,0,0:0:0:0:
308,8,76026,2,0,P|412:28|496:84,1,200,8|8,0:0|0:0,0:0:0:0:
464,280,77289,6,0,P|360:260|276:204,1,200,8|8,0:0|0:0,0:0:0:0:
248,116,78237,2,0,L|140:128,1,99.9999999999999,0|8,0:0|0:0,0:0:0:0:
112,220,78868,2,0,P|172:300|268:324,1,200,2|0,0:0|0:0,0:0:0:0:
360,288,79816,6,0,P|412:200|420:96,1,200,8|8,0:0|0:0,0:0:0:0:
322,90,80763,2,0,P|327:135|308:193,1,99.9999999999999,0|8,0:0|0:0,0:0:0:0:
224,236,81395,2,0,P|136:176|96:92,2,200
404,148,83289,21,0,0:0:0:0:
256,192,83921,12,0,88816,0:0:0:0:
