osu file format v9

[General]
AudioFilename: sympathizer.mp3
AudioLeadIn: 2500
PreviewTime: 59612
Countdown: 0
SampleSet: Normal
StackLeniency: 0.7
Mode: 0
LetterboxInBreaks: 1

[Editor]
DistanceSpacing: 1.3
BeatDivisor: 4
GridSize: 8

[Metadata]
Title:sympathizer (TV Size)
Artist:Kuribayashi Minami
Creator:taka1235
Version:Normal
Source:Kurokami The Animation
Tags:quintitem rucker

[Difficulty]
HPDrainRate:3
CircleSize:4
OverallDifficulty:3
ApproachRate:5
SliderMultiplier:0.8
SliderTickRate:1

[Events]
//Background and Video events
0,0,"kurokami.jpg"
Video,0,"Kurokami_opening1.avi"
//Break Periods
2,37792,46340
//Storyboard Layer 0 (Background)
//Storyboard Layer 1 (Fail)
//Storyboard Layer 2 (Pass)
//Storyboard Layer 3 (Foreground)
//Storyboard Sound Samples
//Background Colour Transformations
3,100,163,162,255

[TimingPoints]
286,310.880829015544,4,1,0,71,1,0
15130,-100,4,1,0,34,0,0
16684,-100,4,1,0,43,0,0
17306,-100,4,1,0,57,0,0
17617,-100,4,1,0,71,0,0
17928,-100,4,1,0,66,0,0
37513,-200,4,1,0,55,0,0
52416,-100,4,1,0,71,0,0
59975,-100,4,1,0,91,0,1

[Colours]
Combo1 : 255,128,0
Combo2 : 255,0,0
Combo3 : 255,255,187
Combo4 : 0,128,255

[HitObjects]
96,80,286,2,0,B|128:104|168:144,1,80,0|0
64,208,908,2,0,B|72:256|96:296,1,80
208,320,1530,2,0,B|264:312|304:320,2,80
160,208,2463,1,0
272,176,2774,6,0,B|256:128|240:88,1,80,4|0
352,40,3395,2,0,B|392:48|440:64,1,80
440,184,4017,2,0,B|440:232|456:280,2,80
328,144,4950,1,0
288,256,5261,6,0,B|232:272|176:248|144:184,1,160,4|0
72,112,6193,1,8
168,40,6504,2,0,B|216:32|264:24,1,80,0|8
232,144,7126,2,0,B|240:184|240:232,1,80,0|8
120,256,7748,6,0,B|128:320|184:352|248:336,1,160,4|0
344,280,8680,1,8
448,336,8991,2,0,B|464:288|464:256,1,80,0|8
360,200,9613,2,0,B|352:152|352:104,1,80,0|8
464,88,10235,6,0,B|432:32|392:16|320:32,1,160,4|0
240,104,11167,1,8
336,168,11478,2,0,B|336:208|328:264,1,80,0|8
240,328,12100,2,0,B|208:312|160:296,1,80,0|8
72,256,12721,6,0,B|24:168|88:96,1,160,4|0
176,136,13653,1,8
264,80,13964,2,0,B|304:104|312:160,1,80,0|8
256,232,14586,2,0,B|208:256|168:224,1,80,0|8
200,128,15208,6,0,B|152:120|112:120,2,80,0|8|0
256,208,16141,1,8
304,128,16451,2,0,B|352:120|392:120,2,80,0|8|0
256,208,17384,1,0
256,208,17696,1,4
168,264,18007,6,0,B|128:272|88:304,2,80,0|0|0
272,280,18938,2,0,B|320:304|352:336,1,80,0|0
432,280,19561,2,0,B|448:240|448:192,1,80
392,112,20183,1,2
304,160,20494,6,0,B|280:112|272:80,1,80
184,32,21116,2,0,B|144:32|96:40,1,80,0|0
40,120,21737,2,0,B|64:168|72:200,1,80
152,264,22359,1,0
192,168,22670,6,0,B|248:176|280:232|272:296,1,160,2|0
184,344,23603,1,0
80,320,23913,2,0,B|32:272|48:200|112:176,1,160,0|0
176,256,24846,1,0
256,192,25157,12,4,26400
392,64,27955,6,0,B|352:72|312:96,1,80
224,40,28577,2,0,B|208:80|200:128,1,80,0|0
256,208,29198,1,0
184,280,29509,2,0,B|128:288|96:296,1,80,0|0
56,200,30131,1,2
144,144,30442,6,0,B|128:96|104:64,1,80
208,32,31064,2,0,B|256:64|280:96,1,80,0|0
304,184,31685,1,0
216,240,31996,2,0,B|232:280|256:320,1,80
352,344,32618,1,2
432,280,32929,6,0,B|472:240|472:176|408:128,1,160,4|0
328,192,33862,1,0
256,256,34173,2,0,B|216:264|176:280,1,80
88,320,34794,1,0
256,192,35105,12,4,37592
104,120,47540,6,0,B|192:120,2,80
72,160,49095,1,0
104,200,49406,2,0,B|112:240,1,40
152,272,50027,6,0,B|64:272,2,80,4|0|0
192,304,51582,1,0
240,280,51893,1,0
288,304,52204,1,0
392,328,52514,6,0,B|416:288|416:240,1,80
376,160,53136,1,0
376,160,53447,1,0
288,216,53758,2,0,B|240:224|208:240,1,80
120,296,54380,2,0,B|96:264|88:208,1,80
40,128,55002,6,0,B|80:40|176:24|256:88,1,240,4|8
184,168,56245,2,0,B|272:216|360:184|392:88,1,240,4|8
256,192,57488,12,0,59353
112,88,59976,5,4
48,168,60286,1,8
80,264,60597,2,0,B|128:280|160:312,1,80,0|8
240,248,61219,2,0,B|264:200|264:160,1,80,0|8
216,80,61841,1,0
320,56,62152,1,8
416,104,62463,6,0,B|440:144|432:192,1,80,4|8
336,208,63084,1,0
336,208,63395,1,8
392,296,63706,2,0,B|352:320|312:320,1,80,0|8
232,264,64328,1,0
136,312,64639,1,8
56,248,64950,6,0,B|24:200|32:136|88:96,1,160,4|0
152,184,65882,1,8
208,96,66193,2,0,B|264:112|320:96|344:32,1,160,4|0
440,80,67126,1,8
392,168,67437,6,4,B|400:240|424:344,2,160
96,104,69924,6,0,B|80:144|80:192,1,80,0|8
120,280,70546,2,0,B|168:312|208:312,1,80,0|8
240,216,71167,2,0,B|232:160|232:128,1,80,0|8
272,40,71789,1,0
368,72,72100,1,8
456,24,72411,6,0,B|472:64|480:104,1,80,4|8
432,192,73033,2,0,B|392:208|352:208,1,80,0|8
376,312,73654,1,0
272,296,73965,2,0,B|224:280|184:272,2,80,8|0|8
376,312,74898,6,0,B|432:280|440:224|400:168,2,160,4|0|0
304,240,76452,2,0,B|248:248|216:264,1,80,8|0
128,304,77074,1,8
56,232,77385,6,0,B|24:168|48:104|128:56|168:64,1,240,4|0
200,160,78628,1,4
392,80,79872,6,0,B|432:144|432:216|416:248,2,160,4|0|0
192,120,81737,1,0
144,216,82048,1,0
104,304,82359,6,0,B|152:352|272:368|336:296,1,240,4|0
424,328,83603,1,4
80,88,84846,6,0,B|72:112|72:144,1,40,6|0
136,208,85312,6,0,B|144:184|144:160,1,40,6|0
200,80,85779,6,0,B|216:112|216:136,1,40,6|0
288,192,86245,6,0,B|288:160|296:136,1,40,6|0
352,64,86711,6,0,B|400:80|440:104,1,80,6|6
472,192,87333,5,6
472,192,87489,1,6
