osu file format v12

[General]
AudioFilename: op.mp3
AudioLeadIn: 1000
PreviewTime: 54230
Countdown: 0
SampleSet: Normal
StackLeniency: 0.7
Mode: 0
LetterboxInBreaks: 0
WidescreenStoryboard: 0

[Editor]
Bookmarks: 4944,8406
DistanceSpacing: 1.1
BeatDivisor: 4
GridSize: 4

[Metadata]
Title:ZERO!! (TV Size)
TitleUnicode:ZERO!! (TV Size)
Artist:Kuribayashi Minami
ArtistUnicode:栗林みな実
Creator:HabiHolic
Version:Halic
Source:Hataraku Maou-sama!
Tags:White Fox The Devil is a Part-Timer! ost Lantis Opening koreapenguin Sonnyc -iCo-
BeatmapID:292725
BeatmapSetID:112729

[Difficulty]
HPDrainRate:7
CircleSize:4
OverallDifficulty:7
ApproachRate:9
SliderMultiplier:1.8
SliderTickRate:2

[Events]
//Background and Video events
Video,357,"video.avi"
0,0,"BG.png",0,0
//Break Periods
//Storyboard Layer 0 (Background)
//Storyboard Layer 1 (Fail)
//Storyboard Layer 2 (Pass)
//Storyboard Layer 3 (Foreground)
//Storyboard Sound Samples
//Background Colour Transformations
3,100,163,162,255

[TimingPoints]
494,329.67032967033,4,1,1,65,1,0
494,-166.666666666667,4,1,1,65,0,0
8406,-100,4,1,1,65,0,0
10548,-100,4,1,2,75,0,0
11043,-100,4,1,1,65,0,0
54559,-83.3333333333333,4,1,1,65,0,1
64779,-83.3333333333333,4,1,1,65,0,0
65109,-83.3333333333333,4,1,1,65,0,1
78955,-100,4,1,1,65,0,0
87362,-100,4,1,2,65,0,0

[Colours]
Combo1 : 243,188,240
Combo2 : 61,65,233
Combo3 : 236,26,157
Combo4 : 154,238,145

[HitObjects]
56,204,494,2,0,L|64:264,1,53.9999983520508,4|0,0:0|0:0,0:0:0:0:
152,256,823,2,0,L|144:316,1,53.9999983520508,8|2,0:0|0:0,0:0:0:0:
144,168,1153,2,0,P|204:164|240:200,1,107.999996704102,8|0,0:0|0:0,0:0:0:0:
384,328,1812,2,0,P|412:284|408:224,1,107.999996704102,8|0,0:0|0:0,0:0:0:0:
360,152,2307,1,0,0:0:0:0:
360,152,2389,1,0,0:0:0:0:
360,152,2472,2,0,L|416:144,1,53.9999983520508,8|0,0:0|0:0,0:0:0:0:
292,64,2801,2,0,L|238:71,1,53.9999983520508,2|0,0:0|0:0,0:0:0:0:
172,144,3131,6,0,P|104:132|228:256,1,539.999983520508,4|2,0:0|0:0,0:0:0:0:
296,196,4944,5,2,0:0:0:0:
321,186,5026,1,0,0:0:0:0:
348,183,5108,1,8,0:0:0:0:
374,186,5191,1,0,0:0:0:0:
400,195,5273,1,0,0:0:0:0:
422,210,5356,1,0,0:0:0:0:
441,229,5439,1,8,0:0:0:0:
455,252,5520,1,0,0:0:0:0:
463,278,5603,1,0,0:0:0:0:
464,304,5686,1,0,0:0:0:0:
256,192,5768,12,0,8076,0:0:0:0:
156,84,8406,6,0,L|252:76,1,90,4|0,0:0|0:0,0:0:0:0:
84,152,8735,1,8,0:0:0:0:
168,208,8900,1,2,0:0:0:0:
168,208,8983,1,0,0:0:0:0:
168,208,9065,2,0,P|192:248|192:296,1,90
96,272,9395,1,8,0:0:0:0:
272,332,9559,6,0,P|356:352|440:308,1,180,2|0,0:0|0:0,0:0:0:0:
472,228,10054,1,8,0:0:0:0:
472,228,10136,1,0,0:0:0:0:
472,228,10219,2,0,L|484:132,1,90,0|2,0:0|0:0,0:0:0:0:
404,60,10548,5,8,0:0:0:0:
300,196,10713,1,8,0:0:0:0:
232,40,10878,1,0,0:0:0:0:
232,40,10961,1,0,0:0:0:0:
232,40,11043,2,0,P|144:32|76:92,1,180,4|8,0:0|0:0,0:0:0:0:
40,176,11537,5,2,0:0:0:0:
192,296,11702,2,0,P|156:312|100:308,1,90
128,224,12032,1,8,0:0:0:0:
264,136,12197,2,0,P|344:96|432:112,1,180,2|0,0:0|0:0,0:0:0:0:
320,224,12691,1,8,0:0:0:0:
272,312,12856,6,0,P|192:352|104:336,1,180,2|0,0:0|0:0,0:0:0:0:
36,264,13351,2,0,P|24:220|32:176,1,90,8|0,0:0|0:0,0:0:0:0:
208,48,13680,2,0,P|220:92|212:136,1,90
152,208,14010,1,8,0:0:0:0:
360,124,14175,5,2,0:0:0:0:
360,124,14257,1,0,0:0:0:0:
360,124,14340,1,0,0:0:0:0:
136,320,14504,2,0,P|184:320|224:300,1,90,0|8,0:0|0:0,0:0:0:0:
308,232,14834,2,0,P|400:232|448:308,1,180,2|0,0:0|0:0,0:0:0:0:
236,152,15329,2,0,P|224:116|232:60,1,90,8|0,0:0|0:0,0:0:0:0:
112,64,15659,1,2,0:0:0:0:
112,64,15741,1,0,0:0:0:0:
112,64,15824,1,0,0:0:0:0:
32,148,15988,2,0,P|48:188|44:236,1,90,8|0,0:0|0:0,0:0:0:0:
164,224,16318,6,0,P|248:248|332:200,1,180,2|8,0:0|0:0,0:0:0:0:
368,124,16812,2,0,L|468:112,1,90,2|0,0:0|0:0,0:0:0:0:
284,44,17142,2,0,L|194:54,1,90,2|8,0:0|0:0,0:0:0:0:
224,308,17472,2,0,P|264:236|232:140,1,180,2|0,0:0|0:0,0:0:0:0:
120,280,17966,2,0,P|120:332|148:368,1,90,8|0,0:0|0:0,0:0:0:0:
160,188,18296,2,0,P|112:176|56:196,1,90,2|0,0:0|0:0,0:0:0:0:
24,264,18625,1,8,0:0:0:0:
24,264,18790,1,0,0:0:0:0:
264,196,18955,6,0,P|232:112|152:84,1,180,2|8,0:0|0:0,0:0:0:0:
208,276,19450,2,0,P|292:292|360:232,1,180,2|0,0:0|0:0,0:0:0:0:
360,140,19944,1,8,0:0:0:0:
284,68,20109,2,0,B|212:80|212:80|176:72|176:72|104:88,1,180,2|0,0:0|0:0,0:0:0:0:
32,156,20603,2,0,P|24:200|28:244,1,90,8|0,0:0|0:0,0:0:0:0:
132,336,20933,1,2,0:0:0:0:
132,336,21015,1,0,0:0:0:0:
132,336,21098,1,0,0:0:0:0:
264,224,21263,2,0,P|220:212|168:220,1,90,8|0,0:0|0:0,0:0:0:0:
328,304,21592,6,0,P|360:220|324:136,1,180,4|8,0:0|0:0,0:0:0:0:
248,72,22087,1,2,0:0:0:0:
156,48,22252,2,0,L|60:40,1,90
66,40,22581,1,8,0:0:0:0:
32,232,22746,2,0,P|108:256|188:192,1,180,2|0,0:0|0:0,0:0:0:0:
96,160,23241,1,8,0:0:0:0:
192,336,23406,6,0,P|264:288|356:288,1,180,2|0,0:0|0:0,0:0:0:0:
472,228,23900,1,8,0:0:0:0:
472,228,23983,1,0,0:0:0:0:
472,228,24065,1,2,0:0:0:0:
416,120,24230,2,0,P|372:104|324:112,1,90,2|0,0:0|0:0,0:0:0:0:
248,168,24559,1,8,0:0:0:0:
88,224,24724,6,0,P|48:152|52:48,1,180,2|0,0:0|0:0,0:0:0:0:
49,56,25219,1,8,0:0:0:0:
248,168,25384,2,0,P|264:208|268:260,1,90,2|0,0:0|0:0,0:0:0:0:
432,324,25713,2,0,P|416:284|412:232,1,90,0|8,0:0|0:0,0:0:0:0:
368,120,26043,2,0,P|300:68|200:84,1,180,2|0,0:0|0:0,0:0:0:0:
16,152,26537,5,8,0:0:0:0:
25,195,26619,1,0,0:0:0:0:
54,228,26701,1,0,0:0:0:0:
96,243,26784,1,0,0:0:0:0:
140,244,26867,2,0,L|240:236,1,90,6|0,0:0|0:0,0:0:0:0:
328,232,27197,1,8,0:0:0:0:
468,176,27362,2,0,P|488:264|452:348,1,180,2|0,0:0|0:0,0:0:0:0:
360,348,27856,1,8,0:0:0:0:
360,348,28021,1,0,0:0:0:0:
392,96,28186,6,0,P|440:76|488:76,2,90,2|0|8,0:0|0:0|0:0,0:0:0:0:
304,52,28680,2,0,P|300:140|372:192,1,180,2|0,0:0|0:0,0:0:0:0:
428,268,29175,1,8,0:0:0:0:
428,268,29340,1,0,0:0:0:0:
272,280,29504,5,2,0:0:0:0:
272,280,29587,1,0,0:0:0:0:
272,280,29669,1,0,0:0:0:0:
116,112,29834,1,8,0:0:0:0:
48,180,29999,2,0,P|20:144|16:96,2,90,0|0|2,0:0|0:0|0:0,0:0:0:0:
144,204,30494,2,0,P|160:264|104:360,1,180,8|0,0:0|0:0,0:0:0:0:
103,360,30988,1,2,0:0:0:0:
248,184,31153,1,8,0:0:0:0:
304,276,31318,6,0,B|372:288|372:288|412:284|412:284|496:300,1,180,2|0,0:0|0:0,0:0:0:0:
476,56,31812,1,8,0:0:0:0:
474,100,31894,1,0,0:0:0:0:
448,136,31976,1,0,0:0:0:0:
406,151,32059,1,0,0:0:0:0:
368,148,32142,2,0,L|272:136,1,90,2|0,0:0|0:0,0:0:0:0:
104,52,32472,2,0,L|200:64,1,90,8|0,0:0|0:0,0:0:0:0:
176,160,32801,5,2,0:0:0:0:
300,40,32966,1,0,0:0:0:0:
252,228,33131,2,0,P|260:272|248:316,1,90,8|0,0:0|0:0,0:0:0:0:
20,188,33461,2,0,P|68:260|160:268,1,180,2|8,0:0|0:0,0:0:0:0:
272,132,33955,2,0,P|316:120|360:128,2,90,0|2|0,0:0|0:0|0:0,0:0:0:0:
176,168,34450,5,8,0:0:0:0:
332,280,34614,1,0,0:0:0:0:
416,344,34779,2,0,P|436:272|412:168,1,180,2|8,0:0|0:0,0:0:0:0:
228,264,35274,2,0,P|152:272|72:208,1,180,2|0,0:0|0:0,0:0:0:0:
88,108,35768,1,8,0:0:0:0:
292,80,35933,5,0,0:0:0:0:
292,80,36015,1,0,0:0:0:0:
292,80,36098,2,0,P|312:120|312:168,1,90,2|0,0:0|0:0,0:0:0:0:
216,148,36428,1,8,0:0:0:0:
448,328,36592,2,0,P|416:248|424:152,1,180,2|0,0:0|0:0,0:0:0:0:
476,80,37087,1,8,0:0:0:0:
316,256,37252,5,0,0:0:0:0:
316,256,37334,1,0,0:0:0:0:
316,256,37417,2,0,P|272:268|224:264,1,90,6|0,0:0|0:0,0:0:0:0:
144,216,37746,1,8,0:0:0:0:
72,64,37911,1,0,0:0:0:0:
248,88,38076,2,0,L|352:76,1,90,2|0,0:0|0:0,0:0:0:0:
505,221,38406,2,0,L|416:232,1,90,8|0,0:0|0:0,0:0:0:0:
176,312,38735,6,0,P|144:228|156:140,1,180,2|8,0:0|0:0,0:0:0:0:
155,140,39230,1,0,0:0:0:0:
340,208,39395,2,0,P|360:252|360:304,1,90,2|0,0:0|0:0,0:0:0:0:
288,124,39724,2,0,P|268:80|268:28,1,90,8|0,0:0|0:0,0:0:0:0:
240,216,40054,2,0,P|156:248|64:232,1,180,2|8,0:0|0:0,0:0:0:0:
32,148,40548,1,0,0:0:0:0:
204,48,40713,5,2,0:0:0:0:
204,48,40796,1,0,0:0:0:0:
204,48,40878,1,0,0:0:0:0:
396,112,41043,1,0,0:0:0:0:
488,164,41208,2,0,P|420:208|324:188,1,180,2|0,0:0|0:0,0:0:0:0:
327,190,41702,1,8,0:0:0:0:
228,148,41867,6,0,P|232:240|308:296,1,180,2|0,0:0|0:0,0:0:0:0:
296,60,42362,1,8,0:0:0:0:
256,38,42444,1,0,0:0:0:0:
212,36,42526,1,0,0:0:0:0:
170,52,42609,1,0,0:0:0:0:
140,80,42691,2,0,L|40:88,1,90,6|0,0:0|0:0,0:0:0:0:
140,248,43021,2,0,L|229:240,1,90,8|0,0:0|0:0,0:0:0:0:
316,280,43351,5,2,0:0:0:0:
464,136,43515,1,0,0:0:0:0:
484,232,43680,2,0,P|436:232|392:212,1,90,8|0,0:0|0:0,0:0:0:0:
308,172,44010,2,0,P|220:148|132:164,1,180,2|8,0:0|0:0,0:0:0:0:
224,236,44504,2,0,B|200:192|200:192|252:136|212:56,1,180,2|0,0:0|0:0,0:0:0:0:
128,44,44999,1,8,0:0:0:0:
44,216,45164,1,0,0:0:0:0:
44,216,45329,6,0,L|56:308,1,90,2|0,0:0|0:0,0:0:0:0:
140,352,45658,1,8,0:0:0:0:
224,236,45823,2,0,P|312:228|384:284,1,180,2|0,0:0|0:0,0:0:0:0:
452,340,46318,1,8,0:0:0:0:
460,116,46483,1,0,0:0:0:0:
460,116,46565,1,0,0:0:0:0:
460,116,46647,2,0,P|416:128|368:120,1,90,2|0,0:0|0:0,0:0:0:0:
300,56,46977,1,8,0:0:0:0:
216,112,47142,6,0,B|144:100|144:100|104:108|104:108|28:96,1,180,2|0,0:0|0:0,0:0:0:0:
38,97,47636,1,8,0:0:0:0:
120,248,47801,1,0,0:0:0:0:
120,248,47884,1,0,0:0:0:0:
120,248,47966,2,0,P|140:288|140:336,1,90,6|0,0:0|0:0,0:0:0:0:
44,312,48296,1,8,0:0:0:0:
263,204,48461,6,0,P|321:139|300:56,1,180,2|0,0:0|0:0,0:0:0:0:
216,112,48955,1,8,0:0:0:0:
160,196,49120,2,0,P|192:276|296:288,1,180,2|0,0:0|0:0,0:0:0:0:
356,240,49614,1,8,0:0:0:0:
480,72,49779,1,0,0:0:0:0:
480,72,49862,1,0,0:0:0:0:
480,72,49944,1,2,0:0:0:0:
356,240,50109,1,0,0:0:0:0:
412,144,50274,6,0,L|316:148,1,90,8|0,0:0|0:0,0:0:0:0:
248,212,50603,2,0,P|216:144|236:40,1,180,2|8,0:0|0:0,0:0:0:0:
288,304,51098,1,0,0:0:0:0:
288,304,51263,2,0,P|312:344|316:392,2,90,2|0|8,0:0|0:0|0:0,0:0:0:0:
192,288,51757,2,0,P|104:312|32:264,1,180,2|0,0:0|0:0,0:0:0:0:
120,216,52252,2,0,L|100:128,1,90,8|0,0:0|0:0,0:0:0:0:
228,16,52581,2,0,L|248:104,1,90,2|0,0:0|0:0,0:0:0:0:
272,196,52911,1,8,0:0:0:0:
272,196,53076,1,0,0:0:0:0:
364,144,53241,6,0,P|380:192|372:236,2,90,2|0|8,0:0|0:0|0:0,0:0:0:0:
204,120,53735,1,2,0:0:0:0:
70,178,53900,1,2,0:0:0:0:
64,200,53982,1,0,0:0:0:0:
60,222,54065,1,0,0:0:0:0:
59,244,54147,1,0,0:0:0:0:
60,267,54230,1,8,0:0:0:0:
64,289,54312,1,0,0:0:0:0:
71,310,54394,1,0,0:0:0:0:
80,331,54477,1,0,0:0:0:0:
96,348,54559,6,0,P|200:356|276:284,1,215.999993408203,6|8,0:0|0:0,0:0:0:0:
264,188,55054,1,0,0:0:0:0:
264,188,55136,1,0,0:0:0:0:
264,188,55219,2,0,P|244:136|256:80,1,107.999996704102,2|0,0:0|0:0,0:0:0:0:
340,124,55548,1,8,0:0:0:0:
360,216,55713,2,0,P|292:272|176:236,1,215.999993408203,2|0,0:0|0:0,0:0:0:0:
96,180,56208,5,8,0:0:0:0:
248,88,56373,1,0,0:0:0:0:
248,88,56455,1,0,0:0:0:0:
248,88,56537,1,2,0:0:0:0:
436,152,56702,2,0,P|448:100|432:44,1,107.999996704102,0|8,0:0|0:0,0:0:0:0:
260,192,57032,2,0,P|268:292|376:348,1,215.999993408203,2|0,0:0|0:0,0:0:0:0:
352,248,57526,5,8,0:0:0:0:
184,312,57691,1,0,0:0:0:0:
184,312,57774,1,0,0:0:0:0:
184,312,57856,1,2,0:0:0:0:
128,144,58021,2,0,P|84:128|20:144,1,107.999996704102,0|8,0:0|0:0,0:0:0:0:
68,224,58351,1,0,0:0:0:0:
256,248,58515,6,0,P|292:148|264:32,1,215.999993408203,2|8,0:0|0:0,0:0:0:0:
270,43,59010,1,0,0:0:0:0:
448,84,59175,1,2,0:0:0:0:
448,84,59257,1,0,0:0:0:0:
448,84,59340,2,0,P|464:132|460:192,1,107.999996704102,0|8,0:0|0:0,0:0:0:0:
332,332,59669,2,0,B|240:344|240:344|204:336|204:336|116:348,1,215.999993408203,4|0,0:0|0:0,0:0:0:0:
52,272,60164,6,0,P|32:220|40:160,1,107.999996704102,8|0,0:0|0:0,0:0:0:0:
216,64,60494,2,0,P|236:116|228:176,1,107.999996704102,2|0,0:0|0:0,0:0:0:0:
156,228,60823,1,8,0:0:0:0:
224,312,60988,2,0,P|336:308|400:232,1,215.999993408203,2|0,0:0|0:0,0:0:0:0:
488,108,61483,6,0,P|436:88|372:96,1,107.999996704102,8|0,0:0|0:0,0:0:0:0:
296,140,61812,1,2,0:0:0:0:
156,228,61977,1,0,0:0:0:0:
156,68,62142,1,8,0:0:0:0:
296,140,62307,1,0,0:0:0:0:
224,308,62472,2,0,P|168:332|112:324,1,107.999996704102,2|0,0:0|0:0,0:0:0:0:
52,252,62801,1,8,0:0:0:0:
300,240,62966,6,0,P|340:144|328:28,1,215.999993408203,2|0,0:0|0:0,0:0:0:0:
330,34,63461,1,8,0:0:0:0:
152,132,63625,1,2,0:0:0:0:
152,132,63708,1,0,0:0:0:0:
152,132,63790,1,8,0:0:0:0:
116,332,63955,1,2,0:0:0:0:
176,240,64120,6,0,L|52:224,1,107.999996704102,8|0,0:0|0:0,0:0:0:0:
216,328,64450,1,2,0:0:0:0:
245,351,64532,1,0,0:0:0:0:
281,361,64614,1,0,0:0:0:0:
319,357,64697,1,0,0:0:0:0:
351,339,64779,1,8,0:0:0:0:
375,309,64862,1,0,0:0:0:0:
386,273,64944,1,2,0:0:0:0:
382,236,65026,1,0,0:0:0:0:
360,204,65109,6,0,L|344:96,1,107.999996704102,4|0,0:0|0:0,0:0:0:0:
256,52,65439,1,8,0:0:0:0:
264,248,65603,2,0,P|212:224|148:224,1,107.999996704102,0|2,0:0|0:0,0:0:0:0:
80,280,65933,1,0,0:0:0:0:
32,136,66098,1,8,0:0:0:0:
188,136,66263,2,0,P|288:152|364:72,1,215.999993408203,2|0,0:0|0:0,0:0:0:0:
362,75,66757,1,8,0:0:0:0:
456,232,66922,1,0,0:0:0:0:
456,232,67004,1,0,0:0:0:0:
456,232,67087,2,0,L|460:344,2,107.999996704102,2|0|8,0:0|0:0|0:0,0:0:0:0:
164,272,67581,6,0,P|240:328|360:312,1,215.999993408203,2|0,0:0|0:0,0:0:0:0:
355,314,68076,1,8,0:0:0:0:
288,184,68241,1,0,0:0:0:0:
288,184,68323,1,0,0:0:0:0:
288,184,68406,2,0,P|300:132|284:80,1,107.999996704102,2|0,0:0|0:0,0:0:0:0:
67,28,68735,2,0,P|52:79|64:132,1,107.999996704102,8|0,0:0|0:0,0:0:0:0:
48,240,69065,2,0,P|148:216|176:112,1,215.999993408203,2|8,0:0|0:0,0:0:0:0:
236,272,69559,5,0,0:0:0:0:
236,272,69642,1,0,0:0:0:0:
236,272,69724,1,2,0:0:0:0:
348,352,69889,1,0,0:0:0:0:
360,204,70054,1,8,0:0:0:0:
252,372,70219,2,0,P|172:364|140:236,1,215.999993408203,4|0,0:0|0:0,0:0:0:0:
196,172,70713,1,8,0:0:0:0:
256,80,70878,5,0,0:0:0:0:
256,80,70961,1,0,0:0:0:0:
256,80,71043,2,0,L|140:72,1,107.999996704102,2|0,0:0|0:0,0:0:0:0:
148,72,71373,1,8,0:0:0:0:
260,264,71537,1,0,0:0:0:0:
72,240,71702,2,0,P|56:296|64:352,1,107.999996704102,2|0,0:0|0:0,0:0:0:0:
176,348,72032,5,8,0:0:0:0:
352,184,72197,1,0,0:0:0:0:
372,296,72362,2,0,P|432:300|480:268,1,107.999996704102,2|0,0:0|0:0,0:0:0:0:
472,276,72691,1,8,0:0:0:0:
284,80,72856,2,0,P|388:68|464:156,1,215.999993408203,2|0,0:0|0:0,0:0:0:0:
232,176,73351,2,0,P|188:144|172:88,1,107.999996704102,8|0,0:0|0:0,0:0:0:0:
84,52,73680,5,2,0:0:0:0:
84,52,73845,1,0,0:0:0:0:
32,240,74010,1,8,0:0:0:0:
32,240,74175,1,0,0:0:0:0:
116,308,74340,2,0,P|72:336|12:336,1,107.999996704102,2|0,0:0|0:0,0:0:0:0:
88,148,74669,2,0,P|132:120|192:120,1,107.999996704102,8|0,0:0|0:0,0:0:0:0:
352,360,74999,2,0,B|320:344|320:344|336:320|336:320|268:288|288:168,1,215.999993408203,2|8,0:0|0:0,0:0:0:0:
300,96,75494,1,0,0:0:0:0:
392,40,75658,5,8,0:0:0:0:
392,40,75823,1,0,0:0:0:0:
216,160,75988,1,8,0:0:0:0:
216,160,76153,1,0,0:0:0:0:
372,184,76318,1,8,0:0:0:0:
372,184,76483,1,0,0:0:0:0:
232,20,76647,1,8,0:0:0:0:
232,20,76812,1,0,0:0:0:0:
116,88,76977,6,0,L|104:36,2,53.9999983520508,8|0|0,0:0|0:0|0:0,0:0:0:0:
40,212,77307,2,0,L|52:264,2,53.9999983520508,8|0|0,0:0|0:0|0:0,0:0:0:0:
12,108,77636,1,8,0:0:0:0:
144,192,77801,1,0,0:0:0:0:
12,108,77966,1,8,0:0:0:0:
144,192,78131,6,0,P|208:244|336:216,1,215.999993408203,4|0,0:0|0:0,0:0:0:0:
248,152,78625,1,0,0:0:0:0:
420,56,78790,1,0,0:0:0:0:
488,120,78955,2,0,P|416:144|332:84,1,180,2|8,0:0|0:0,0:0:0:0:
232,48,79450,1,0,0:0:0:0:
232,48,79532,1,0,0:0:0:0:
232,48,79614,1,2,0:0:0:0:
152,116,79779,2,0,P|112:132|52:124,1,90,0|8,0:0|0:0,0:0:0:0:
92,44,80109,1,0,0:0:0:0:
224,188,80274,2,0,P|212:260|268:352,1,180,2|8,0:0|0:0,0:0:0:0:
308,244,80768,1,0,0:0:0:0:
400,284,80933,6,0,L|492:272,1,90,2|0,0:0|0:0,0:0:0:0:
405,132,81263,2,0,L|316:144,1,90,8|0,0:0|0:0,0:0:0:0:
224,188,81592,2,0,P|208:144|216:96,1,90,2|0,0:0|0:0,0:0:0:0:
100,252,81922,2,0,P|116:296|108:344,1,90,8|0,0:0|0:0,0:0:0:0:
20,184,82252,2,0,P|104:152|188:184,1,180,2|8,0:0|0:0,0:0:0:0:
185,181,82746,1,0,0:0:0:0:
204,280,82911,5,2,0:0:0:0:
204,280,82994,1,0,0:0:0:0:
204,280,83076,1,0,0:0:0:0:
252,104,83241,1,8,0:0:0:0:
252,104,83323,1,0,0:0:0:0:
252,104,83406,1,0,0:0:0:0:
456,136,83570,2,0,P|472:104|468:48,2,90,2|0|8,0:0|0:0|0:0,0:0:0:0:
348,152,84065,1,0,0:0:0:0:
416,232,84230,6,0,P|408:276|420:324,1,90,2|0,0:0|0:0,0:0:0:0:
336,360,84559,1,8,0:0:0:0:
336,360,84724,1,0,0:0:0:0:
252,304,84889,2,0,B|176:284|176:284|144:292|144:292|68:276,1,180,2|8,0:0|0:0,0:0:0:0:
77,277,85384,1,0,0:0:0:0:
48,52,85548,1,2,0:0:0:0:
46,74,85630,1,0,0:0:0:0:
49,96,85712,1,0,0:0:0:0:
57,117,85795,1,0,0:0:0:0:
69,136,85877,1,8,0:0:0:0:
85,152,85960,1,0,0:0:0:0:
103,164,86042,1,0,0:0:0:0:
124,172,86124,1,0,0:0:0:0:
152,176,86208,6,0,L|252:172,1,90,6|0,0:0|0:0,0:0:0:0:
336,208,86537,1,8,0:0:0:0:
456,68,86702,1,0,0:0:0:0:
456,68,86785,1,0,0:0:0:0:
456,68,86867,1,2,0:0:0:0:
468,208,87032,1,0,0:0:0:0:
320,80,87197,1,8,0:0:0:0:
468,208,87362,1,8,0:0:0:0:
