osu file format v6

[General]
AudioFilename: Minami Kuribayashi - Unreal Paradise.mp3
AudioLeadIn: 0
PreviewTime: 15922
Countdown: 0
SampleSet: Soft
StackLeniency: 0.7
Mode: 0
LetterboxInBreaks: 1

[Editor]
Bookmarks: 14532
DistanceSpacing: 1.29999995231628
BeatDivisor: 4
GridSize: 8

[Metadata]
Title:Unreal Paradise
Artist:Kuribayashi Minami
Creator:kioukiou
Version:Normal
Source:Kampfer
Tags:Kampfer Kuribayashi Minami J-Pop Anime

[Difficulty]
HPDrainRate:5
CircleSize:4
OverallDifficulty:5
SliderMultiplier:1
SliderTickRate:2

[Events]
//Background and Video events
0,0,"102.jpg"
//Break Periods
2,80138,91472
//Storyboard Layer 0 (Background)
//Storyboard Layer 1 (Fail)
//Storyboard Layer 2 (Pass)
//Storyboard Layer 3 (Foreground)
//Storyboard Sound Samples
//Background Colour Transformations
3,100,163,162,255

[TimingPoints]
579,348.837209302326,4,2,1,80,1,0
16887,-100,4,2,2,65,0,0
17061,-100,4,2,1,80,0,0
17584,-100,4,2,2,65,0,0
17759,-100,4,2,1,80,0,0
27352,-100,4,2,2,65,0,0
27526,-100,4,2,1,80,0,0
28049,-100,4,2,2,65,0,0
28224,-100,4,2,1,80,0,0
29445,-100,4,2,2,65,0,0
29619,-100,4,2,1,80,0,0
30142,-100,4,2,2,65,0,0
30317,-100,4,2,1,80,0,0
65026,-100,4,2,2,65,0,0
65201,-100,4,2,1,80,0,0
93718,-100,4,1,1,45,0,0
94067,-100,4,2,1,80,0,0
95375,-100,4,1,1,45,0,0
95549,-100,4,2,1,80,0,0
96596,-100,4,1,1,45,0,0
96770,-100,4,2,1,80,0,0
98166,-100,4,1,1,45,0,0
98340,-100,4,2,1,80,0,0
99387,-100,4,1,1,45,0,0
99561,-100,4,2,1,80,0,0
100782,-100,4,1,1,45,0,0
100956,-100,4,2,1,80,0,0
101654,-100,4,1,1,45,0,0
101829,-100,4,2,1,80,0,0
102177,-100,4,1,1,45,0,0
102352,-100,4,2,1,80,0,0

[Colours]
Combo1 : 59,162,241
Combo2 : 211,18,107

[HitObjects]
256,192,14532,12,4,15927
104,72,16276,5,8
96,200,16625,2,0,C|184:240|296:200,2,200
200,120,18369,1,8
200,120,18718,2,0,C|200:48,2,50,0|0|8
328,128,19416,1,0
328,128,19765,2,0,C|328:200,2,50,8|0|0
456,128,20462,1,8
456,128,20811,2,0,C|456:56,2,50,0|8|8
384,232,21509,6,0,B|384:288|344:320,2,100,0|8|0
256,208,22555,2,0,B|256:152|296:120,2,100,8|0|8
160,296,23602,5,0
160,296,23776,1,0
160,296,23951,1,8
72,192,24299,1,0
160,96,24648,1,8
248,192,24997,2,0,B|336:272,2,100,0|8|0
352,112,26044,1,8
248,32,26392,2,0,B|184:32,2,50,0|8|8
248,160,27090,6,0,B|248:248|184:296|112:288,2,200,4|0|0
248,32,28834,1,8
248,160,29183,2,0,B|248:248|312:296|384:288,2,200
352,88,30927,1,8
464,152,31276,1,0
352,216,31625,1,8
464,280,31974,1,0
464,280,32148,1,8
464,280,32323,1,8
352,352,32672,5,4
224,352,33020,2,0,B|152:352,2,50,8|0|0
352,280,33718,2,0,B|408:280|448:240,2,100,8|0|8
288,280,34590,1,0
168,224,34939,6,0,B|168:280,2,50,8|8|4
264,152,35637,6,0,B|264:224,2,50,8|8|4
376,88,36334,6,0,B|376:144,2,50,0|8|0
264,24,37032,1,0
264,24,37206,1,8
168,112,37555,6,0,B|104:144|104:256|176:280,1,200
264,192,38602,1,0
360,280,38951,2,0,B|424:248|424:136|352:112,2,200,2|0|2
168,280,40869,5,4
104,168,41218,2,0,B|56:120,2,50
168,168,41741,2,0,B|288:168,2,100,2|0|4
168,40,42788,1,0
168,40,42962,2,0,B|64:40,2,100,4|0|4
360,40,44183,5,8
456,128,44532,1,0
360,216,44881,1,8
264,128,45230,2,0,B|208:128,2,50,0|0|8
168,216,45927,5,0
264,304,46276,1,8
360,216,46625,2,0,B|472:216,2,100,0|8|0
264,128,47672,1,8
144,80,48020,6,0,B|80:64|8:160|56:240,1,200
176,192,49067,1,2
176,192,49241,1,2
304,192,49590,1,2
304,192,49765,1,2
240,80,50113,2,0,B|280:40|352:56,2,100,0|0|2
240,144,50985,2,0,B|240:200,2,50,2|2|2
240,16,51683,1,2
240,16,51858,1,2
256,192,52206,12,4,53427
184,160,53776,5,0
120,160,53951,2,0,B|64:136|40:88,2,100,8|0|8
184,160,54823,1,0
248,160,54997,2,0,B|304:184|328:232,2,100,0|8|0
184,272,56044,6,0,B|232:328|320:328|360:264,2,200,8|8|8
272,176,57788,1,0
352,72,58137,2,0,B|304:16|216:16|176:80,2,200,8|8|8
344,200,59881,6,0,B|344:312,2,100,0|8|0
280,176,60753,1,0
216,152,60927,2,0,B|216:48,2,100,8|0|8
160,192,61799,6,0,B|56:192,2,100,2|0|0
216,232,62672,1,2
336,272,63020,2,0,B|448:272,2,100,2|0|2
280,232,63892,1,2
280,104,64241,5,0
216,88,64416,1,0
152,104,64590,2,0,B|96:104|56:128|24:184|16:240|56:304,1,250,4|0
176,280,65811,2,0,B|280:280,2,100,8|0|8
176,152,66858,2,0,B|72:152,2,100,0|8|0
304,120,67904,5,8
360,96,68078,1,0
416,120,68253,1,0
368,240,68602,2,0,B|408:288|360:344,2,100,8|0|8
320,288,69474,2,0,B|208:288,1,100
128,191,70172,6,4,B|116:130|62:145|17:194|28:255|74:354|74:354|175:336|240:317|256:264|238:208|172:226,1,550,4|0
232,104,72439,5,2
232,104,72613,1,2
256,192,72962,12,4,74532
256,96,74881,5,0
168,192,75230,1,0
256,280,75579,1,0
352,192,75927,6,0,B|408:264|344:336,2,150,4|0|0
288,192,77148,2,0,B|232:120|296:48,2,150,4|0|0
352,192,78369,1,0
416,192,78544,1,4
224,192,79067,5,0
224,192,79241,2,0,B|104:192,2,100,4|0|4
104,184,92672,6,0,B|72:136|120:80,2,100,4|0|0
160,144,93544,1,0
280,96,93892,1,0
400,144,94241,1,0
400,144,94416,1,0
280,296,94939,6,0,B|280:352,2,50
312,240,95462,2,0,B|344:176|304:136,2,100
184,240,96509,1,0
184,240,96683,1,0
128,80,98253,6,0,B|48:160,2,100,4|0|0
192,80,99125,2,0,B|312:80,2,100
192,144,99997,1,0
72,296,100520,5,0
128,320,100695,1,0
184,296,100869,1,4
312,296,101218,1,0
368,320,101392,1,0
424,296,101567,1,0
368,256,101741,2,0,B|368:144,1,100,4|0
304,128,102265,2,0,B|304:232,1,100,4|0
176,192,102962,5,0
176,192,103137,1,0
176,192,103311,1,0
176,192,103485,1,0
112,80,103834,6,0,B|56:56|8:88,2,100,0|8|0
176,80,104706,1,0
240,80,104881,2,0,B|296:56|344:88,2,100,8|0|8
176,192,105927,6,0,B|96:272,1,100,0|8
232,256,106625,2,0,B|160:328,1,100,0|8
288,320,107323,2,0,B|360:248,1,100,0|8
232,256,108020,2,0,B|304:184,1,100,0|8
416,120,108718,1,0
416,120,108892,1,8
416,120,109067,1,8
288,80,109416,6,0,B|240:48|184:88,2,100,4|8|0
200,176,110462,2,0,B|248:208|304:168,2,100,8|0|8
136,176,111334,1,0
136,304,111683,5,0
192,280,111858,1,8
248,304,112032,1,4
376,304,112381,5,0
432,328,112555,1,8
488,304,112730,1,4
432,184,113079,5,0
368,160,113253,1,0
304,184,113427,1,4
176,184,113776,1,2
176,184,113951,1,2
96,80,114299,6,0,B|32:112|32:232|104:256,2,200,0|0|2
192,248,116218,6,0,B|256:216|256:96|184:72,2,200,0|0|4
96,336,117962,5,0
160,352,118137,1,0
224,336,118311,1,0
288,352,118485,2,0,B|408:352,2,100,2|0|4
224,240,119532,1,0
224,240,119706,2,0,B|112:240,2,100,4|0|4
56,144,120927,5,2
136,40,121276,1,2
248,112,121625,2,0,B|312:128|328:192,2,100,2|2|2
120,184,122672,1,2
120,312,123020,1,2
120,312,123195,2,0,B|200:176|328:376|448:280,1,350,4|8
360,192,124765,5,0
256,112,125113,1,8
152,192,125462,1,0
256,272,125811,1,8
256,272,125985,1,0
144,344,126334,5,0
144,344,126509,2,0,B|88:320|32:352,2,100,8|0|8
272,344,127555,5,0
400,344,127904,2,0,B|448:320|504:352,2,100,8|0|8
312,248,128951,6,0,B|192:128,2,150,0|4|0
256,192,130346,12,4,131567
256,128,131916,5,0
192,128,132090,2,0,B|136:128|88:72,2,100,8|0|8
256,128,132962,1,0
320,128,133137,2,0,B|376:128|424:184,2,100,0|8|0
208,200,134183,6,0,B|168:264|64:264|40:184,2,200,8|8|8
256,80,135927,1,0
304,200,136276,2,0,B|344:264|448:264|472:184,2,200,8|8|8
224,96,138020,5,0
104,40,138369,1,8
32,152,138718,1,0
144,216,139067,1,8
144,216,139241,2,0,B|160:280|232:288,2,100,0|0|4
144,88,140288,5,0
200,64,140462,1,8
256,88,140637,1,0
312,56,140811,2,0,B|424:56,2,100,0|8|0
312,120,141683,2,0,B|312:192,2,50,0|8|0
184,120,142381,6,0,B|184:64,2,50,0|0|4
96,216,143079,1,0
96,216,143253,1,8
184,312,143602,1,0
272,216,143951,1,8
360,120,144299,1,0
448,216,144648,1,8
360,312,144997,2,0,B|360:368,2,50,0|0|8
296,312,145520,6,0,B|224:336|144:312,1,150,0|8
40,240,146392,2,0,B|-8:200|16:144,2,100,0|8|0
168,240,147439,1,8
168,240,147613,2,0,B|280:240,1,100
392,192,148311,6,4,B|404:131|458:146|503:195|492:256|446:355|446:355|345:337|280:318|264:265|282:209|348:227,1,550,4|0
288,104,150579,5,2
288,104,150753,1,2
256,192,151102,12,4,152672
256,280,153020,5,0
352,192,153369,1,0
256,104,153718,1,0
160,192,154067,6,0,L|56:192|24:136,2,150,4|0|0
224,192,155288,2,0,L|328:192|360:248,2,150,4|0|0
224,256,156509,1,0
224,320,156683,1,4
224,128,157206,5,0
224,128,157381,2,0,L|224:24,2,100,4|0|4
