osu file format v14

[General]
AudioFilename: Kuribayashi Minami Unreal Paradise.mp3
AudioLeadIn: 0
PreviewTime: 51997
Countdown: 0
SampleSet: None
StackLeniency: 0.7
Mode: 0
LetterboxInBreaks: 1
WidescreenStoryboard: 1

[Editor]
Bookmarks: 3160,15718,26881,29323,40137,41532
DistanceSpacing: 0.9
BeatDivisor: 4
GridSize: 8
TimelineZoom: 1

[Metadata]
Title:Unreal Paradise (TV Size)
TitleUnicode:Unreal Paradise (TV Size)
Artist:Kuribayashi Minami
ArtistUnicode:Kuribayashi Minami
Creator:Shana-nyan
Version:Normal
Source:Kampfer
Tags:Leslie -
BeatmapID:684640
BeatmapSetID:305769

[Difficulty]
HPDrainRate:4
CircleSize:3
OverallDifficulty:3
ApproachRate:5
SliderMultiplier:0.8
SliderTickRate:1

[Events]
//Background and Video events
0,0,"kampfer.jpg",0,0
//Break Periods
2,38069,42251
//Storyboard Layer 0 (Background)
//Storyboard Layer 1 (Fail)
//Storyboard Layer 2 (Pass)
//Storyboard Layer 3 (Foreground)
//Storyboard Sound Samples

[TimingPoints]
370,348.837209302326,4,1,1,50,1,0
3160,-100,4,1,1,50,0,0
15718,-100,4,2,2,50,0,0
16590,-100,4,2,4,50,0,0
16939,-100,4,2,2,50,0,0
26881,-100,4,2,1,50,0,0
43451,-100,4,2,5,50,0,0
43800,-100,4,2,4,50,0,0
44149,-100,4,2,2,50,0,0
45195,-100,4,2,4,50,0,0
45544,-100,4,2,2,50,0,0
51997,-100,4,2,1,50,0,0
53218,-100,4,1,1,50,0,1
75718,-100,4,2,2,50,0,0
76678,-100,4,2,1,50,0,0

[Colours]
Combo1 : 192,192,192
Combo2 : 0,128,255
Combo3 : 0,255,255
Combo4 : 0,128,192
Combo5 : 0,204,204

[HitObjects]
96,192,15718,6,0,L|96:288,1,80,2|8,0:0|0:0,0:0:0:0:
160,304,16416,2,0,L|336:304,1,160,2|2,0:0|0:0,0:0:0:0:
360,240,17463,1,8,0:0:0:0:
384,168,17811,1,2,0:0:0:0:
376,96,18160,1,8,0:0:0:0:
320,56,18509,2,0,B|232:56|232:56|184:192|184:192|88:192,1,320,2|2,0:0|0:0,0:0:0:0:
200,288,20602,6,0,P|256:328|336:296,1,160,2|6,0:0|0:0,0:0:0:0:
264,224,21649,1,8,0:0:0:0:
392,160,22346,1,8,0:0:0:0:
392,16,23044,1,8,0:0:0:0:
320,16,23393,2,0,L|256:16|224:16,2,80,2|8|2,0:0|0:0|0:0,0:0:0:0:
320,160,24788,2,0,B|320:328|320:328|152:328,1,320,2|2,0:0|0:0,0:0:0:0:
168,256,26532,1,0,0:0:0:0:
168,184,26881,5,6,0:0:0:0:
168,112,27230,2,0,B|168:32|168:32|256:32,1,160,8|8,0:0|0:0,0:0:0:0:
248,176,28625,2,0,L|248:352,1,160,8|8,0:0|0:0,0:0:0:0:
320,336,29672,1,2,0:0:0:0:
392,336,30021,1,8,0:0:0:0:
392,264,30370,1,2,0:0:0:0:
392,192,30718,2,0,P|424:144|384:48,1,160,8|8,0:0|0:0,0:0:0:0:
320,56,31765,6,0,L|152:56,1,160,2|6,0:0|0:0,0:0:0:0:
160,128,32811,1,8,0:0:0:0:
160,272,33509,1,8,0:0:0:0:
304,272,34207,1,8,0:0:0:0:
304,96,35079,5,4,0:0:0:0:
448,96,35776,1,4,0:0:0:0:
448,240,36474,2,0,P|416:280|160:288,1,320,4|4,0:0|0:0,0:0:0:0:
96,264,43451,6,0,P|80:208|160:96,1,200,4|2,0:0|0:0,0:0:0:0:
264,192,45021,2,0,L|440:192,1,160,2|2,0:0|0:0,0:0:0:0:
416,296,46242,5,4,0:0:0:0:
272,304,46939,2,0,B|144:304|144:304|144:216,1,200,4|2,0:0|0:0,0:0:0:0:
280,192,48509,2,0,L|448:192,2,160,2|6|2,0:0|0:0|0:0,0:0:0:0:
152,256,50602,2,0,L|32:256,1,120,6|4,0:0|0:0,0:0:0:0:
40,184,51474,2,0,L|40:128,3,40,0|8|0|8,0:0|0:0|0:0|0:0,0:0:0:0:
288,192,53218,6,0,L|408:192,1,120,4|8,0:0|0:0,0:0:0:0:
416,264,54090,2,0,L|336:264,1,80,2|8,0:0|0:0,0:0:0:0:
280,312,54788,1,2,0:0:0:0:
208,312,55137,1,8,0:0:0:0:
136,312,55486,1,2,0:0:0:0:
136,168,56183,2,0,B|136:72|136:72|208:32,1,160,2|2,0:0|0:0,0:0:0:0:
264,32,57230,6,0,L|432:32,1,160,8|8,0:0|0:0,0:0:0:0:
432,104,58276,1,2,0:0:0:0:
432,176,58625,1,8,0:0:0:0:
384,232,58974,2,0,P|336:280|176:248,1,240,2|8,0:0|0:0,0:0:0:0:
176,184,60370,1,2,0:0:0:0:
176,112,60718,1,8,0:0:0:0:
248,112,61067,1,2,0:0:0:0:
352,120,61590,6,0,B|416:120|416:120|416:192|416:192|368:240,1,200,4|2,0:0|0:0,0:0:0:0:
264,264,62986,2,0,L|176:264,2,80,4|4|4,0:0|0:0|0:0,0:0:0:0:
392,192,64381,6,0,L|392:64,1,120,4|8,0:0|0:0,0:0:0:0:
320,72,65253,2,0,L|224:72,1,80,2|8,0:0|0:0,0:0:0:0:
232,144,65951,2,0,P|128:176|104:224,1,160,2|10,0:0|0:0,0:0:0:0:
104,288,66997,1,8,0:0:0:0:
248,288,67695,2,0,L|416:288,1,160,8|8,0:0|0:0,0:0:0:0:
408,216,68742,2,0,L|408:128,2,80,2|8|2,0:0|0:0|0:0,0:0:0:0:
296,216,69963,6,8,L|160:216,1,120,14|8,0:0|0:0,0:0:0:0:
136,152,70835,2,0,B|135:66|135:66|208:32,1,160,2|2,0:0|0:0,0:0:0:0:
272,40,71881,1,8,0:0:0:0:
344,40,72230,1,2,0:0:0:0:
256,192,72753,12,4,74323,0:0:0:0:
256,192,75718,6,0,L|256:360,1,160,6|2,0:0|0:0,0:0:0:0:
184,344,76765,2,0,L|96:344,2,80,8|2|8,0:0|0:0|0:0,0:0:0:0:
184,272,77811,1,2,0:0:0:0:
184,160,78335,1,4,0:0:0:0:
256,80,78858,2,0,L|424:80,1,160,8|8,0:0|0:0,0:0:0:0:
256,192,79730,12,4,81300,0:0:0:0:
