osu file format v9

[General]
AudioFilename: Tsubasa wa Pleasure Line.mp3
AudioLeadIn: 0
PreviewTime: 58442
Countdown: 0
SampleSet: Soft
StackLeniency: 0.7
Mode: 0
LetterboxInBreaks: 0

[Editor]
DistanceSpacing: 1
BeatDivisor: 4
GridSize: 4

[Metadata]
Title:Tsubasa wa Pleasure Line
Artist:Kuribayashi Minami
Creator:Suzully
Version:Normal
Source:Chrno Crusade
Tags:KSHR

[Difficulty]
HPDrainRate:2
CircleSize:3
OverallDifficulty:2
ApproachRate:3
SliderMultiplier:0.999999999999999
SliderTickRate:2

[Events]
//Background and Video events
0,0,"chrnocrusade.jpg"
//Break Periods
2,83499,89859
2,163132,177859
//Storyboard Layer 0 (Background)
//Storyboard Layer 1 (Fail)
//Storyboard Layer 2 (Pass)
//Storyboard Layer 3 (Foreground)
//Storyboard Sound Samples
//Background Colour Transformations
3,100,163,162,255

[TimingPoints]
633,333.333333333333,4,2,1,95,1,0
24549,-100,4,2,1,85,0,0
44716,-100,4,1,0,50,0,0
46049,-100,4,2,1,90,0,0
56549,-100,4,1,0,50,0,0
56882,-100,4,1,0,60,0,0
57216,-100,4,1,0,70,0,0
57549,-100,4,1,0,80,0,0
57882,-100,4,1,0,90,0,0
58216,-100,4,2,1,100,0,0
59299,-100,4,2,1,100,0,1
78882,-100,4,1,0,60,0,1
79299,-100,4,1,0,60,0,0
80633,-100,4,2,1,5,0,0
91216,-100,4,1,0,60,0,0
93882,-100,4,2,1,85,0,0
111382,-100,4,1,0,60,0,0
112882,-100,4,2,1,90,0,0
123216,-100,4,1,0,50,0,0
123549,-100,4,1,0,60,0,0
123882,-100,4,1,0,70,0,0
124216,-100,4,1,0,80,0,0
124549,-100,4,1,0,90,0,0
124882,-100,4,2,1,100,0,0
125966,-100,4,2,1,100,0,1
145549,-100,4,1,0,60,0,1
145966,-100,4,1,0,60,0,0
147216,-100,4,2,1,85,0,0
189966,-100,4,2,1,100,0,1
205966,-100,4,2,1,85,0,0
207299,-100,4,1,0,5,0,0
207632,-100,4,1,0,60,0,0
208632,-100,4,2,1,85,0,0
209966,-100,4,2,1,100,0,1
227216,-100,4,1,0,45,0,1
227549,-100,4,1,0,60,0,1
227882,-100,4,1,0,75,0,1
228216,-100,4,1,0,90,0,1
228549,-100,4,2,1,100,0,1
228632,-100,4,2,1,5,0,0
228966,-100,4,2,1,100,0,1
247882,-100,4,1,0,60,0,1
248632,-100,4,1,0,60,0,0
249966,-100,4,2,1,5,0,0

[Colours]
Combo1 : 255,166,255
Combo2 : 83,169,255
Combo3 : 142,255,171
Combo4 : 255,179,142

[HitObjects]
128,244,13299,1,0
228,260,13633,1,0
328,240,13966,2,0,B|448:208|424:72,2,200,4|0|0
256,168,15633,1,8
160,168,15966,2,0,B|48:168,1,99.9999999999999,0|8
104,256,16633,6,0,B|304:256,2,200
24,192,18299,1,8
24,88,18633,2,0,B|56:40|128:40,1,99.9999999999999,0|8
120,144,19299,6,0,B|184:232|312:216,2,200
184,64,20966,1,8
232,64,21132,2,0,B|348:64,1,99.9999999999999,0|0
256,192,21799,12,4,23966
320,100,24632,6,0,B|416:100|452:180,2,150,4|0|8
228,136,25966,2,0,B|140:136|104:56,2,150,0|0|8
308,192,27299,6,0,B|364:256|324:336,1,150
176,332,28299,1,8
76,332,28632,2,0,B|16:264|68:176,1,150
176,96,29632,1,8
276,96,29966,6,0,B|376:96,1,99.9999999999999,0|8
328,184,30632,2,0,B|448:184,1,99.9999999999999,0|8
380,272,31299,2,0,B|496:272,2,99.9999999999999,0|8|0
280,272,32299,1,8
192,220,32632,6,0,B|116:280|164:364,2,150,0|0|8
228,184,33799,2,0,B|236:88|136:68,1,150,0|8
68,128,34632,2,0,B|68:236,1,99.9999999999999,0|8
68,328,35299,6,0,B|136:384|216:344,2,150,4|0|8
148,268,36632,2,0,B|212:216|292:256,2,150,0|0|8
220,336,37966,6,0,B|288:384|376:336,1,150,0|0
464,232,38966,1,8
464,132,39299,2,0,B|396:84|308:132,1,150
172,136,40299,1,8
96,200,40633,6,0,B|36:280,1,99.9999999999999,0|8
136,280,41299,2,0,B|76:360,1,99.9999999999999,0|8
176,360,41966,2,0,B|236:280,2,99.9999999999999,0|8|0
276,364,42966,1,8
376,364,43299,6,0,B|376:260,1,99.9999999999999,0|8
460,320,43966,2,0,B|460:212,1,99.9999999999999,0|8
460,168,44466,2,0,B|460:68|348:68,1,150
272,68,45299,1,0
272,68,45466,2,0,B|272:128|208:152,1,99.9999999999999
76,192,46299,5,4
76,292,46633,2,0,B|100:352|172:344,2,99.9999999999999,0|8|0
164,248,47633,2,0,B|228:160|352:200,1,200,8|8
344,296,48633,6,0,B|408:364|496:316,2,150,0|0|8
292,296,49799,2,0,B|228:228|140:276,1,150,0|8
72,324,50633,2,0,B|24:288|44:224,1,99.9999999999999,0|8
132,196,51299,6,0,B|188:84|88:20,2,200
100,292,52966,1,8
188,340,53299,2,0,B|264:372|340:340,1,150,0|4
472,192,54466,1,4
336,44,55133,1,4
204,192,55799,2,0,B|44:192,1,150,4|8
52,92,56633,5,0
152,92,56966,1,0
252,92,57299,2,0,B|368:92,2,99.9999999999999
200,92,58133,1,0
152,276,59299,6,0,B|84:184|156:88,2,200,4|0|0
248,252,60966,2,0,B|268:196|332:200,2,99.9999999999999,8|0|8
320,320,61966,6,0,B|448:320|476:200,1,200
472,116,62966,1,8
384,72,63299,2,0,B|284:120|184:68,1,200
104,120,64299,1,8
168,196,64633,6,0,B|372:196,2,200
96,268,66299,1,8
180,324,66633,2,0,B|232:304|280:324,1,99.9999999999999,0|8
376,348,67299,6,0,B|432:320|424:260,1,99.9999999999999,4|8
408,220,67799,2,0,B|348:224|304:176,1,99.9999999999999,4|4
224,224,68466,2,0,B|164:164|68:200,1,150,4|8
24,116,69299,1,0
104,56,69633,1,8
192,100,69966,6,0,B|264:188|392:144,2,200,4|0|0
276,44,71633,1,8
376,32,71966,2,0,B|436:32|468:80,1,99.9999999999999,0|8
472,172,72633,6,0,B|472:288|344:312,1,200
252,312,73633,1,8
180,244,73966,2,0,B|60:256|40:372,2,200,4|4|4
252,312,75633,5,8
340,264,75966,2,0,B|312:216|340:168,1,99.9999999999999,0|8
344,120,76466,2,0,B|192:120,1,150,4|8
116,184,77299,2,0,B|140:236|112:284,1,99.9999999999999,0|8
112,332,77799,2,0,B|276:332,1,150,4|8
364,332,78632,2,0,B|464:332,2,99.9999999999999,0|0|4
256,192,80632,12,0,83299
256,192,91299,5,4
80,84,92799,2,0,B|80:248,1,150
80,336,93632,1,0
180,336,93966,6,0,B|208:252|304:252,2,150,4|0|8
280,348,95299,2,0,B|368:368|420:300,2,150,0|0|8
316,256,96632,6,0,B|296:208|320:152,1,99.9999999999999,0|8
408,200,97299,2,0,B|456:220|508:200,1,99.9999999999999,0|8
460,112,97966,2,0,B|488:56|452:4,2,99.9999999999999,0|8|0
408,200,98966,1,8
320,152,99299,6,0,B|280:80|188:88,2,150,0|0|8
320,204,100466,2,0,B|320:360,1,150,0|8
220,356,101299,2,0,B|220:236,1,99.9999999999999,0|8
220,156,101966,6,0,B|220:72|308:48,2,150,4|0|8
128,196,103299,2,0,B|64:136|104:44,2,150,0|0|8
212,252,104632,6,0,B|276:200|360:244,1,150
492,296,105632,1,8
408,352,105966,2,0,B|344:404|260:360,1,150
128,312,106966,1,8
92,220,107299,6,0,B|112:164|84:112,1,99.9999999999999,0|8
172,68,107966,2,0,B|224:88|280:64,1,99.9999999999999,0|8
272,168,108632,2,0,B|320:148|372:168,2,99.9999999999999,0|8|0
192,232,109632,1,8
272,292,109966,6,0,B|324:368|420:336,2,150,0|0|8
272,240,111132,2,0,B|272:72,1,150
372,88,111966,1,0
372,88,112132,2,0,B|372:196,1,99.9999999999999
372,336,112966,5,4
280,300,113299,2,0,B|224:292|188:332,2,99.9999999999999,0|8|0
372,336,114299,2,0,B|468:260|416:152,1,200,8|8
324,124,115299,6,0,B|336:32|436:32,2,150,0|0|8
324,176,116466,2,0,B|264:240|184:208,1,150,0|8
108,148,117299,2,0,B|52:152|32:212,1,99.9999999999999,0|8
112,268,117966,6,0,B|136:380|272:372,2,200
140,172,119632,1,8
192,84,119966,2,0,B|244:24|336:52,1,150,0|4
496,164,121132,1,4
384,328,121799,1,4
220,216,122466,2,0,B|136:216|96:292,1,150,4|8
188,332,123299,5,0
288,352,123632,1,0
388,332,123966,2,0,B|412:280|384:232,2,99.9999999999999
336,332,124799,1,0
64,100,125966,6,0,B|148:36|260:84,1,200,4|0
336,140,126966,1,8
252,192,127299,2,0,B|208:232|240:304,2,99.9999999999999,0|8|0
336,140,128299,1,8
404,68,128632,6,0,B|504:128|484:244,2,200
336,140,130299,1,8
368,236,130632,2,0,B|368:300|312:320,1,99.9999999999999,0|8
264,236,131299,6,0,B|156:176|208:64,1,200
108,68,132299,1,8
28,128,132632,2,0,B|124:188|80:308,1,200
172,348,133632,1,8
272,348,133966,6,0,B|392:348,1,99.9999999999999,4|0
424,348,134466,2,0,B|452:296|416:240,1,99.9999999999999,4|4
392,156,135132,2,0,B|320:200|248:156,1,150,4|8
152,128,135966,2,0,B|176:80|152:32,1,99.9999999999999,0|8
64,84,136632,6,0,B|280:84,1,200,4|0
364,84,137632,1,8
444,140,137966,2,0,B|496:232|440:332,1,200
352,280,138966,1,8
268,336,139299,6,0,B|160:336,1,99.9999999999999,0|8
108,256,139966,2,0,B|212:256,1,99.9999999999999,0|8
308,256,140632,2,0,B|420:204|380:80,2,200,4|4|4
208,272,142299,5,8
108,256,142632,2,0,B|84:200|112:152,1,99.9999999999999,0|8
112,108,143132,2,0,B|280:108,1,150,4|8
364,108,143966,2,0,B|388:164|360:212,1,99.9999999999999,0|8
360,256,144466,2,0,B|192:256,1,150,4|8
108,256,145299,2,0,B|8:256,2,99.9999999999999,0|0|4
368,320,147299,6,0,B|480:272|444:152,2,200,4|8|2
256,152,149299,1,8
144,320,149966,6,0,B|32:272|68:152,1,200,2|8
256,92,151299,1,8
256,92,151466,2,0,B|404:92,1,150,4|8
456,92,152132,2,0,B|492:176|448:248,1,150,4|8
284,340,153299,6,0,B|248:256|292:184,1,150,8|0
332,108,154132,2,0,B|256:68|184:108,1,150,8|8
64,264,155299,6,0,B|144:264|184:352,1,150,2|0
332,344,156299,2,0,B|368:263|448:263,1,150,2|0
448,112,157299,6,0,B|328:112,1,99.9999999999999,2|0
248,108,157966,2,0,B|248:224|128:248,1,200,2|4
312,336,159299,5,0
464,204,159966,1,2
312,76,160633,2,0,B|216:40|108:80,1,200,2|2
108,276,161966,2,0,B|188:312,3,66.6666666666666,2|0|0|4
116,56,179299,6,0,B|-40:56|-40:332|124:332,1,400,2|0
256,192,181299,1,0
396,56,181966,2,0,B|552:56|552:332|388:332,1,400,2|0
256,192,183966,1,0
68,120,184633,6,0,B|12:132|-8:192|12:256|68:268,2,200,2|0|0
256,192,186633,1,0
256,192,187299,12,4,189133
112,96,189966,6,0,B|208:44|316:104,1,200,4|0
384,160,190966,1,8
288,192,191299,2,0,B|244:316|360:372,1,200
420,296,192299,1,8
472,208,192633,6,0,B|508:88|408:28,2,200
420,296,194299,1,8
328,256,194633,2,0,B|276:232|224:260,1,99.9999999999999,0|8
160,324,195299,6,0,B|60:264|100:144,2,200
232,256,196966,1,8
312,196,197299,2,0,B|364:168|424:200,1,99.9999999999999,0|8
464,276,197966,6,0,B|412:304|352:272,1,99.9999999999999,0|8
268,276,198633,2,0,B|212:244|156:288,1,99.9999999999999,0|8
124,276,199133,2,0,B|124:108,1,150,0|8
124,76,199799,2,0,B|200:112|276:72,1,150,0|8
320,72,200466,6,0,B|444:168,1,150,4|8
344,192,201299,2,0,B|376:300,1,99.9999999999999,4|8
276,264,201966,2,0,B|264:364,1,99.9999999999999,4|8
184,304,202633,2,0,B|104:376,1,99.9999999999999,4|8
256,192,203133,12,4,205966
256,336,207299,6,0,B|256:224,1,99.9999999999999,0|4
256,84,208133,2,0,B|256:16,2,50
416,192,209966,6,0,B|416:308|288:340,1,200,4|0
212,288,210966,1,8
268,204,211299,2,0,B|280:80|160:56,1,200
72,92,212299,1,8
48,188,212633,6,0,B|124:276|52:372,2,200
72,92,214299,1,8
164,52,214633,2,0,B|212:76|276:48,1,99.9999999999999,0|8
360,52,215299,6,0,B|432:136,1,99.9999999999999,4|8
460,164,215799,2,0,B|464:224|420:252,1,99.9999999999999,4|4
328,212,216466,2,0,B|236:204|212:308,1,150,4|8
128,340,217299,2,0,B|76:316|76:256,1,99.9999999999999,0|8
32,172,217966,6,0,B|148:164|180:40,1,200,4|0
256,112,218966,1,8
335,53,219299,2,0,B|364:164|480:172,1,200
420,252,220299,1,8
440,352,220633,6,0,B|324:360|264:252,1,200
268,164,221633,1,8
212,80,221966,2,0,B|100:80|60:200,2,200,4|4|4
312,80,223633,5,8
248,156,223966,2,0,B|200:192|212:248,1,99.9999999999999,0|8
216,292,224466,2,0,B|304:280|360:352,1,150,4|8
440,300,225299,2,0,B|424:248|460:200,1,99.9999999999999,0|8
484,164,225799,6,0,B|412:120|424:36,1,150,4|8
324,60,226633,2,0,B|272:96|208:72,1,99.9999999999999,0|8
132,96,227299,5,0
68,172,227633,1,0
60,272,227966,1,0
124,348,228299,1,0
224,356,228633,2,0,B|324:356,1,99.9999999999999,0|4
460,148,229799,6,0,B|192:148,1,250
152,64,230966,1,8
88,152,231299,2,0,B|20:248|96:344,2,200
168,212,232966,1,8
244,276,233299,2,0,B|292:296|348:276,1,99.9999999999999,0|8
300,188,233966,6,0,B|296:64|408:40,1,200
488,100,234966,1,8
416,168,235299,2,0,B|360:264|424:368,1,200
316,360,236299,1,8
216,360,236633,6,0,B|236:308|212:256,1,99.9999999999999,4|8
212,212,237133,2,0,B|156:232|104:208,1,99.9999999999999,4|4
168,128,237799,2,0,B|244:92|324:136,1,150,4|8
404,172,238633,2,0,B|432:224|400:280,1,99.9999999999999,0|8
312,232,239299,6,0,B|208:188|108:236,1,200,4|0
68,320,240299,1,8
168,320,240633,2,0,B|272:364|372:316,1,200
312,232,241633,1,8
412,232,241966,6,0,B|480:136|408:48,1,200
328,108,242966,1,8
232,80,243299,2,0,B|156:172|40:104,2,200,4|4|4
328,108,244966,5,8
392,188,245299,2,0,B|420:240|388:296,1,99.9999999999999,0|8
344,284,245799,2,0,B|184:284,1,150,4|8
128,208,246633,2,0,B|148:160|128:104,1,99.9999999999999,0|8
180,108,247133,2,0,B|344:108,1,150,4|8
384,192,247966,2,0,B|492:192,2,99.9999999999999,0|0|4
256,192,249966,12,0,253799
