osu file format v9

[General]
AudioFilename: Tsubasa wa Pleasure Line.mp3
AudioLeadIn: 0
PreviewTime: 58442
Countdown: 0
SampleSet: Soft
StackLeniency: 0.7
Mode: 0
LetterboxInBreaks: 0

[Editor]
Bookmarks: 13293,24293,34960,46627,58460,69127,83960,90960
DistanceSpacing: 0.8
BeatDivisor: 4
GridSize: 4

[Metadata]
Title:Tsubasa wa Pleasure Line
Artist:Kuribayashi Minami
Creator:Suzully
Version:KSHR
Source:Chrno Crusade
Tags:KSHR

[Difficulty]
HPDrainRate:5
CircleSize:4
OverallDifficulty:5
ApproachRate:7
SliderMultiplier:1.5
SliderTickRate:2

[Events]
//Background and Video events
0,0,"chrnocrusade.jpg"
//Break Periods
2,83499,90399
2,163132,178399
//Storyboard Layer 0 (Background)
//Storyboard Layer 1 (Fail)
//Storyboard Layer 2 (Pass)
//Storyboard Layer 3 (Foreground)
//Storyboard Sound Samples
//Background Colour Transformations
3,100,163,162,255

[TimingPoints]
633,333.333333333333,4,2,1,70,1,0
13882,-100,4,2,1,80,0,0
24549,-133.333333333333,4,2,1,65,0,0
44716,-133.333333333333,4,1,0,55,0,0
44966,-133.333333333333,4,2,1,85,0,0
45216,-133.333333333333,4,1,0,55,0,0
45466,-133.333333333333,4,2,1,85,0,0
45716,-133.333333333333,4,1,0,85,0,0
46132,-133.333333333333,4,2,1,70,0,0
46549,-133.333333333333,4,2,1,80,0,0
53716,-100,4,2,1,85,0,0
55049,-100,4,2,1,95,0,0
56466,-100,4,1,0,45,0,0
56882,-100,4,1,0,55,0,0
57216,-100,4,1,0,65,0,0
57549,-100,4,1,0,75,0,0
57882,-100,4,2,1,85,0,0
58049,-100,4,1,0,70,0,0
59299,-100,4,2,1,85,0,1
79299,-100,4,2,0,85,0,0
80632,-100,4,2,0,5,0,0
83382,-133.333333333333,4,2,0,85,0,0
91132,-133.333333333333,4,1,0,70,0,0
92966,-133.333333333333,4,2,1,70,0,0
93216,-133.333333333333,4,1,0,70,0,0
93466,-133.333333333333,4,2,1,70,0,0
93549,-133.333333333333,4,1,0,70,0,0
93799,-133.333333333333,4,2,1,70,0,0
93882,-133.333333333333,4,2,1,65,0,0
111382,-133.333333333333,4,1,0,55,0,0
111632,-133.333333333333,4,2,1,85,0,0
111882,-133.333333333333,4,1,0,55,0,0
112132,-133.333333333333,4,2,1,85,0,0
112382,-133.333333333333,4,1,0,85,0,0
112882,-133.333333333333,4,2,0,70,0,0
113216,-133.333333333333,4,2,1,80,0,0
120382,-100,4,2,1,85,0,0
121716,-100,4,2,1,95,0,0
123216,-100,4,1,0,45,0,0
123549,-100,4,1,0,55,0,0
123882,-100,4,1,0,65,0,0
124216,-100,4,1,0,75,0,0
124549,-100,4,2,1,85,0,0
124716,-100,4,1,0,70,0,0
125966,-100,4,2,1,85,0,1
145966,-100,4,2,0,85,0,0
147216,-133.333333333333,4,1,0,75,0,0
147882,-133.333333333333,4,2,1,70,0,0
151466,-133.333333333333,4,1,0,60,0,0
151882,-133.333333333333,4,2,1,75,0,0
152132,-133.333333333333,4,1,0,60,0,0
152632,-133.333333333333,4,2,1,75,0,0
160549,-133.333333333333,4,2,1,80,0,0
162549,-133.333333333333,4,1,0,60,0,0
179216,-200,4,2,0,55,0,0
186549,-133.333333333333,4,2,0,85,0,0
187799,-133.333333333333,4,2,0,5,0,0
188132,-133.333333333333,4,2,0,85,0,0
188299,-133.333333333333,4,2,0,5,0,0
188632,-133.333333333333,4,2,0,85,0,0
188799,-133.333333333333,4,2,0,5,0,0
189132,-133.333333333333,4,2,0,85,0,0
189299,-133.333333333333,4,2,0,5,0,0
189549,-133.333333333333,4,2,1,85,0,0
189966,-100,4,2,1,85,0,1
205966,-100,4,2,0,85,0,0
207299,-100,4,2,0,5,0,0
207632,-100,4,2,0,85,0,0
209132,-100,4,1,0,70,0,0
209216,-100,4,2,0,85,0,0
209299,-100,4,1,0,70,0,0
209549,-100,4,2,0,85,0,0
209632,-100,4,1,0,70,0,0
209966,-100,4,2,1,85,0,1
227466,-100,4,1,0,40,0,1
227549,-100,4,1,0,50,0,1
227716,-100,4,1,0,60,0,1
227882,-100,4,1,0,70,0,1
228132,-100,4,1,0,80,0,1
228299,-100,4,1,0,90,0,1
228632,-100,4,2,0,5,0,0
228966,-100,4,2,1,85,0,1
248632,-100,4,2,0,85,0,0
249966,-100,4,2,0,5,0,0

[Colours]
Combo1 : 255,166,255
Combo2 : 83,169,255
Combo3 : 142,255,171
Combo4 : 255,179,142

[HitObjects]
424,80,13299,2,0,B|440:120|424:152,1,75,0|0
496,216,13633,2,0,B|472:248|424:248,1,75,0|0
344,208,13966,6,0,B|260:184|208:248,1,150,4|8
112,224,14466,1,0
136,320,14633,2,0,B|160:352|208:352,2,75,0|0|8
40,296,15133,2,0,B|104:248|88:160,1,150
24,88,15633,1,8
128,72,15799,2,0,B|152:112|200:112,2,75
208,16,16299,1,8
392,144,16633,6,0,B|376:224|288:240,1,150,0|8
208,184,17133,1,0
120,232,17299,2,0,B|88:216|48:232,1,75
96,336,17633,1,8
192,312,17799,2,0,B|248:368|336:344,1,150
392,272,18299,1,8
472,328,18466,2,0,B|472:368,2,37.5,0|0|0
496,232,18799,2,0,B|456:224|432:192,1,75,0|8
512,136,19132,5,0
424,96,19299,2,0,B|336:80|280:136,1,150,0|8
248,224,19799,1,0
320,288,19966,2,0,B|352:248|344:208,2,75,0|0|8
232,328,20466,2,0,B|184:264|96:272,1,150
64,360,20966,1,8
160,344,21132,2,0,B|200:272|160:200,1,150
160,200,21632,1,8
160,200,21799,1,0
256,192,21966,12,0,23966
368,208,24632,6,0,B|424:176|416:112,1,112.499996647239,4|8
464,32,25132,2,0,B|424:80|360:72,1,112.499996647239
280,24,25632,1,8
96,128,25966,1,0
184,168,26132,2,0,B|176:200|136:216,1,56.2499983236194,0|8
48,216,26466,2,0,B|56:280|120:304,1,112.499996647239
208,288,26966,1,8
328,112,27299,6,0,B|360:96|392:104,2,56.2499983236194,0|0|8
288,200,27799,2,0,B|328:248|392:240,1,112.499996647239
472,192,28299,1,8
328,352,28632,2,0,B|304:368|272:360,1,56.2499983236194
208,288,28966,2,0,B|178:280|154:296,1,56.2499983236194,8|0
328,168,29466,5,0
328,168,29632,1,8
152,48,29966,2,0,B|104:88|112:152,1,112.499996647239,0|8
32,200,30466,2,0,B|64:256|136:240,1,112.499996647239
216,200,30966,2,0,B|232:232|224:264,1,56.2499983236194,8|0
168,328,31299,5,2
408,296,31632,1,8
376,56,31966,1,2
136,88,32299,1,8
312,216,32632,6,0,B|376:200|384:136,1,112.499996647239,2|8
480,128,33132,2,0,B|472:64|408:40,1,112.499996647239,2|0
320,64,33632,1,8
320,64,33799,1,2
224,256,34132,6,0,B|296:280,1,56.2499983236194,0|8
320,64,34632,2,0,B|276:100,1,56.2499983236194,0|8
182,82,34966,2,0,B|156:72,3,28.1249991618097,8|0|8|0
156,72,35299,6,0,B|172:136|116:176,1,112.499996647239,4|8
40,224,35799,2,0,B|68:280|136:280,1,112.499996647239
216,240,36299,1,8
376,96,36632,1,0
320,176,36799,2,0,B|344:192|376:192,1,56.2499983236194,0|8
464,152,37132,2,0,B|480:216|440:264,1,112.499996647239
352,288,37632,1,8
136,312,37966,6,0,B|104:320|80:344,2,56.2499983236194,0|0|8
224,352,38466,2,0,B|256:296|216:240,1,112.499996647239
128,216,38966,1,8
288,72,39299,2,0,B|344:48|408:64,1,112.499996647239,0|8
360,152,39799,2,0,B|304:176|240:160,1,112.499996647239
192,88,40299,1,8
56,256,40633,6,0,B|48:296|64:320,1,56.2499983236194
168,232,40966,2,0,B|176:192|160:168,1,56.2499983236194,8|0
152,320,41299,2,0,B|208:344|264:320,1,112.499996647239,0|8
376,168,41966,6,0,B|408:160|432:168,2,56.2499983236194,0|0|8
168,232,42633,2,0,B|128:192|136:128,1,112.499996647239,0|0
200,56,43133,1,0
264,128,43299,2,0,B|320:152|376:128,1,112.499996647239,0|8
448,72,43799,2,0,B|480:64|512:72,2,56.2499983236194,0|0|0
480,160,44299,1,8
480,160,44466,1,0
192,280,44799,6,0,B|120:280,1,56.2499983236194,0|8
319,104,45299,2,0,B|375:104,1,56.2499983236194,0|8
256,192,45799,1,0
256,192,46299,1,12
72,144,46633,6,0,B|104:88|88:32,1,112.499996647239,0|8
160,216,47299,2,0,B|128:272|144:328,2,112.499996647239,0|8|0
160,216,48299,1,8
336,88,48633,2,0,B|392:64|448:88,1,112.499996647239,0|8
488,176,49133,2,0,B|432:200|376:176,1,112.499996647239
296,224,49633,1,8
376,280,49799,2,0,B|384:312|376:336,2,56.2499983236194
288,320,50299,2,0,B|232:344|176:320,1,112.499996647239,8|0
96,112,50966,5,8
96,112,51299,2,0,B|88:136|96:168,1,56.2499983236194
176,280,51633,2,0,B|184:256|176:224,1,56.2499983236194,8|0
40,256,51966,2,0,B|64:264|96:256,1,56.2499983236194
232,136,52299,2,0,B|208:128|176:136,1,56.2499983236194,8|0
272,224,52633,2,0,B|336:224|368:168,1,112.499996647239,0|8
336,80,53133,1,0
424,40,53299,2,0,B|456:32|488:40,2,56.2499983236194,0|0|8
456,136,53799,6,0,B|496:208|456:280,1,150,12|0
368,320,54299,1,8
288,264,54466,2,0,B|256:240|208:248,2,75,0|0|8
232,344,54966,1,8
136,320,55133,2,0,B|72:272|80:184,1,150,4|0
142,113,55633,1,8
80,40,55799,2,0,B|40:24|0:40,2,75,0|0|8
142,113,56299,1,8
312,168,56633,6,0,B|352:156|368:108,1,75
200,216,56966,2,0,B|160:232|143:283,1,75
232,136,57299,2,0,B|220:100|181:83,1,75
280,248,57633,2,0,B|296:284|336:300,1,75
432,304,57966,5,4
432,304,58133,1,0
112,272,59299,6,0,B|72:288|40:272,2,75,4|0|8
168,192,59799,2,0,B|184:280|272:296,1,150
360,272,60299,1,8
456,296,60466,2,0,B|448:336|408:360,2,75
480,200,60966,1,8
424,120,61133,2,0,B|352:80|280:120,1,150
256,216,61633,1,8
72,88,61966,6,0,B|40:72|0:88,1,75
64,224,62299,2,0,B|96:240|136:224,1,75,8|0
200,88,62633,2,0,B|240:72|272:88,2,75,0|0|8
240,176,63133,2,0,B|312:216|384:176,1,150,0|2
384,80,63633,6,0,B|432:80|456:112,1,75,10|0
488,200,63966,1,2
488,200,64133,1,0
448,288,64299,1,10
448,288,64466,1,0
352,312,64633,6,0,B|264:304|248:216,1,150,0|8
176,288,65133,2,0,B|136:296|96:272,1,75
152,192,65466,2,0,B|160:152|200:128,1,75,0|8
280,88,65799,2,0,B|208:136|136:104,1,150
64,40,66299,1,8
48,136,66466,2,0,B|64:176|104:192,2,75
8,224,66966,1,8
64,304,67133,1,0
152,264,67299,6,0,B|192:248|232:264,2,75,2|0|8
192,352,67799,1,2
192,352,68133,1,2
400,264,68466,2,0,B|440:192|400:120,1,150,2|2
320,64,68966,1,10
232,104,69133,5,0
144,64,69299,2,0,B|80:112|88:200,1,150,0|8
24,272,69799,1,0
120,288,69966,2,0,B|152:264|192:264,2,75,4|0|8
200,344,70466,2,0,B|256:288|232:200,1,150
176,128,70966,1,8
272,120,71133,6,0,B|320:184|408:160,1,150
464,80,71633,1,8
368,88,71799,2,0,B|304:140|328:224,1,150
416,264,72299,1,8
224,152,72633,6,0,B|184:136|136:160,1,75,2|0
104,280,72966,2,0,B|144:296|192:272,1,75,8|0
304,232,73299,2,0,B|320:272|360:288,1,75
408,160,73633,2,0,B|392:120|352:104,1,75,8|0
264,80,73966,6,0,B|256:140|192:160,2,100,0|2|2
136,56,74633,2,0,B|80:44|40:72,2,100,0|2|2
136,56,75299,1,4
216,296,75633,5,8
216,296,75799,2,0,B|152:344|72:312,1,150
32,224,76299,1,8
128,224,76466,2,0,B|192:176|272:208,1,150
312,296,76966,1,8
408,312,77133,2,0,B|456:240|424:168,1,150
448,72,77633,1,8
352,88,77799,2,0,B|296:144|208:120,1,150
128,64,78299,6,0,B|96:24,2,37.5,8|0|0
72,144,78632,2,0,B|16:152,2,37.5
64,240,78966,6,0,B|16:272,4,37.5,8|0|8|0|0
256,192,80632,12,0,83299
256,192,91299,5,0
448,40,92799,6,0,B|448:112,1,56.2499983236194,0|8
256,192,93299,2,0,B|256:120,1,56.2499983236194,0|8
352,184,93632,2,0,B|352:240,1,56.2499983236194,0|8
272,296,93966,6,0,B|216:320|160:296,1,112.499996647239,4|8
80,344,94466,1,0
8,168,94799,2,0,B|64:192|120:168,1,112.499996647239
200,216,95299,1,2
256,136,95466,2,0,B|248:104|256:80,1,56.2499983236194,0|10
344,120,95799,2,0,B|352:152|344:176,2,56.2499983236194,0|2|0
400,40,96299,5,8
472,104,96466,1,0
472,200,96632,2,0,B|440:248|368:248,1,112.499996647239,0|8
320,328,97132,2,0,B|296:272|232:264,1,112.499996647239
176,344,97632,2,0,B|144:336|120:320,1,56.2499983236194
98,230,97966,5,2
207,14,98299,1,8
423,122,98632,1,2
315,339,98966,1,8
160,192,99299,6,0,B|112:160|48:176,1,112.499996647239,2|0
88,264,99799,2,0,B|136:296|200:280,1,112.499996647239,2|0
256,208,100299,1,0
256,208,100466,1,2
112,56,100799,6,0,B|72:104,1,56.2499983236194,0|8
256,208,101299,2,0,B|296:160,1,56.2499983236194,0|8
387,150,101632,2,0,B|416:148,3,28.1249991618097,8|0|8|0
416,148,101966,6,0,B|444:200|419:256,1,112.499996647239,4|8
416,352,102466,2,0,B|352:360|312:312,1,112.499996647239
304,220,102966,1,8
120,112,103299,2,0,B|96:104|64:112,1,56.2499983236194
24,200,103632,1,8
112,240,103799,2,0,B|176:232|208:184,1,112.499996647239
216,88,104299,1,8
376,232,104632,6,0,B|392:256|384:288,2,56.2499983236194,0|0|8
304,168,105132,2,0,B|344:120|416:136,1,112.499996647239
480,192,105632,1,8
296,304,105966,2,0,B|240:336|184:312,1,112.499996647239,0|8
224,224,106466,2,0,B|280:192|336:216,1,112.499996647239
392,288,106966,1,8
504,128,107299,6,0,B|512:96|504:72,1,56.2499983236194
400,160,107632,2,0,B|392:192|400:216,1,56.2499983236194,8|0
384,72,107966,2,0,B|328:56|272:72,1,112.499996647239,0|8
112,176,108632,6,0,B|88:184|56:176,2,56.2499983236194,0|0|8
304,272,109299,2,0,B|264:312|200:304,1,112.499996647239,0|8
128,368,109799,1,0
56,304,109966,2,0,B|104:264|96:200,1,112.499996647239,0|8
32,136,110466,2,0,B|16:112|16:80,2,56.2499983236194
112,80,110966,1,8
112,80,111132,1,0
200,288,111466,6,0,B|232:360,1,56.2499983236194,0|8
312,96,111966,2,0,B|280:24,1,56.2499983236194,0|8
256,192,112466,1,0
256,192,112966,1,4
384,336,113299,6,0,B|440:360|492:336,1,112.499996647239,0|8
364,192,113966,2,0,B|348:249|288:269,2,112.499996647239,0|8|0
365,192,114966,1,8
192,112,115299,2,0,B|132:132|116:192,1,112.499996647239,0|8
52,260,115799,2,0,B|108:244|156:284,1,112.499996647239
216,360,116299,1,8
296,308,116466,2,0,B|274:296|262:264,2,56.2499983236194
388,336,116966,2,0,B|420:284|404:228,1,112.499996647239,8|0
208,120,117632,5,8
208,120,117966,2,0,B|236:128|264:120,1,56.2499983236194
384,188,118299,2,0,B|356:196|328:188,1,56.2499983236194,8|0
260,312,118632,2,0,B|288:320|316:312,1,56.2499983236194
192,256,118966,2,0,B|164:264|136:256,1,56.2499983236194,8|0
44,288,119299,6,0,B|76:240|64:180,1,112.499996647239,0|8
144,124,119799,1,0
72,60,119966,2,0,B|48:72|16:64,2,56.2499983236194,0|0|8
168,40,120466,6,0,B|216:100|304:88,1,150,12|0
376,32,120966,1,8
408,124,121132,2,0,B|432:160|476:160,2,75,0|0|8
484,64,121632,1,8
470,159,121799,6,0,B|448:244|364:256,1,150,4|0
312,336,122299,1,8
236,272,122466,2,0,B|224:236|184:216,2,75,0|0|8
144,308,122966,1,8
160,52,123299,6,0,B|200:36|248:60,1,75
112,176,123632,2,0,B|72:192|24:168,1,75
144,308,123966,2,0,B|177:291|217:307,1,75
392,256,124299,2,0,B|358:274|318:258,1,75
256,192,124632,5,4
256,192,124799,1,0
328,224,125966,6,0,B|352:256|400:248,2,75,4|0|8
384,144,126466,2,0,B|320:208|240:168,1,150
184,240,126966,1,8
144,152,127132,2,0,B|176:128|176:88,2,75
80,80,127632,1,8
40,168,127799,2,0,B|24:256|88:304,1,150
85,302,128299,1,8
280,184,128632,6,0,B|320:168|360:184,1,75
232,96,128966,2,0,B|192:112|152:96,1,75,8|0
56,208,129299,2,0,B|88:192|128:208,2,75,0|0|8
85,302,129799,2,0,B|141:358|229:334,1,150,0|2
303,289,130299,6,0,B|296:328|320:360,1,75,10|0
400,304,130632,1,2
400,304,130799,1,0
440,216,130966,1,10
440,216,131132,1,0
360,160,131299,6,0,B|312:224|224:200,1,150,0|8
168,280,131799,2,0,B|136:256|128:216,1,75
32,200,132132,2,0,B|40:160|72:136,1,75,0|8
32,48,132466,2,0,B|80:112|168:96,1,150
240,32,132966,1,8
328,80,133132,2,0,B|312:120|264:128,2,75
424,56,133632,1,8
464,144,133799,1,0
392,216,133966,6,0,B|368:248|376:296,2,75,2|0|8
472,272,134466,1,2
472,272,134799,1,2
256,200,135132,2,0,B|168:192|128:264,1,150,2|2
40,304,135632,1,10
128,352,135799,5,0
208,296,135966,2,0,B|208:208|128:176,1,150,0|8
40,208,136466,1,0
56,112,136632,2,0,B|80:80|128:80,2,75,4|0|8
72,16,137132,2,0,B|104:96|192:88,1,150
264,24,137632,1,8
336,88,137799,6,0,B|272:144|288:224,1,150
248,312,138299,1,8
344,296,138466,2,0,B|408:240|392:160,1,150
432,72,138966,1,8
256,152,139299,6,0,B|216:168|184:152,1,75,2|0
64,56,139632,2,0,B|104:40|136:56,1,75,8|0
56,184,139966,2,0,B|40:216|56:256,1,75
192,320,140299,2,0,B|208:288|192:248,1,75,8|0
248,168,140632,6,0,B|284:124|352:128,2,100,0|2|2
340,260,141299,2,0,B|308:308|340:372,2,100,0|2|2
456,316,141966,1,4
464,80,142299,5,8
464,80,142466,2,0,B|408:16|320:40,1,150
280,112,142966,1,8
368,152,143132,2,0,B|328:224|232:200,1,150
184,120,143632,1,8
96,80,143799,2,0,B|24:120|32:208,1,150
80,288,144299,1,8
152,224,144466,2,0,B|184:304|272:296,1,150
344,232,144966,6,0,B|344:184,2,37.5,8|0|0
408,304,145299,2,0,B|408:352,2,37.5
488,248,145632,6,0,B|488:200,4,37.5,8|0|8|0|0
80,288,147299,5,0
80,288,147966,2,0,B|80:224,1,56.2499983236194,2|2
24,152,148299,1,0
84,76,148466,2,0,B|104:100|164:100|188:76,2,112.499996647239,0|2|0
256,140,149466,1,2
184,308,149799,1,0
184,308,149966,2,0,B|212:356|300:356|328:308,1,168.749994970858,2|0
328,76,151299,6,0,B|328:137,1,56.2499983236194,8|0
184,308,151966,2,0,B|184:247,1,56.2499983236194,8|0
256,192,152632,12,0,154632
360,264,155132,6,0,B|328:312,1,56.2499983236194,2|8
152,120,155632,2,0,B|184:72,1,56.2499983236194,2|8
152,264,156132,2,0,B|184:312,1,56.2499983236194,2|8
360,120,156632,2,0,B|328:72,1,56.2499983236194,2|8
256,236,157132,2,0,B|256:292,1,56.2499983236194,2|8
256,148,157633,2,0,B|256:92,2,56.2499983236194,0|2|2
256,148,158633,1,4
464,92,159966,6,0,B|464:36,1,56.2499983236194
376,76,160299,2,0,B|376:148,1,56.2499983236194
424,216,160633,2,0,B|456:184|504:192,2,84.3749974854291,2|0|2
368,296,161299,2,0,B|380:340|349:378,2,84.3749974854291,0|2|0
328,208,161966,2,0,B|285:197|268:151,2,84.3749974854291,10|10|8
328,208,162633,1,0
360,96,179299,6,0,B|376:56|472:56|488:96,2,150,0|2|0
256,192,181299,1,2
152,288,181966,2,0,B|136:328|40:328|24:288,2,150,0|2|0
88,56,184633,6,0,B|88:208,1,150,0|2
424,328,185966,2,0,B|424:176,1,150,0|2
256,192,187299,1,0
360,296,187633,6,0,B|360:360,1,56.2499983236194,4|0
488,208,188133,2,0,B|488:272,1,56.2499983236194,4|0
328,160,188633,2,0,B|328:240,1,56.2499983236194,4|0
440,64,189133,2,0,B|440:136,1,56.2499983236194,4|0
224,56,189633,5,0
128,48,189799,1,0
44,100,189966,2,8,B|12:176|56:244,1,150,4|8
156,256,190466,1,0
236,200,190633,2,0,B|268:124|224:56,1,150,0|8
308,8,191133,1,0
364,88,191299,2,0,B|444:104|508:56,2,150,0|8|0
364,88,192299,1,8
388,262,192633,5,0
229,339,192966,1,8
107,212,193299,1,0
190,57,193633,1,8
256,128,193799,2,0,B|340:152|396:88,1,150,0|0
464,160,194299,2,0,B|460:200|440:232,1,75,8|0
368,300,194633,2,0,B|336:280|324:240,1,75,0|0
228,224,194966,2,0,B|208:254|204:294,1,75,8|0
112,324,195299,6,0,B|40:284|44:200,1,150,0|8
92,116,195799,1,0
172,172,195966,2,0,B|260:184|304:120,1,150,0|8
344,32,196466,1,0
432,72,196633,6,0,B|460:100|460:148,1,75
376,188,196966,2,0,B|372:228|392:260,1,75,8|0
464,328,197299,2,0,B|400:276|320:304,1,150,0|8
248,364,197799,1,0
188,288,197966,2,0,B|136:352|52:332,1,150,0|8
0,252,198466,1,0
88,208,198633,6,0,B|120:188|128:148,2,75,2|2|8
40,120,199133,2,0,B|112:76|188:104,1,150,2|2
260,44,199633,1,8
324,116,199799,2,0,B|292:188|332:260,1,150,2|0
420,304,200299,1,8
484,228,200466,6,0,B|516:156|476:84,1,150,4|0
388,44,200966,2,0,B|312:44,1,75,8|0
313,44,201299,1,0
240,224,201633,2,0,B|316:224,1,75,8|0
315,224,201966,1,0
156,112,202299,2,0,B|80:112,1,75,8|0
81,112,202633,1,0
36,200,202799,5,0
68,292,202966,1,8
164,312,203133,1,0
256,192,203299,12,4,205966
76,216,207299,6,0,B|36:144|76:72,1,150,0|4
75,72,208133,1,0
164,32,208299,1,0
256,60,208466,1,0
464,212,208966,1,0
424,300,209133,2,0,B|436:348,2,37.5,0|0|0
356,228,209466,2,0,B|372:184,2,37.5,0|0|0
324,320,209799,1,0
228,344,209966,6,0,B|148:324|140:232,1,150,4|8
44,216,210466,2,0,B|120:184|112:96,1,150
40,32,210966,1,8
36,128,211133,2,0,B|88:188|176:172,1,150,0|2
232,96,211633,6,0,B|260:120|268:160,1,75,10|0
240,252,211966,1,2
240,252,212133,1,0
320,308,212299,1,10
320,308,212466,1,0
412,276,212633,6,0,B|472:224|452:140,1,150,0|8
492,52,213133,2,0,B|456:32|416:48,1,75
360,124,213466,2,0,B|328:144|288:136,1,75,0|8
304,40,213799,2,0,B|264:108|176:100,1,150
100,40,214299,1,8
84,136,214466,2,0,B|116:156|132:196,2,75
16,208,214966,1,8
36,304,215133,1,0
128,340,215299,6,0,B|168:328|188:300,2,75,2|0|8
128,340,215799,1,2
128,340,216133,1,2
308,208,216466,2,0,B|388:188|444:252,1,150,2|2
388,332,216966,1,10
292,328,217133,5,0
220,264,217299,2,0,B|172:200|200:120,1,150,0|8
276,60,217799,1,0
344,132,217966,2,0,B|376:152|416:144,2,75,4|0|8
276,60,218466,2,0,B|208:16|132:44,1,150
48,92,218966,1,8
124,152,219133,6,0,B|124:240|52:276,1,150
112,352,219633,1,8
176,280,219799,2,0,B|244:244|324:284,1,150
372,364,220299,1,8
460,156,220633,6,0,B|480:120|472:80,1,75,2|0
328,44,220966,2,0,B|356:72|352:116,1,75,8|0
332,208,221299,2,0,B|308:240,2,37.5,0|0|8
252,152,221633,2,0,B|200:140,2,37.5,0|0|8
220,244,221966,6,0,B|228:308|288:328,2,100,0|2|2
136,344,222633,2,0,B|80:364|40:328,2,100,0|2|2
112,216,223299,1,4
356,104,223633,5,8
356,104,223799,2,0,B|420:152|408:240,1,150,0|0
348,316,224299,1,8
264,264,224466,2,0,B|216:328|128:304,1,150,0|0
44,352,224966,1,8
56,256,225133,2,0,B|104:192|188:200,1,150
264,264,225633,1,8
296,172,225799,2,0,B|260:96|180:88,1,150
88,120,226299,1,8
176,328,226633,6,0,B|236:376|320:348,1,150,0|8
264,264,227133,2,0,B|204:216|120:244,1,150,0|0
72,328,227633,1,0
12,252,227799,1,0
60,164,227966,2,0,B|88:136|132:140,2,75,0|0|0
252,344,228633,6,0,B|316:388|396:360,1,150,0|4
420,120,229466,1,0
420,120,229633,1,8
368,44,229799,2,0,B|300:4|220:36,1,150
132,28,230299,1,8
156,120,230466,2,0,B|224:160|304:128,1,150
300,129,230966,1,8
96,224,231299,6,0,B|64:248|52:288,1,75
204,288,231633,2,0,B|236:264|248:224,1,75,8|0
360,328,231966,2,0,B|392:352|432:348,2,75,0|0|8
400,240,232466,2,0,B|356:308|268:296,1,150,0|2
208,220,232966,6,0,B|172:236|156:272,1,75,10|0
168,368,233299,1,2
168,368,233466,1,0
72,344,233633,1,10
72,344,233799,1,0
32,256,233966,6,0,B|16:172|80:120,1,150,0|8
172,92,234466,2,0,B|184:128|168:164,1,75
212,252,234799,2,0,B|252:244|276:212,1,75,0|8
264,116,235133,2,0,B|324:64|404:80,1,150
476,144,235633,1,8
396,200,235799,2,0,B|364:224|352:264,2,75
484,244,236299,1,8
428,324,236466,1,0
336,356,236633,6,0,B|296:352|268:324,2,75,2|0|8
336,356,237133,1,2
336,356,237466,1,2
196,180,237799,2,0,B|120:144|52:180,1,150,2|2
16,272,238299,2,0,B|52:288|88:272,1,75,8|2
124,364,238633,6,0,B|168:300|256:304,1,150,0|8
336,356,239133,1,0
420,304,239299,2,0,B|460:236|416:160,1,150,4|8
464,80,239799,2,0,B|416:144|328:124,1,150
260,56,240299,1,8
204,136,240466,6,0,B|184:176|140:184,2,75
132,68,240966,1,8
52,124,241133,2,0,B|24:204|72:268,1,150
164,296,241633,1,8
324,140,241966,6,0,B|356:124|400:132,1,75,2|0
492,248,242299,2,0,B|460:264|416:256,1,75,8|0
344,320,242633,2,0,B|312:360,2,37.5,0|0|8
292,236,242966,2,0,B|252:220,2,37.5,0|0|8
236,316,243299,6,0,B|200:360|136:352,2,100,0|2|2
160,232,243966,2,0,B|132:180|72:180,2,100,0|2|2
56,312,244633,1,4
208,124,244966,5,8
208,124,245133,2,0,B|272:80|352:104,1,150
428,44,245633,1,8
468,132,245799,2,0,B|476:216|396:256,1,150
372,348,246299,1,8
300,284,246466,2,0,B|232:244|152:276,1,150
120,364,246966,1,8
212,336,247133,2,0,B|252:268|220:188,1,150
128,160,247633,6,0,B|96:188,2,37.5,8|0|0
168,72,247966,2,0,B|204:88,2,37.5,0|0|0
68,68,248299,6,0,B|28:76,4,37.5,8|0|0|0|0
256,192,249966,12,0,253799
