osu file format v9

[General]
AudioFilename: Tsubasa wa Pleasure Line.mp3
AudioLeadIn: 0
PreviewTime: 58442
Countdown: 0
SampleSet: Soft
StackLeniency: 0.7
Mode: 0
LetterboxInBreaks: 0

[Editor]
DistanceSpacing: 1.1
BeatDivisor: 4
GridSize: 4

[Metadata]
Title:Tsubasa wa Pleasure Line
Artist:Kuribayashi Minami
Creator:Suzully
Version:Insane
Source:Chrno Crusade
Tags:KSHR

[Difficulty]
HPDrainRate:7
CircleSize:4
OverallDifficulty:7
ApproachRate:8
SliderMultiplier:2
SliderTickRate:2

[Events]
//Background and Video events
0,0,"chrnocrusade.jpg"
//Break Periods
2,83499,90549
2,163132,178549
//Storyboard Layer 0 (Background)
//Storyboard Layer 1 (Fail)
//Storyboard Layer 2 (Pass)
//Storyboard Layer 3 (Foreground)
//Storyboard Sound Samples
//Background Colour Transformations
3,100,163,162,255

[TimingPoints]
633,333.333333333333,4,2,1,95,1,0
24549,-133.333333333333,4,2,1,85,0,0
44716,-133.333333333333,4,1,0,50,0,0
46049,-133.333333333333,4,2,1,90,0,0
53716,-100,4,2,1,90,0,0
56549,-100,4,1,0,50,0,0
56882,-100,4,1,0,60,0,0
57216,-100,4,1,0,70,0,0
57549,-100,4,1,0,80,0,0
57882,-100,4,1,0,90,0,0
58216,-100,4,2,1,90,0,0
59299,-100,4,2,1,100,0,1
78882,-100,4,1,0,60,0,1
79299,-100,4,1,0,60,0,0
80633,-100,4,2,1,5,0,0
91216,-133.333333333333,4,1,0,60,0,0
93882,-133.333333333333,4,2,1,85,0,0
111382,-133.333333333333,4,1,0,60,0,0
112882,-133.333333333333,4,2,1,90,0,0
120382,-100,4,2,1,90,0,0
123216,-100,4,1,0,50,0,0
123549,-100,4,1,0,60,0,0
123882,-100,4,1,0,70,0,0
124216,-100,4,1,0,80,0,0
124549,-100,4,1,0,90,0,0
124882,-100,4,2,1,90,0,0
125966,-100,4,2,1,100,0,1
145549,-100,4,1,0,60,0,1
145966,-100,4,1,0,60,0,0
147216,-133.333333333333,4,2,1,85,0,0
179216,-200,4,2,1,85,0,0
186549,-133.333333333333,4,2,1,85,0,0
187299,-133.333333333333,4,2,1,25,0,0
187632,-133.333333333333,4,2,1,70,0,0
187799,-133.333333333333,4,2,1,25,0,0
188132,-133.333333333333,4,2,1,70,0,0
188299,-133.333333333333,4,2,1,25,0,0
188632,-133.333333333333,4,2,1,70,0,0
188799,-133.333333333333,4,2,1,25,0,0
189132,-133.333333333333,4,2,1,70,0,0
189549,-133.333333333333,4,2,1,85,0,0
189966,-100,4,2,1,100,0,1
201216,-100,4,2,1,80,0,1
201382,-100,4,2,1,100,0,1
201882,-100,4,2,1,80,0,1
202049,-100,4,2,1,100,0,1
205966,-100,4,2,1,85,0,0
207299,-100,4,1,0,5,0,0
207632,-100,4,1,0,60,0,0
208632,-100,4,2,1,85,0,0
209966,-100,4,2,1,100,0,1
227216,-100,4,1,0,45,0,1
227549,-100,4,1,0,60,0,1
227882,-100,4,1,0,75,0,1
228216,-100,4,1,0,90,0,1
228549,-100,4,2,1,100,0,1
228632,-100,4,2,1,5,0,0
228966,-100,4,2,1,100,0,1
247882,-100,4,1,0,60,0,1
248632,-100,4,1,0,60,0,0
249966,-100,4,2,1,5,0,0

[Colours]
Combo1 : 255,166,255
Combo2 : 83,169,255
Combo3 : 142,255,171
Combo4 : 255,179,142

[HitObjects]
312,264,13299,2,0,B|288:184,2,66.6666666666667
384,268,13633,2,0,B|408:348,2,66.6666666666667
456,272,13966,6,0,B|472:152|360:80,1,200,4|8
296,48,14466,2,0,B|96:48,1,200
48,136,14966,1,8
152,136,15133,2,0,B|208:232|152:328,1,200
248,352,15633,1,8
344,328,15799,2,0,B|288:232|344:136,1,200
432,180,16299,2,0,B|464:240|420:300,1,100,8|0
344,328,16633,6,0,B|240:280|128:336,1,200,0|8
168,56,17299,2,0,B|272:104|384:48,1,200,0|8
448,104,17799,2,0,B|496:200|416:288,1,200
336,232,18299,2,0,B|232:232,1,100,8|0
88,216,18633,1,0
168,160,18799,1,0
152,288,18966,2,0,B|148:356|224:372,1,100,8|0
228,368,19216,1,0
256,368,19299,6,0,B|256:144,1,200,4|8
312,88,19799,2,0,B|432:120|432:248,1,200
368,320,20299,1,8
268,364,20466,2,0,B|148:332|148:204,1,200
160,112,20966,1,8
160,112,21132,2,0,B|256:160|352:112,2,200
256,192,21882,12,4,23966
432,304,24632,6,0,B|432:200|336:176,1,149.999995529652,4|8
368,104,25132,2,0,B|272:104|256:192,1,149.999995529652
256,264,25632,1,8
112,344,25966,2,0,B|152:256|88:192,1,149.999995529652,0|8
16,176,26466,2,0,B|64:88|168:144,1,149.999995529652
216,176,26966,1,8
488,152,27299,6,0,B|392:152|368:48,1,149.999995529652,0|8
304,32,27799,1,0
144,80,28132,2,0,B|100:80,2,37.4999988824129,0|0|8
220,116,28466,1,0
296,144,28632,2,0,B|296:232|184:248,1,149.999995529652,0|8
136,192,29132,2,0,B|88:264|144:344,1,149.999995529652
216,352,29632,5,8
296,352,29799,1,0
375,332,29966,2,0,B|424:264|376:192,1,149.999995529652,0|8
324,256,30466,2,0,B|252:308|172:248,1,149.999995529652
136,192,30966,1,8
408,160,31299,6,0,B|408:72|304:48,1,149.999995529652,0|8
104,160,31966,2,0,B|104:72|208:48,1,149.999995529652,0|8
408,256,32632,1,0
256,320,32966,1,8
104,256,33299,1,0
104,88,33632,5,8
104,88,33799,2,0,B|264:88,1,149.999995529652
336,88,34299,1,8
408,232,34632,2,0,B|304:232,1,74.9999977648259
248,232,34966,1,8
248,232,35049,1,0
248,232,35132,1,0
248,232,35216,1,0
248,232,35299,6,0,B|160:216|152:128,1,149.999995529652,4|8
200,64,35799,2,0,B|112:32|72:112,1,149.999995529652
73,109,36299,1,8
72,272,36632,2,0,B|110:349|198:317,1,149.999995529652,0|8
272,280,37132,2,0,B|344:240|420:280,1,149.999995529652
492,316,37632,1,8
328,20,37966,6,0,B|276:92|332:168,1,149.999995529652,0|8
344,240,38466,2,0,B|272:288|192:232,1,149.999995529652
203,239,38966,1,8
48,72,39299,2,0,B|120:24|200:80,1,149.999995529652,0|8
144,144,39799,2,0,B|216:192|296:136,1,149.999995529652
352,96,40299,1,8
424,136,40466,1,0
464,208,40633,6,0,B|464:312|360:328,1,149.999995529652,0|8
304,320,41133,1,0
328,240,41299,2,0,B|232:232|216:328,1,149.999995529652,0|8
304,320,41799,1,0
304,320,41966,2,0,B|304:168,1,149.999995529652,0|8
304,88,42466,1,0
372,136,42633,2,0,B|300:200|228:128,1,149.999995529652,0|8
168,96,43133,1,0
96,136,43299,6,0,B|40:216|112:296,1,149.999995529652,0|8
168,368,43799,2,0,B|224:288|152:208,1,149.999995529652
112,296,44299,1,8
112,296,44466,6,0,B|280:296,1,149.999995529652
344,296,44966,1,0
480,200,45299,1,0
480,200,45466,1,0
328,136,45799,1,0
328,136,45883,1,0
328,136,45966,1,0
456,32,46299,1,4
400,184,46633,6,0,B|368:264|272:264,1,149.999995529652,0|8
216,216,47133,1,0
200,136,47299,2,0,B|232:56|328:56,1,149.999995529652,0|8
320,136,47799,1,0
320,136,47966,2,0,B|272:212|328:288,1,149.999995529652,0|8
400,296,48466,1,0
384,216,48633,6,0,B|200:216,1,149.999995529652,0|8
240,136,49133,2,0,B|136:136|136:32,1,149.999995529652
216,56,49633,1,8
216,56,49799,2,0,B|128:176,1,149.999995529652
80,240,50299,1,8
256,336,50633,1,0
432,240,50966,1,8
432,96,51299,6,0,B|344:64|264:104,1,149.999995529652,0|8
80,288,51966,2,0,B|168:320|248:280,1,149.999995529652,0|8
432,192,52633,1,0
280,192,52966,1,8
356,64,53299,1,0
432,192,53633,1,8
432,192,53799,6,0,B|432:320|288:344,1,200,4|0
256,256,54299,1,8
200,176,54466,2,0,B|80:192|72:320,1,200,4|0
256,256,54966,1,8
256,256,55133,2,0,B|360:224|352:96,1,200,4|0
256,96,55633,1,8
256,96,55799,2,0,B|248:219|352:251,1,200,4|0
448,240,56299,2,0,B|472:184|440:128,1,100,8|0
416,48,56633,5,0
416,48,56799,1,0
336,112,56966,1,0
336,112,57133,1,0
224,64,57299,1,0
224,64,57466,1,0
144,176,57633,1,0
144,176,57799,1,0
48,48,57966,1,0
48,48,58133,1,0
416,80,59133,5,0
416,80,59216,1,0
416,80,59299,2,0,B|416:208|272:208,1,200,4|8
288,104,59799,2,0,B|164:103|164:231,1,200
232,304,60299,1,8
288,224,60466,6,0,B|288:96|144:96,1,200
80,152,60966,1,8
80,176,61049,1,0
80,200,61133,1,0
80,296,61299,2,0,B|80:360|160:360,1,100
308,288,61633,2,0,B|208:288,1,100,8|0
376,360,61966,6,0,B|496:360|496:200,1,200,0|8
494,228,62383,1,0
494,228,62466,1,0
480,128,62633,1,0
408,56,62799,1,0
312,96,62966,5,8
312,96,63133,2,0,B|72:96,1,200
24,144,63633,2,0,B|-8:84|40:24,1,100,8|0
184,168,63966,2,0,B|216:228|168:288,1,100
104,208,64299,2,0,B|72:148|120:88,1,100,8|0
280,216,64633,6,0,B|312:276|264:336,2,100,0|0|8
192,264,65133,2,0,B|408:264,1,200
416,264,65549,1,0
440,264,65633,1,8
464,264,65716,1,0
488,264,65799,6,0,B|536:160|480:56,1,200
416,144,66299,1,8
416,144,66466,2,0,B|304:200|200:128,1,200
144,88,66966,1,8
56,136,67133,1,0
112,224,67299,6,0,B|224:224,2,100,4|0|8
56,304,67799,1,4
456,136,68133,1,4
56,136,68466,2,0,B|272:136,1,200,4|0
256,136,68883,1,0
256,136,68966,1,8
360,136,69133,5,0
400,312,69299,2,0,B|389:366|333:377,1,100
239,267,69633,2,0,B|249:212|306:201,1,100,8|0
320,288,69966,6,0,B|264:392|136:336,1,200,4|8
72,272,70466,1,0
72,248,70549,1,0
72,224,70633,2,0,B|72:120,1,100
144,56,70966,1,8
216,120,71133,6,0,B|320:176|416:112,1,200
406,118,71633,1,8
328,56,71799,2,0,B|272:168|384:248,1,200
452,336,72299,2,0,B|352:336,1,100,8|0
256,336,72633,6,0,B|256:216|128:192,1,200,0|8
72,120,73133,1,0
160,72,73299,2,0,B|288:72|344:208,1,200,0|8
324,167,73799,1,0
344,264,73966,5,4
232,328,74188,1,0
120,264,74410,1,0
120,128,74633,1,4
232,200,74855,1,0
344,128,75077,1,0
232,56,75299,6,0,B|112:56|64:176,1,200,4|8
136,232,75799,1,0
216,300,75966,2,0,B|176:364|88:364|40:292,1,200,0|8
136,232,76466,6,0,B|344:232,1,200,4|0
440,232,76966,1,8
372,152,77133,2,0,B|309:192|309:280|373:320,1,200
440,232,77633,1,8
440,232,77799,6,0,B|440:32,1,200,4|0
344,72,78299,2,0,B|280:72|264:128,1,100,8|0
344,184,78632,2,0,B|336:248|256:248,1,100,0|0
176,248,78966,5,0
176,224,79049,1,0
176,200,79132,1,0
176,176,79216,1,0
176,152,79299,1,4
256,192,80632,12,0,83299
256,192,91299,5,4
80,72,92799,1,0
80,96,92882,1,0
80,120,92966,1,0
280,128,93299,1,0
280,152,93382,1,0
280,176,93466,1,0
184,208,93632,1,0
184,232,93716,1,0
184,256,93799,1,0
256,304,93966,6,0,B|344:336|416:272,1,149.999995529652,4|8
400,200,94466,2,0,B|472:144|432:40,1,149.999995529652
368,32,94966,1,8
80,72,95299,2,0,B|168:72|200:152,1,149.999995529652,0|8
144,208,95799,2,0,B|216:256|288:192,1,149.999995529652
336,136,96299,1,8
416,152,96466,1,0
472,216,96632,6,0,B|472:296|376:328,1,149.999995529652,0|8
304,308,97132,2,0,B|320:220|240:184,1,149.999995529652
164,156,97632,1,8
32,80,97966,6,0,B|32:240,1,149.999995529652,0|8
480,304,98632,2,0,B|480:144,1,149.999995529652,0|8
352,48,99299,1,0
256,184,99632,1,8
88,184,99966,1,0
176,336,100299,5,8
176,336,100466,2,0,B|352:336,1,149.999995529652
408,336,100966,2,0,B|428:296|400:248,1,74.9999977648259,8|0
328,184,101299,2,0,B|416:184,1,74.9999977648259
488,184,101632,1,8
488,184,101716,1,0
488,184,101799,1,0
488,184,101882,1,0
488,184,101966,6,0,B|488:96|400:56,1,149.999995529652,4|8
344,104,102466,2,0,B|264:152|176:88,1,149.999995529652
128,64,102966,1,8
64,296,103299,2,0,B|144:248|232:312,1,149.999995529652,0|8
284,328,103799,2,0,B|364:368|428:324,1,149.999995529652
488,268,104299,1,8
352,200,104632,6,0,B|264:168|280:72,1,149.999995529652,0|8
352,120,105132,2,0,B|312:200|208:192,1,149.999995529652
152,176,105632,1,8
400,296,105966,2,0,B|376:264|336:252|296:264|272:296,1,149.999995529652,0|8
336,348,106466,2,0,B|336:180,1,149.999995529652
336,116,106966,2,0,B|376:108|392:68,1,74.9999977648259,8|0
456,120,107299,6,0,B|504:192|456:264,1,149.999995529652,0|8
384,288,107799,1,0
336,352,107966,2,0,B|288:320|288:240|360:208,1,149.999995529652,0|8
384,288,108466,1,0
384,288,108632,2,0,B|224:288,1,149.999995529652,0|8
152,288,109132,1,0
200,360,109299,2,0,B|264:296|224:200,1,149.999995529652,0|8
184,160,109799,1,0
128,100,109966,2,0,B|220:56|272:156,1,149.999995529652,0|8
184,160,110466,6,0,B|352:120,1,149.999995529652
392,184,110966,1,8
400,264,111132,2,0,B|376:336|272:336,1,149.999995529652
200,328,111632,5,0
48,296,111966,1,0
48,296,112132,1,0
152,168,112466,2,0,B|204:236|132:336|36:292,1,224.999993294478,0|4
352,176,113299,6,0,B|352:80|256:48,1,149.999995529652,0|8
192,64,113799,1,0
240,128,113966,2,0,B|232:224|128:224,1,149.999995529652,0|8
64,216,114466,1,0
120,160,114632,2,0,B|168:232|112:304,1,149.999995529652,0|8
40,328,115132,1,0
40,328,115299,6,0,B|208:328,1,149.999995529652,0|8
200,248,115799,2,0,B|352:248,1,149.999995529652
400,312,116299,1,8
400,312,116382,1,0
400,312,116466,2,0,B|336:248|384:168,1,149.999995529652
424,104,116966,1,8
256,192,117299,1,0
88,104,117632,1,8
88,272,117966,6,0,B|128:352|224:344,1,149.999995529652,0|8
424,112,118632,2,0,B|384:32|288:40,1,149.999995529652,0|8
272,200,119299,1,0
120,136,119632,1,8
248,32,119966,1,0
397,99,120299,1,8
397,99,120466,6,0,B|464:192|396:285,1,200,4|0
396,284,120966,1,8
115,285,121132,2,0,B|48:192|116:99,1,200,4|0
115,99,121632,1,8
352,332,121799,2,0,B|244:396|132:312,1,200,4|0
162,332,122299,1,8
160,52,122466,2,0,B|268:-12|380:72,1,200,4|0
349,51,122966,1,8
204,260,123299,5,0
204,260,123466,1,0
332,180,123632,1,0
332,180,123799,1,0
180,180,123966,1,0
180,180,124132,1,0
308,260,124299,1,0
308,260,124466,1,0
256,120,124632,1,0
256,120,124799,1,0
48,112,125799,5,0
48,112,125882,1,0
48,112,125966,2,0,B|48:232|168:256,1,200,4|8
240,312,126466,2,0,B|248:200|384:176,1,200
464,200,126966,1,8
408,280,127132,6,0,B|288:264|272:152,1,200,0|0
200,88,127632,1,8
200,88,127799,1,0
104,112,127966,2,0,B|48:152|56:232,1,100
160,192,128299,2,0,B|192:240|184:304,1,100,8|0
88,312,128632,6,0,B|176:376|304:320,1,200,0|8
368,288,129132,1,0
432,216,129299,1,0
440,192,129382,1,0
440,168,129466,1,0
408,72,129632,5,8
408,72,129799,2,0,B|288:32|184:80,1,200
72,224,130299,2,0,B|120:248|168:232,1,100,8|0
272,160,130632,2,0,B|224:136|176:152,1,100
168,312,130966,2,0,B|216:336|264:320,1,100,8|0
368,320,131299,6,0,B|456:240|416:120,1,200,0|8
336,184,131799,2,0,B|296:72|152:96,1,200
160,112,132216,1,0
144,136,132299,1,8
128,160,132382,1,0
112,184,132466,6,0,B|128:296|256:312,1,200
344,304,132966,1,8
280,232,133132,2,0,B|248:112|352:56,1,200
448,72,133632,2,0,B|448:176,1,100,8|0
376,240,133966,6,0,B|392:296|480:296,2,100,4|0|8
376,136,134466,1,4
136,136,134799,1,4
376,240,135132,2,0,B|152:240,1,200,4|0
176,240,135549,1,0
176,240,135632,1,8
80,240,135799,1,0
48,144,135966,6,0,B|168:144|208:32,1,200,0|8
304,40,136466,1,0
256,128,136632,2,0,B|248:240|368:280,1,200,4|8
392,184,137132,2,0,B|264:192|240:320,1,200
328,352,137632,1,8
416,304,137799,6,0,B|360:208|424:96,1,200
344,48,138299,2,0,B|224:48,2,100,8|0|0
415,112,138799,1,0
344,184,138966,2,0,B|232:184,1,100,8|0
168,120,139299,6,0,B|56:176|96:312,1,200,0|8
152,360,139799,1,0
248,368,139966,2,0,B|360:312|320:176,1,200,0|8
326,201,140466,1,0
296,104,140632,5,4
160,104,140855,1,0
88,216,141077,1,0
160,328,141299,1,4
296,328,141521,1,0
368,216,141744,1,0
296,104,141966,6,0,B|256:168|168:168|120:96,1,200,4|8
212,52,142466,1,0
212,52,142632,2,0,B|212:252,1,200,0|8
276,336,143132,2,0,B|340:296|340:208|268:160,1,200,4|0
144,164,143632,1,8
144,164,143799,2,0,B|80:204|80:292|152:340,1,200
216,248,144299,1,8
216,248,144466,6,0,B|416:248,1,200,4|0
472,160,144966,2,0,B|352:160,1,100,8|0
312,80,145299,2,0,B|440:80,1,100
472,160,145632,1,0
456,184,145716,1,0
440,208,145799,1,0
424,232,145882,1,0
408,256,145966,1,4
96,192,147299,5,4
376,88,147966,2,0,B|464:88,2,74.9999977648259,2|0|0
320,160,148466,2,0,B|320:240|424:264,2,149.999995529652,2|0|2
152,88,149466,1,2
152,264,149799,1,0
152,264,149966,2,0,B|320:264,1,149.999995529652,2|0
344,344,150466,2,0,B|120:344,1,224.999993294478,2|0
120,160,151299,5,8
120,160,151466,1,4
392,160,151966,1,8
392,160,152132,1,4
256,192,152632,12,0,154632
448,128,155132,6,0,B|448:216,1,74.9999977648259,2|0
352,352,155632,2,0,B|352:272,1,74.9999977648259,2|0
256,128,156132,2,0,B|256:216,1,74.9999977648259,2|0
160,352,156632,2,0,B|160:272,1,74.9999977648259,2|0
56,128,157132,2,0,B|56:224,1,74.9999977648259,2|0
160,277,157633,2,0,B|160:352,2,74.9999977648259,2|0|4
256,48,158633,5,4
204,228,159966,6,0,B|204:292,2,49.9999985098839,2|0|0
280,196,160299,2,0,B|332:248,2,49.9999985098839,2|0|0
300,116,160633,6,0,B|364:116|404:56,2,112.499996647239,2|0|0
212,116,161299,2,0,B|148:116|108:176,2,112.499996647239,2|0|0
256,196,161966,2,0,B|256:320,2,112.499996647239,2|0|0
256,196,162633,1,4
96,192,179299,5,2
256,192,180633,1,2
356,96,181966,6,0,B|420:196|348:296,1,200,0|2
156,288,183299,2,0,B|92:188|164:88,1,200,0|2
296,160,184633,2,0,B|360:64|480:120,2,200,0|2|0
120,256,186633,5,0
168,272,186744,1,0
216,288,186855,1,0
264,304,186966,1,0
312,320,187077,1,0
360,336,187188,1,0
408,352,187299,6,0,B|496:224,1,149.999995529652,0|4
424,256,187799,2,0,B|512:128,1,149.999995529652,0|4
496,56,188299,2,0,B|408:184,1,149.999995529652,0|4
400,104,188799,2,0,B|312:232,1,149.999995529652,0|4
168,56,189633,5,0
104,128,189799,1,0
80,224,189966,2,0,B|112:344|232:336,1,200,4|8
320,320,190466,1,0
400,264,190633,2,0,B|328:160|400:64,1,200,0|8
488,48,191133,1,0
464,144,191299,6,0,B|352:200|272:104,1,200,0|8
192,72,191799,1,0
96,96,191966,2,0,B|72:216|192:272,1,200,0|8
272,272,192466,1,0
296,176,192633,6,0,B|392:112|504:176,2,200,0|8|0
272,272,193466,1,0
192,336,193633,1,8
96,312,193799,6,0,B|16:224|88:112,1,200
176,144,194299,2,0,B|208:200|296:192,1,100,8|0
272,96,194633,2,0,B|336:88|344:16,1,100
424,88,194966,2,0,B|368:104|368:176,1,100,8|0
464,196,195299,6,0,B|512:312|392:360,1,200,0|8
320,296,195799,1,0
288,208,195966,2,0,B|168:192|104:288,1,200,0|8
176,352,196466,1,0
256,288,196633,6,0,B|144:256|152:128,1,200,0|8
224,72,197133,1,0
296,136,197299,2,0,B|303:254|191:286,1,200,0|8
96,256,197799,1,0
48,168,197966,6,0,B|128:96|248:128,1,200,0|8
472,304,198633,1,0
372,352,198799,1,0
264,352,198966,1,8
168,304,199133,6,0,B|48:264|56:128,1,200
112,72,199633,1,8
208,48,199799,2,0,B|328:88|320:224,1,200
240,256,200299,1,0
328,304,200466,6,0,B|408:392|512:324,1,200,4|0
507,326,200966,1,8
328,304,201299,2,0,B|444:278|437:154,1,200,4|8
328,304,201966,2,0,B|364:190|253:134,1,200,4|8
64,188,202633,5,4
76,288,202799,1,0
160,344,202966,1,0
260,344,203133,1,0
256,192,203299,12,4,205966
256,296,207299,6,0,B|256:80,1,200,0|4
424,88,208133,1,0
464,184,208299,1,0
440,280,208466,1,0
144,48,209133,5,0
136,72,209216,1,0
128,96,209299,1,0
120,120,209383,1,0
112,144,209466,1,0
104,168,209549,1,0
96,192,209633,1,0
88,216,209716,1,0
80,240,209799,1,0
72,264,209883,1,0
64,288,209966,6,0,B|160:360|288:304,1,200,4|8
320,248,210466,1,0
400,192,210633,2,0,B|448:152|512:168,2,100,0|0|8
408,296,211133,6,0,B|328:384|208:320,1,200
176,240,211633,2,0,B|104:232|64:304,1,100,8|0
176,240,211966,2,0,B|304:240,1,100
224,152,212299,2,0,B|104:152,1,100,8|0
72,64,212633,6,0,B|280:64,1,200,0|8
352,120,213133,2,0,B|288:220|360:320,1,200
351,307,213633,1,8
451,308,213799,6,0,B|515:208|443:108,1,200
352,120,214299,1,8
352,120,214383,1,0
352,120,214466,2,0,B|256:180|148:112,1,200
176,216,214966,2,0,B|208:272|168:320,1,100,8|0
256,368,215299,5,4
336,312,215466,2,0,B|304:256|344:208,1,100,0|8
424,264,215799,2,0,B|200:264,1,200,4|4
112,96,216466,1,4
312,96,216799,5,0
256,184,216966,1,8
312,272,217133,1,0
408,272,217299,2,0,B|496:176|400:80,1,200,0|8
312,96,217799,1,0
256,184,217966,6,0,B|224:296|72:288,1,200,4|8
40,208,218466,1,0
32,184,218549,1,0
32,160,218633,1,0
64,64,218799,2,0,B|128:40|184:72,1,100,0|8
136,160,219133,6,0,B|192:192|256:144,1,100
231,159,219466,1,0
296,88,219633,2,0,B|336:40|416:56,2,100,8|0|0
328,184,220133,1,0
264,264,220299,1,8
264,264,220383,1,0
264,264,220466,1,0
160,264,220633,6,0,B|48:208|96:80,1,200,0|8
168,40,221133,1,0
264,24,221299,2,0,B|352:24,2,66.6666666666667,8|0|0
312,72,221633,2,0,B|384:96,2,66.6666666666667,8|0|0
264,120,221966,5,4
152,192,222188,1,0
264,264,222410,1,0
376,192,222633,1,4
488,264,222855,1,0
376,336,223077,1,0
264,264,223299,6,0,B|48:264,2,200,4|8|0
368,264,224133,1,0
368,264,224299,1,8
432,344,224466,6,0,B|512:256|440:152,1,200,4|0
352,200,224966,2,0,B|256:256|168:168,1,200,8|0
200,72,225466,2,0,B|240:32|320:56,1,100,0|8
264,144,225799,6,0,B|256:272|104:264,1,200,4|0
64,192,226299,1,8
64,192,226466,1,0
112,104,226633,2,0,B|216:32|336:128,1,200,0|8
299,102,227133,1,0
416,192,227299,5,0
368,304,227466,1,0
256,336,227633,1,0
144,304,227799,1,0
96,192,227966,1,0
144,80,228133,1,0
256,48,228299,1,0
368,80,228466,1,0
416,192,228633,6,0,B|192:192,1,200,0|4
56,336,229466,1,0
160,336,229633,1,8
256,336,229799,2,0,B|384:336|408:224,1,200
406,231,230299,1,8
316,168,230466,1,0
316,168,230633,2,0,B|280:216|308:264,1,100
472,152,230966,2,0,B|504:96|456:40,1,100,8|0
384,104,231299,6,0,B|272:104|192:24,1,200,0|8
201,33,231799,1,0
112,80,231966,1,0
48,160,232133,1,0
48,256,232299,1,8
112,336,232466,6,0,B|208:384|320:336,1,200
376,248,232966,2,0,B|276:248,1,100,8|0
112,176,233299,2,0,B|212:176,1,100
376,104,233633,2,0,B|276:104,1,100,8|0
176,104,233966,6,0,B|112:208|184:296,1,200,0|8
264,336,234466,1,0
264,336,234549,1,0
264,336,234633,2,0,B|376:336,1,100
464,336,234966,1,8
364,336,235133,6,0,B|368:208|488:184,1,200
473,187,235633,1,8
472,288,235799,2,0,B|416:184|288:192,1,200
216,224,236299,2,0,B|160:256|96:208,1,100,8|0
40,160,236633,5,4
112,88,236799,1,0
208,56,236966,1,8
304,64,237133,1,4
208,320,237466,1,4
392,104,237799,6,0,B|488:176|448:280,1,200,4|0
448,279,238216,1,0
448,279,238299,1,8
360,328,238466,1,0
272,280,238633,2,0,B|212:248|152:296,1,100
88,328,238966,1,8
88,304,239049,1,0
80,280,239133,1,0
64,264,239216,1,0
40,256,239299,6,0,B|48:144|160:112,1,200,4|8
160,216,239799,2,0,B|256:256|344:176,1,200
384,84,240299,1,8
280,96,240466,6,0,B|168:136|80:48,1,200
40,144,240966,2,0,B|40:208|112:232,1,100,8|0
192,248,241299,1,0
264,176,241466,1,0
360,216,241633,2,0,B|416:256|408:336,1,100,8|0
312,288,241966,2,0,B|208:352|104:264,1,200,0|8
124,280,242466,1,0
88,192,242633,5,0
120,160,242744,1,0
160,144,242855,1,0
208,136,242966,1,0
256,144,243077,1,0
296,164,243188,1,0
336,192,243299,6,0,B|336:336,2,133.333333333333,4|0|0
424,208,243966,2,0,B|424:56,2,133.333333333333,4|0|0
424,312,244633,6,0,B|320:360|224:304,1,200,4|8
264,216,245133,1,0
168,208,245299,2,0,B|48:224|48:352,1,200,0|8
144,312,245799,2,0,B|48:240|96:128,1,200,4|0
168,64,246299,1,8
216,152,246466,2,0,B|320:200|408:112,1,200
408,20,246966,1,8
316,56,247133,2,0,B|284:192|412:248,2,200,4|0|0
240,136,247966,5,0
224,152,248049,1,0
208,168,248133,1,0
192,184,248216,1,0
176,200,248299,1,0
160,216,248383,1,0
144,232,248466,1,0
128,248,248549,1,0
112,264,248633,1,4
256,192,249966,12,0,253799
