osu file format v13

[General]
AudioFilename: Tsubasa wa Pleasure Line.mp3
AudioLeadIn: 0
PreviewTime: 58516
Countdown: 0
SampleSet: Soft
StackLeniency: 0.7
Mode: 0
LetterboxInBreaks: 0
WidescreenStoryboard: 0

[Editor]
Bookmarks: 163182
DistanceSpacing: 0.6
BeatDivisor: 4
GridSize: 4
TimelineZoom: 3.099997

[Metadata]
Title:Tsubasa wa Pleasure Line
TitleUnicode:翼はPleasure Line
Artist:Kuribayashi Minami
ArtistUnicode:栗林みな実
Creator:Kibbleru
Version:Tsubasa
Source:クロノクルセイド
Tags:chrno crusade opening fycho wings kurono kuruseido chrono
BeatmapID:446346
BeatmapSetID:181877

[Difficulty]
HPDrainRate:7
CircleSize:4
OverallDifficulty:7.5
ApproachRate:9
SliderMultiplier:1.7
SliderTickRate:2

[Events]
//Background and Video events
0,0,"f moe girl 1.png",0,0
//Break Periods
2,83549,90082
//Storyboard Layer 0 (Background)
//Storyboard Layer 1 (Fail)
//Storyboard Layer 2 (Pass)
//Storyboard Layer 3 (Foreground)
//Storyboard Sound Samples
//Background Colour Transformations
3,100,163,162,255

[TimingPoints]
683,333.333333333333,4,2,1,50,1,0
3349,-153.846153846154,4,2,1,50,0,0
12682,-100,4,2,1,65,0,0
24682,-100,4,2,1,55,0,0
44516,-100,4,2,1,40,0,0
44599,-100,4,2,1,50,0,0
45849,-80,4,2,1,55,0,0
46349,-100,4,2,1,70,0,0
56682,-100,4,2,1,35,0,0
57016,-100,4,2,1,45,0,0
57349,-100,4,2,1,55,0,0
57682,-100,4,2,1,65,0,0
58016,-100,4,2,1,75,0,0
59349,-100,4,2,1,75,0,1
78682,-100,4,2,1,40,0,1
78849,-100,4,2,1,50,0,1
79016,-100,4,2,1,60,0,1
79182,-100,4,2,1,70,0,1
79349,-100,4,2,1,80,0,0
80682,-100,4,2,1,60,0,0
94016,-100,4,2,1,55,0,0
111182,-100,4,2,1,40,0,0
111266,-100,4,2,1,50,0,0
112516,-80,4,2,1,55,0,0
113016,-100,4,2,1,70,0,0
123349,-100,4,2,1,35,0,0
123682,-100,4,2,1,45,0,0
124016,-100,4,2,1,55,0,0
124349,-100,4,2,1,65,0,0
124682,-100,4,2,1,75,0,0
126016,-100,4,2,1,75,0,1
145182,-100,4,2,1,30,0,1
145349,-100,4,2,1,40,0,1
145516,-100,4,2,1,50,0,1
145682,-100,4,2,1,60,0,1
145849,-100,4,2,1,70,0,1
146016,-100,4,2,1,80,0,0
147349,-100,4,2,1,65,0,0
163182,-100,4,2,1,70,0,0
179349,-133.333333333333,4,2,1,50,0,0
187682,-100,4,2,1,70,0,0
205349,-100,4,2,1,40,0,0
205516,-100,4,2,1,50,0,0
205682,-100,4,2,1,60,0,0
205849,-100,4,2,1,70,0,0
206016,-100,4,2,1,80,0,0
207349,-80,4,2,1,50,0,0
207682,-100,4,2,1,80,0,0
209016,-133.333333333333,4,2,1,50,0,0
210016,-100,4,2,1,75,0,1
227516,-100,4,2,1,55,0,1
227849,-100,4,2,1,65,0,1
228182,-100,4,2,1,75,0,1
228682,-80,4,2,1,60,0,0
229016,-100,4,2,1,80,0,1
229516,-100,4,2,1,75,0,1
248016,-100,4,2,1,40,0,1
248182,-100,4,2,1,50,0,1
248349,-100,4,2,1,60,0,1
248516,-100,4,2,1,70,0,1
248682,-100,4,2,1,80,0,0
250016,-100,4,2,1,65,0,0

[Colours]
Combo1 : 134,111,244
Combo2 : 228,223,253
Combo3 : 249,225,142
Combo4 : 252,190,217

[HitObjects]
248,192,3349,6,0,P|276:245|252:292,1,110.499994941712,2|2,0:0|0:0,0:0:0:0:
184,152,3849,2,0,L|248:152|309:152,1,110.499994941712,2|2,0:0|0:0,0:0:0:0:
460,88,4516,6,0,P|481:147|460:200,1,110.499994941712,2|0,0:0|0:0,0:0:0:0:
372,120,5016,2,0,P|345:112|318:108,1,55.2499974708558,2|2,0:0|0:0,0:0:0:0:
372,120,5682,1,2,0:0:0:0:
196,84,6016,6,0,P|213:157|141:179,1,165.749992412568,2|0,0:0|0:0,0:0:0:0:
196,84,7016,2,0,P|226:75|256:68,1,55.2499974708558,2|2,0:0|0:0,0:0:0:0:
396,80,7349,6,0,P|369:121|308:120,1,110.499994941712,0|0,0:0|0:0,0:0:0:0:
453,149,7849,2,0,P|455:177|456:205,1,55.2499974708558,0|0,0:0|0:0,0:0:0:0:
392,272,8682,6,0,P|341:264|280:272,1,110.499994941712,2|2,0:0|0:0,0:0:0:0:
128,152,9182,2,0,P|178:159|240:152,1,110.499994941712,2|2,0:0|0:0,0:0:0:0:
368,140,9849,6,0,P|291:130|264:202,1,165.749992412568,2|2,0:0|0:0,0:0:0:0:
352,336,10516,2,0,L|352:284|348:225,1,110.499994941712,2|2,0:0|0:0,0:0:0:0:
368,140,11182,5,2,0:0:0:0:
256,192,11266,12,0,12849,0:0:0:0:
304,144,13349,6,0,L|312:200,2,56.6666666666667,0|0|0,0:0|0:0|0:0,0:0:0:0:
220,76,13682,2,0,L|204:136,2,56.6666666666667,0|0|0,0:0|0:0|0:0,0:0:0:0:
352,8,14016,6,0,P|408:12|440:112,1,170,12|10,0:1|0:0,0:0:0:0:
352,244,14516,2,0,P|348:196|352:140,1,85,0|10,0:0|0:1,0:0:0:0:
472,228,14849,1,8,0:1:0:0:
388,328,15016,1,10,0:0:0:0:
268,248,15182,6,0,P|204:244|168:248,1,85,8|0,0:1|0:0,0:0:0:0:
80,296,15516,1,0,0:0:0:0:
32,132,15682,2,0,P|116:135|201:131,1,170,10|10,0:0|0:1,0:0:0:0:
308,192,16182,1,8,0:1:0:0:
424,124,16349,2,0,P|425:76|421:32,1,85,10|0,0:0|0:0,0:0:0:0:
352,180,16682,6,0,P|296:240|336:340,1,170,10|10,0:1|0:0,0:0:0:0:
484,336,17182,1,0,0:0:0:0:
380,264,17349,1,10,0:1:0:0:
404,364,17516,1,8,0:1:0:0:
476,220,17682,1,10,0:0:0:0:
312,320,17849,6,0,P|269:324|224:320,1,85,8|0,0:1|0:0,0:0:0:0:
108,304,18182,1,8,0:1:0:0:
64,192,18349,2,0,P|67:155|67:95,1,85,10|0,0:0|0:0,0:0:0:0:
108,304,18682,1,10,0:1:0:0:
176,192,18849,1,8,0:1:0:0:
288,248,19016,2,0,L|392:256,1,85,10|0,0:0|0:0,0:0:0:0:
208,100,19349,6,0,P|204:132|204:276,1,170,10|10,0:1|0:0,0:0:0:0:
108,168,19849,2,0,P|52:164|4:172,1,85,0|10,0:0|0:1,0:0:0:0:
184,224,20182,1,8,0:1:0:0:
128,88,20349,1,10,0:0:0:0:
88,280,20516,1,8,0:1:0:0:
88,280,20849,5,8,0:1:0:0:
228,208,21016,2,0,P|288:200|336:204,1,85,10|0,0:0|0:0,0:0:0:0:
468,208,21349,1,10,0:1:0:0:
404,296,21516,1,10,0:1:0:0:
380,148,21682,1,8,0:0:0:0:
380,148,21849,6,0,P|384:96|288:80,1,170,12|8,0:1|0:1,0:0:0:0:
200,184,22349,2,0,P|144:188|92:180,1,85,10|0,0:0|0:0,0:0:0:0:
200,100,22682,1,10,0:1:0:0:
260,244,22849,1,10,0:1:0:0:
380,148,23016,1,8,0:0:0:0:
200,100,23182,1,10,0:1:0:0:
288,164,23516,5,8,0:1:0:0:
168,320,23682,1,4,0:3:0:0:
260,244,24016,5,4,0:0:0:0:
260,244,24182,1,12,0:0:0:0:
396,308,24682,6,0,P|408:252|324:184,1,170,12|10,0:1|0:0,0:0:0:0:
184,200,25182,1,10,0:1:0:0:
184,200,25516,1,8,0:1:0:0:
292,276,25682,2,0,P|296:336|296:368,1,85,0|0,0:0|0:0,0:0:0:0:
104,256,26016,5,10,0:1:0:0:
148,152,26182,1,0,0:0:0:0:
208,308,26349,1,10,0:0:0:0:
260,144,26516,1,10,0:1:0:0:
260,144,26849,1,8,0:1:0:0:
120,240,27016,2,0,P|56:240|16:232,1,85,10|0,0:0|0:0,0:0:0:0:
208,208,27349,6,0,P|264:228|344:160,1,170,10|10,0:1|0:0,0:0:0:0:
320,36,27849,1,10,0:1:0:0:
320,36,28182,1,8,0:1:0:0:
260,144,28349,1,8,0:0:0:0:
416,96,28516,1,0,0:0:0:0:
260,144,28682,6,0,P|219:132|176:128,1,85,10|0,0:1|0:0,0:0:0:0:
32,256,29016,2,0,P|76:256|116:249,1,85,10|10,0:0|0:1,0:0:0:0:
116,249,29516,1,8,0:1:0:0:
272,244,29682,1,8,0:0:0:0:
168,164,29849,1,0,0:0:0:0:
272,244,30016,6,0,P|352:208|424:260,1,170,10|10,0:1|0:0,0:0:0:0:
312,324,30516,1,10,0:1:0:0:
360,132,30682,1,0,0:0:0:0:
488,172,30849,1,8,0:1:0:0:
360,132,31016,2,0,P|312:128|256:132,1,85,8|0,0:0|0:0,0:0:0:0:
132,252,31349,6,0,P|128:196|132:156,1,85,10|0,0:1|0:0,0:0:0:0:
272,44,31682,2,0,P|276:100|272:140,1,85,10|10,0:0|0:1,0:0:0:0:
96,208,32016,2,0,P|92:152|96:112,1,85,0|8,0:0|0:1,0:0:0:0:
308,88,32349,2,0,P|312:144|308:184,1,85,8|0,0:0|0:0,0:0:0:0:
212,344,32682,6,0,B|228:256|192:256|212:176,1,170,10|10,0:1|0:0,0:0:0:0:
228,56,33182,1,10,0:1:0:0:
228,56,33516,1,8,0:1:0:0:
276,208,33682,1,8,0:0:0:0:
372,116,33849,1,8,0:1:0:0:
148,132,34016,5,8,0:1:0:0:
276,208,34182,1,8,0:1:0:0:
372,116,34349,1,8,0:1:0:0:
232,132,34682,5,0,0:0:0:0:
296,240,34849,1,0,0:0:0:0:
172,275,35016,2,0,P|170:318|173:360,1,85,8|0,0:0|0:0,0:0:0:0:
44,244,35349,6,0,P|49:159|48:74,1,170,10|10,0:1|0:0,0:0:0:0:
160,144,35849,1,10,0:1:0:0:
160,144,36182,1,8,0:1:0:0:
276,96,36349,2,0,P|324:88|360:92,1,85,8|0,0:0|0:0,0:0:0:0:
264,208,36682,5,10,0:1:0:0:
116,160,36849,1,8,0:1:0:0:
196,72,37016,1,10,0:0:0:0:
180,228,37182,1,10,0:1:0:0:
180,228,37516,1,8,0:1:0:0:
92,88,37682,2,0,P|88:32|92:0,1,85,8|0,0:0|0:0,0:0:0:0:
160,156,38016,6,0,P|151:237|78:273,1,170,10|10,0:1|0:0,0:0:0:0:
160,156,38516,1,10,0:1:0:0:
160,156,38849,1,8,0:1:0:0:
288,208,39016,1,8,0:0:0:0:
232,324,39182,1,0,0:0:0:0:
432,260,39349,6,0,P|352:256|248:256,1,170,10|10,0:1|0:0,0:0:0:0:
156,180,39849,1,10,0:1:0:0:
156,180,40182,1,8,0:1:0:0:
312,128,40349,2,0,P|316:80|312:36,1,85,8|0,0:0|0:0,0:0:0:0:
232,192,40682,6,0,B|252:244|252:244|248:312|240:357,1,170,10|10,0:1|0:0,0:0:0:0:
120,204,41182,2,0,P|120:144|116:108,1,85,10|0,0:1|0:0,0:0:0:0:
24,252,41516,1,8,0:1:0:0:
175,284,41682,2,0,P|218:280|260:279,1,85,8|0,0:0|0:0,0:0:0:0:
396,344,42016,6,0,P|372:296|452:216,1,170,10|10,0:1|0:0,0:0:0:0:
304,356,42516,2,0,P|260:359|220:359,1,85,10|0,0:1|0:0,0:0:0:0:
116,292,42849,1,8,0:1:0:0:
296,252,43016,2,0,P|300:196|300:160,1,85,8|0,0:0|0:0,0:0:0:0:
192,20,43349,6,0,P|159:94|209:157,1,170,10|10,0:1|0:0,0:0:0:0:
324,96,43849,1,10,0:1:0:0:
324,96,44182,1,8,0:1:0:0:
424,184,44349,1,8,0:0:0:0:
228,184,44516,6,0,B|192:180|192:180|172:196|172:196|140:200|105:196,1,127.5,4|0,0:0|0:0,0:0:0:0:
32,172,44849,1,10,0:1:0:0:
168,276,45016,1,10,0:1:0:0:
140,60,45349,5,10,0:1:0:0:
92,332,45516,1,10,0:1:0:0:
228,184,45849,6,0,P|280:152|348:168,1,106.25,2|8,0:0|0:1,0:0:0:0:
364,180,46099,2,0,P|408:184|440:180,2,53.125,8|8|8,0:1|0:1|0:1,0:0:0:0:
296,240,46349,5,8,0:0:0:0:
144,192,46682,2,0,P|144:136|152:96,1,85,0|8,0:0|0:3,0:0:0:0:
216,284,47016,2,0,L|208:380,1,85,8|0,0:0|0:0,0:0:0:0:
248,184,47349,6,0,P|300:176|344:176,1,85,12|0,0:1|0:0,0:0:0:0:
424,260,47682,1,10,0:0:0:0:
216,284,47849,2,0,P|156:272|112:276,1,85,10|0,0:1|0:0,0:0:0:0:
264,372,48182,1,8,0:1:0:0:
328,232,48349,2,0,P|332:176|332:132,1,85,8|0,0:0|0:0,0:0:0:0:
196,36,48682,6,0,P|160:92|208:172,1,170,12|10,0:1|0:0,0:0:0:0:
296,204,49182,2,0,P|220:204|120:208,1,170,10|8,0:1|0:1,0:0:0:0:
40,296,49682,1,8,0:0:0:0:
148,316,49849,6,0,P|140:252|52:184,1,170,12|8,0:1|0:1,0:0:0:0:
148,316,50349,2,0,P|191:311|233:311,1,85,8|0,0:0|0:0,0:0:0:0:
384,280,50682,1,8,0:1:0:0:
320,380,50849,1,8,0:1:0:0:
296,204,51016,2,0,P|292:161|293:119,1,85,8|0,0:0|0:0,0:0:0:0:
360,0,51349,6,0,P|319:70|238:66,1,170,10|10,0:1|0:0,0:0:0:0:
296,204,51849,2,0,P|304:256|300:296,1,85,10|0,0:1|0:0,0:0:0:0:
184,156,52182,1,8,0:1:0:0:
336,136,52349,2,0,L|424:152,1,85,8|0,0:0|0:0,0:0:0:0:
184,156,52682,6,0,P|124:164|92:164,1,85,10|0,0:1|0:0,0:0:0:0:
200,272,53016,1,10,0:0:0:0:
272,168,53182,2,0,P|276:120|284:68,1,85,10|0,0:1|0:0,0:0:0:0:
368,248,53516,1,8,0:1:0:0:
204,244,53682,2,0,P|140:248|100:252,1,85,8|4,0:0|0:0,0:0:0:0:
119,249,54182,5,8,0:1:0:0:
316,320,54349,1,8,0:0:0:0:
272,168,54516,1,12,0:1:0:0:
120,229,54849,5,8,0:1:0:0:
301,332,55016,1,8,0:0:0:0:
284,175,55182,1,12,0:1:0:0:
124,209,55516,5,8,0:1:0:0:
285,342,55682,1,8,0:0:0:0:
296,185,55849,1,12,0:1:0:0:
192,328,56182,5,8,0:1:0:0:
212,96,56349,1,8,0:0:0:0:
212,96,56432,1,8,0:0:0:0:
212,96,56516,1,8,0:0:0:0:
292,216,56682,5,8,0:1:0:0:
368,72,56849,1,8,0:1:0:0:
448,280,57016,1,8,0:1:0:0:
376,168,57182,1,8,0:1:0:0:
288,356,57349,5,8,0:1:0:0:
368,256,57516,1,8,0:1:0:0:
232,116,57682,1,8,0:1:0:0:
256,248,57849,1,8,0:1:0:0:
304,64,58016,5,12,0:1:0:0:
184,296,58182,1,12,0:1:0:0:
128,240,59349,6,0,P|160:196|96:104,1,170,12|10,0:1|0:0,0:0:0:0:
256,176,59849,2,0,P|298:178|340:173,1,85,0|10,0:0|0:1,0:0:0:0:
308,32,60182,1,8,0:1:0:0:
180,120,60349,1,10,0:0:0:0:
296,260,60516,6,0,L|304:356,1,85,8|0,0:1|0:0,0:0:0:0:
192,292,60849,1,8,0:1:0:0:
224,136,61016,2,0,P|232:76|240:36,1,85,10|0,0:0|0:0,0:0:0:0:
300,208,61349,1,2,0:1:0:0:
112,204,61516,1,0,0:1:0:0:
300,208,61682,2,0,P|349:200|397:204,1,85,10|0,0:0|0:0,0:0:0:0:
488,324,62016,6,0,B|468:236|504:236|489:155,1,170,10|10,0:1|0:0,0:0:0:0:
284,84,62516,1,0,0:0:0:0:
404,136,62682,1,10,0:1:0:0:
320,0,62849,1,8,0:1:0:0:
224,159,63016,2,0,P|222:202|225:244,1,85,10|8,0:0|0:1,0:0:0:0:
225,244,63516,5,10,0:1:0:0:
352,248,63682,1,10,0:0:0:0:
436,152,63849,1,2,0:0:0:0:
336,44,64016,5,10,0:1:0:0:
328,152,64182,1,10,0:1:0:0:
376,252,64349,1,10,0:0:0:0:
372,364,64516,1,2,0:0:0:0:
456,236,64682,6,0,P|428:188|320:192,1,170,10|10,0:1|0:0,0:0:0:0:
152,284,65182,1,0,0:0:0:0:
312,264,65349,1,10,0:1:0:0:
200,158,65516,1,8,0:1:0:0:
255,322,65682,1,10,0:0:0:0:
92,200,65849,6,0,P|49:196|7:195,1,85,8|0,0:1|0:0,0:0:0:0:
152,284,66182,1,8,0:1:0:0:
244,136,66349,2,0,P|296:128|336:140,1,85,10|0,0:0|0:0,0:0:0:0:
224,240,66682,1,10,0:1:0:0:
136,104,66849,1,8,0:1:0:0:
124,292,67016,2,0,P|120:348|120:376,1,85,10|0,0:0|0:0,0:0:0:0:
224,212,67349,5,10,0:1:0:0:
136,104,67516,1,2,0:0:0:0:
88,204,67682,1,10,0:0:0:0:
232,12,67849,1,4,0:1:0:0:
180,172,68182,2,0,P|176:232|180:276,1,85,12|8,0:1|0:0,0:0:0:0:
344,284,68516,1,12,0:1:0:0:
344,284,68849,5,8,0:1:0:0:
424,160,69016,2,0,P|424:112|420:64,1,85,10|0,0:0|0:0,0:0:0:0:
332,200,69349,1,10,0:1:0:0:
464,256,69516,1,8,0:1:0:0:
256,276,69682,1,10,0:0:0:0:
300,112,69849,1,0,0:0:0:0:
344,284,70016,6,0,P|303:355|221:362,1,170,12|10,0:1|0:0,0:0:0:0:
64,256,70516,2,0,P|64:213|56:168,1,85,0|10,0:0|0:1,0:0:0:0:
36,368,70849,1,8,0:1:0:0:
160,308,71016,1,10,0:0:0:0:
152,156,71182,6,0,P|155:113|156:71,1,85,8|0,0:1|0:0,0:0:0:0:
284,136,71516,1,8,0:1:0:0:
272,268,71682,2,0,P|264:312|276:352,1,85,10|0,0:0|0:0,0:0:0:0:
348,200,72016,1,10,0:1:0:0:
176,228,72182,1,8,0:1:0:0:
348,200,72349,2,0,L|452:184,1,85,10|0,0:0|0:0,0:0:0:0:
316,276,72682,6,0,P|276:236|308:132,1,170,10|10,0:1|0:0,0:0:0:0:
484,208,73182,1,0,0:0:0:0:
380,104,73349,1,10,0:1:0:0:
404,272,73516,1,8,0:1:0:0:
264,164,73682,2,0,P|221:159|179:162,1,85,10|0,0:0|0:0,0:0:0:0:
40,200,74016,6,0,P|36:136|35:72,2,127.5,4|2|2,0:0|0:0|0:0,0:0:0:0:
132,320,74682,2,0,P|152:268|220:284,2,127.5,4|2|2,0:0|0:0|0:0,0:0:0:0:
312,312,75349,6,0,P|316:264|316:220,1,85,12|0,0:1|0:0,0:0:0:0:
304,60,75682,1,10,0:0:0:0:
264,164,75849,1,0,0:0:0:0:
392,120,76016,1,10,0:1:0:0:
180,96,76182,1,8,0:1:0:0:
392,120,76349,2,0,P|456:120|488:128,1,85,10|12,0:0|0:1,0:0:0:0:
476,124,76849,5,8,0:1:0:0:
316,188,77016,2,0,P|260:180|212:180,1,85,10|0,0:0|0:0,0:0:0:0:
356,272,77349,1,10,0:1:0:0:
316,104,77516,1,8,0:1:0:0:
264,336,77682,1,10,0:0:0:0:
316,188,77849,1,4,0:0:0:0:
316,188,78182,5,8,0:1:0:0:
124,184,78349,2,0,L|24:192,1,85,8|0,0:0|0:0,0:0:0:0:
192,252,78682,1,8,0:0:0:0:
209,228,78766,1,8,0:0:0:0:
218,199,78849,1,8,0:0:0:0:
218,170,78932,1,8,0:0:0:0:
208,142,79016,1,8,0:0:0:0:
190,118,79099,1,8,0:0:0:0:
166,102,79182,1,8,0:0:0:0:
138,93,79266,1,8,0:0:0:0:
108,95,79349,5,8,0:0:0:0:
108,95,80016,2,0,L|96:155,2,56.6666666666667,0|0|0,0:0|0:0|0:0,0:0:0:0:
212,44,80349,2,0,L|220:108,2,56.6666666666667,0|0|0,0:0|0:0|0:0,0:0:0:0:
180,184,80682,5,12,0:1:0:0:
256,192,80766,12,4,83349,0:0:0:0:
212,48,90682,5,4,0:0:0:0:
212,48,90849,1,8,0:0:0:0:
308,84,91349,6,0,P|308:140|304:184,1,85,4|0,0:0|0:0,0:0:0:0:
184,180,92849,5,8,0:0:0:0:
184,180,92932,1,8,0:0:0:0:
184,180,93016,1,8,0:0:0:0:
248,312,93349,1,8,0:0:0:0:
256,276,93432,1,8,0:0:0:0:
264,240,93516,1,8,0:0:0:0:
348,356,93682,1,8,0:0:0:0:
356,320,93766,1,8,0:0:0:0:
364,284,93849,1,8,0:0:0:0:
372,248,93932,1,8,0:0:0:0:
380,212,94016,6,0,P|364:152|248:148,1,170,10|10,0:1|0:0,0:0:0:0:
176,232,94516,1,10,0:1:0:0:
176,232,94849,1,8,0:1:0:0:
336,228,95016,2,0,P|388:220|432:228,1,85,8|0,0:0|0:0,0:0:0:0:
247,288,95349,6,0,P|252:245|247:203,1,85,10|2,0:1|0:0,0:0:0:0:
136,324,95682,1,10,0:0:0:0:
324,348,95849,1,10,0:1:0:0:
336,228,96016,1,2,0:0:0:0:
424,304,96182,1,10,0:1:0:0:
220,296,96349,2,0,P|172:292|124:292,1,85,8|0,0:0|0:0,0:0:0:0:
336,272,96682,6,0,P|339:229|340:187,1,85,12|0,0:1|0:0,0:0:0:0:
304,48,97016,1,10,0:0:0:0:
256,160,97182,1,10,0:1:0:0:
256,160,97516,1,8,0:1:0:0:
432,192,97682,1,8,0:0:0:0:
356,112,97849,1,0,0:0:0:0:
228,232,98016,6,0,P|160:232|128:228,1,85,10|0,0:1|0:0,0:0:0:0:
288,152,98349,1,10,0:0:0:0:
336,260,98516,2,0,P|308:296|280:324,1,85,10|0,0:1|0:0,0:0:0:0:
288,152,98849,1,8,0:1:0:0:
404,196,99016,2,0,L|496:192,1,85,8|0,0:0|0:0,0:0:0:0:
296,16,99349,6,0,B|284:72|284:72|304:136|300:183,1,170,12|10,0:1|0:0,0:0:0:0:
240,304,99849,1,10,0:1:0:0:
240,304,100182,1,8,0:1:0:0:
156,376,100349,1,8,0:0:0:0:
192,208,100516,1,12,0:1:0:0:
192,208,100849,5,10,0:1:0:0:
263,128,101016,1,10,0:0:0:0:
372,108,101182,1,2,0:0:0:0:
304,292,101349,5,2,0:0:0:0:
268,168,101516,1,2,0:0:0:0:
228,48,101682,1,10,0:0:0:0:
228,48,101766,1,8,0:0:0:0:
228,48,101849,1,8,0:0:0:0:
228,48,101932,1,8,0:0:0:0:
228,48,102016,6,0,L|132:48,1,85,12|0,0:1|0:0,0:0:0:0:
268,168,102349,1,8,0:0:0:0:
344,64,102516,1,10,0:1:0:0:
344,64,102849,1,8,0:1:0:0:
396,204,103016,2,0,P|400:264|408:308,1,85,8|0,0:0|0:0,0:0:0:0:
300,180,103349,5,10,0:1:0:0:
424,124,103516,1,0,0:0:0:0:
240,64,103682,1,10,0:0:0:0:
304,272,103849,1,10,0:1:0:0:
284,144,104016,1,2,0:0:0:0:
200,228,104182,1,10,0:1:0:0:
388,244,104349,2,0,P|440:244|488:240,1,85,8|0,0:0|0:0,0:0:0:0:
240,164,104682,6,0,P|232:245|294:298,1,170,10|10,0:1|0:0,0:0:0:0:
240,164,105182,1,10,0:1:0:0:
240,164,105516,1,8,0:1:0:0:
396,224,105682,2,0,L|496:212,1,85,8|0,0:0|0:0,0:0:0:0:
504,344,106016,5,10,0:1:0:0:
320,284,106182,1,8,0:1:0:0:
412,124,106349,1,10,0:0:0:0:
440,296,106516,1,10,0:1:0:0:
368,216,106682,1,2,0:0:0:0:
336,360,106849,1,10,0:1:0:0:
288,184,107016,2,0,P|284:136|284:96,1,85,8|0,0:0|0:0,0:0:0:0:
204,244,107349,6,0,P|220:300|216:332,1,85,12|0,0:1|0:0,0:0:0:0:
136,156,107682,1,10,0:0:0:0:
288,160,107849,2,0,L|380:168,1,85,10|0,0:1|0:0,0:0:0:0:
288,264,108182,1,8,0:1:0:0:
208,88,108349,2,0,L|260:20,1,85,8|0,0:0|0:0,0:0:0:0:
204,244,108682,6,0,P|161:249|119:246,1,85,10|0,0:1|0:0,0:0:0:0:
296,112,109016,2,0,P|338:107|380:110,1,85,10|2,0:0|0:0,0:0:0:0:
144,208,109349,2,0,B|100:208|100:208|56:192,1,85,0|0,0:0|0:0,0:0:0:0:
356,147,109682,2,0,B|400:147|400:147|444:163,1,85,8|0,0:0|0:0,0:0:0:0:
288,232,110016,6,0,P|248:160|273:81,1,170,10|10,0:1|0:0,0:0:0:0:
288,232,110516,1,8,0:1:0:0:
288,232,110849,1,8,0:1:0:0:
320,108,111016,1,8,0:0:0:0:
112,164,111182,2,0,P|56:168|24:168,1,85,4|0,0:0|0:0,0:0:0:0:
216,84,111516,5,10,0:1:0:0:
272,244,111682,1,10,0:1:0:0:
296,32,112016,5,10,0:1:0:0:
188,284,112182,1,10,0:1:0:0:
360,292,112516,6,0,B|360:260|372:228|372:228|348:184,1,106.25,2|8,0:0|0:1,0:0:0:0:
336,152,112766,2,0,P|344:112|344:88,2,53.125,8|8|8,0:1|0:1|0:1,0:0:0:0:
280,220,113016,5,8,0:0:0:0:
156,180,113349,2,0,P|152:120|160:84,1,85,0|8,0:0|0:3,0:0:0:0:
188,284,113682,2,0,P|136:296|88:292,1,85,8|8,0:0|0:1,0:0:0:0:
280,108,114016,6,0,P|347:153|344:234,1,170,12|10,0:1|0:0,0:0:0:0:
260,328,114516,1,10,0:1:0:0:
260,328,114849,1,8,0:1:0:0:
268,192,115016,2,0,P|208:188|172:188,1,85,8|0,0:0|0:0,0:0:0:0:
124,88,115349,6,0,P|160:140|104:232,1,170,12|10,0:1|0:0,0:0:0:0:
12,248,115849,2,0,P|72:244|200:252,1,170,10|8,0:1|0:1,0:0:0:0:
332,316,116349,1,8,0:0:0:0:
319,236,116516,6,0,P|256:287|270:367,1,170,12|8,0:1|0:1,0:0:0:0:
416,220,117016,2,0,P|416:164|412:120,1,85,10|0,0:0|0:0,0:0:0:0:
248,104,117349,1,8,0:1:0:0:
284,224,117516,1,8,0:1:0:0:
248,104,117682,2,0,P|247:61|251:19,1,85,8|0,0:0|0:0,0:0:0:0:
116,200,118016,6,0,L|140:288,1,85,10|0,0:1|0:0,0:0:0:0:
292,160,118349,2,0,L|315:78,1,85,10|2,0:0|0:0,0:0:0:0:
132,108,118682,2,0,L|156:196,1,85,8|8,0:1|0:1,0:0:0:0:
308,252,119016,2,0,L|331:170,1,85,8|0,0:0|0:0,0:0:0:0:
256,332,119349,6,0,P|352:336|396:280,1,170,10|10,0:1|0:0,0:0:0:0:
292,132,119849,1,10,0:1:0:0:
308,252,120016,1,0,0:0:0:0:
208,208,120182,1,0,0:0:0:0:
384,184,120349,1,8,0:0:0:0:
164,112,120516,1,4,0:0:0:0:
164,112,120849,5,8,0:1:0:0:
296,232,121016,1,8,0:0:0:0:
288,32,121182,1,12,0:1:0:0:
157,120,121516,5,8,0:1:0:0:
299,228,121682,1,8,0:0:0:0:
273,29,121849,1,12,0:1:0:0:
151,129,122182,5,8,0:1:0:0:
302,224,122349,1,8,0:0:0:0:
259,28,122516,1,12,0:1:0:0:
146,138,122849,5,8,0:1:0:0:
404,176,123016,1,8,0:0:0:0:
404,176,123099,1,8,0:0:0:0:
404,176,123182,1,8,0:0:0:0:
260,140,123349,5,8,0:1:0:0:
252,288,123516,1,8,0:1:0:0:
292,128,123682,1,8,0:1:0:0:
236,284,123849,1,8,0:1:0:0:
324,116,124016,1,8,0:1:0:0:
220,280,124182,1,8,0:1:0:0:
356,104,124349,1,8,0:1:0:0:
204,276,124516,1,8,0:1:0:0:
248,48,124682,5,12,0:1:0:0:
264,316,124849,1,12,0:1:0:0:
232,160,126016,6,0,P|228:104|328:68,1,170,12|10,0:1|0:0,0:0:0:0:
200,252,126516,2,0,P|148:236|96:228,1,85,0|10,0:0|0:1,0:0:0:0:
252,332,126849,1,8,0:1:0:0:
354,240,127016,2,0,P|358:198|356:156,1,85,10|8,0:0|0:1,0:0:0:0:
356,156,127516,5,8,0:1:0:0:
172,272,127682,2,0,L|64:260,1,85,10|0,0:0|0:0,0:0:0:0:
236,188,128016,1,10,0:1:0:0:
304,332,128182,1,8,0:1:0:0:
352,120,128349,1,10,0:0:0:0:
288,252,128516,1,0,0:0:0:0:
156,136,128682,6,0,B|104:124|104:124|44:156|33:212,1,170,10|10,0:1|0:0,0:0:0:0:
208,280,129182,1,0,0:0:0:0:
156,136,129349,1,10,0:1:0:0:
112,236,129516,1,8,0:1:0:0:
296,156,129682,1,10,0:0:0:0:
128,324,129849,1,12,0:1:0:0:
128,324,130182,5,10,0:1:0:0:
132,204,130349,1,10,0:0:0:0:
136,84,130516,1,2,0:0:0:0:
28,136,130682,5,10,0:1:0:0:
128,180,130849,1,10,0:1:0:0:
236,160,131016,1,10,0:0:0:0:
300,72,131182,1,2,0:0:0:0:
236,256,131349,6,0,P|232:312|236:348,1,85,10|0,0:1|0:0,0:0:0:0:
392,152,131682,2,0,L|376:68,1,85,10|0,0:0|0:0,0:0:0:0:
480,168,132016,1,10,0:1:0:0:
320,232,132182,1,8,0:1:0:0:
460,284,132349,1,10,0:0:0:0:
300,192,132516,6,0,P|244:176|196:180,1,85,12|0,0:1|0:0,0:0:0:0:
152,280,132849,1,8,0:1:0:0:
36,220,133016,2,0,P|28:164|32:128,1,85,10|0,0:0|0:0,0:0:0:0:
168,20,133349,1,10,0:1:0:0:
136,176,133516,1,8,0:1:0:0:
64,16,133682,1,10,0:0:0:0:
164,104,133849,1,0,0:0:0:0:
332,32,134016,5,10,0:1:0:0:
272,152,134182,1,2,0:0:0:0:
168,20,134349,1,10,0:0:0:0:
192,288,134516,1,12,0:1:0:0:
260,196,134849,2,0,P|260:136|256:96,1,85,12|8,0:1|0:0,0:0:0:0:
128,232,135182,6,0,P|108:280|180:372,1,170,12|8,0:1|0:1,0:0:0:0:
340,272,135682,2,0,P|396:268|436:272,1,85,10|0,0:0|0:0,0:0:0:0:
244,316,136016,1,10,0:1:0:0:
276,180,136182,1,8,0:1:0:0:
168,88,136349,1,10,0:0:0:0:
216,236,136516,1,8,0:0:0:0:
344,108,136682,6,0,B|404:84|464:96|464:96|497:129,1,170,12|10,0:1|0:0,0:0:0:0:
360,224,137182,1,0,0:0:0:0:
264,64,137349,1,10,0:1:0:0:
432,180,137516,1,8,0:1:0:0:
224,72,137682,1,2,0:0:0:0:
280,296,137849,6,0,P|336:336|432:304,1,170,8|8,0:1|0:1,0:0:0:0:
340,128,138349,1,10,0:0:0:0:
360,240,138516,1,0,0:0:0:0:
216,112,138682,1,10,0:1:0:0:
168,244,138849,1,8,0:1:0:0:
216,112,139016,2,0,P|220:48|216:8,1,85,10|0,0:0|0:0,0:0:0:0:
408,40,139349,6,0,B|392:120|428:120|412:216,1,170,10|10,0:1|0:0,0:0:0:0:
496,112,139849,1,0,0:0:0:0:
312,120,140016,1,10,0:1:0:0:
388,244,140182,1,8,0:1:0:0:
192,184,140349,2,0,P|148:184|104:192,1,85,10|0,0:0|0:0,0:0:0:0:
308,224,140682,6,0,P|316:168|280:100,2,127.5,4|2|2,0:0|0:0|0:0,0:0:0:0:
192,84,141349,2,0,P|212:40|288:8,2,127.5,4|2|2,0:0|0:0|0:0,0:0:0:0:
216,232,142016,6,0,P|220:284|216:320,1,85,12|0,0:1|0:0,0:0:0:0:
144,144,142349,1,10,0:0:0:0:
288,188,142516,1,0,0:0:0:0:
104,232,142682,1,10,0:1:0:0:
224,128,142849,1,8,0:1:0:0:
52,84,143016,1,10,0:0:0:0:
300,108,143182,6,0,P|356:104|400:96,1,85,12|0,0:1|0:0,0:0:0:0:
244,16,143516,1,8,0:1:0:0:
116,92,143682,2,0,L|132:192,1,85,10|0,0:0|0:0,0:0:0:0:
164,364,144016,1,10,0:1:0:0:
208,216,144182,1,8,0:1:0:0:
88,268,144349,1,10,0:0:0:0:
312,340,144516,5,12,0:1:0:0:
312,340,144849,2,0,P|312:292|316:256,1,85,8|8,0:1|0:0,0:0:0:0:
420,48,145182,1,8,0:0:0:0:
387,38,145266,1,8,0:0:0:0:
353,39,145349,1,8,0:0:0:0:
321,50,145432,1,8,0:0:0:0:
295,72,145516,1,8,0:0:0:0:
277,100,145599,1,8,0:0:0:0:
268,133,145682,1,8,0:0:0:0:
270,166,145766,1,8,0:0:0:0:
283,198,145849,1,8,0:0:0:0:
305,223,145932,1,8,0:0:0:0:
334,241,146016,5,8,0:0:0:0:
400,172,147349,6,0,L|408:272,1,85,12|0,0:1|0:0,0:0:0:0:
406,256,147849,1,8,0:1:0:0:
224,156,148016,1,10,0:0:0:0:
288,280,148182,1,2,0:0:0:0:
332,116,148349,1,2,0:0:0:0:
112,108,148516,6,0,L|48:24,1,85,2|0,0:0|0:0,0:0:0:0:
140,224,148849,2,0,P|136:284|128:312,1,85,10|8,0:0|0:1,0:0:0:0:
224,100,149182,2,0,P|264:76|304:68,1,85,10|8,0:1|0:0,0:0:0:0:
276,216,149516,2,0,L|320:296,1,85,2|0,0:0|0:0,0:0:0:0:
224,376,149849,1,2,0:0:0:0:
200,176,150016,5,10,0:1:0:0:
296,124,150182,1,2,0:0:0:0:
404,140,150349,1,10,0:0:0:0:
472,228,150516,1,10,0:1:0:0:
308,216,150682,2,0,L|336:80,1,127.5,10|0,0:0|0:0,0:0:0:0:
344,40,151016,2,0,P|280:24|236:72,1,127.5,0|0,0:0|0:0,0:0:0:0:
208,136,151349,5,8,0:0:0:0:
128,308,151516,2,0,P|200:320|236:204,1,212.5,10|0,0:1|0:0,0:0:0:0:
208,136,152016,5,8,0:0:0:0:
176,356,152182,2,0,P|252:327|276:248,1,170,10|0,0:1|0:0,0:0:0:0:
320,40,152682,6,0,P|312:92|316:140,1,85,12|0,0:0|0:0,0:0:0:0:
356,236,153016,1,8,0:1:0:0:
412,124,153182,1,0,0:0:0:0:
204,104,153349,2,0,P|140:104|104:108,1,85,10|0,0:0|0:0,0:0:0:0:
264,200,153682,1,8,0:1:0:0:
336,95,153849,6,0,P|398:44|474:73,1,170,2|8,0:0|0:0,0:0:0:0:
316,192,154349,1,8,0:1:0:0:
228,72,154516,1,8,0:1:0:0:
316,192,154682,2,0,P|364:196|416:192,1,85,10|0,0:0|0:0,0:0:0:0:
240,288,155016,2,0,P|199:276|158:284,1,85,0|2,0:0|0:0,0:0:0:0:
56,340,155349,6,0,P|112:284|80:176,1,170,12|8,0:1|0:0,0:0:0:0:
7,160,155849,2,0,P|92:164|177:160,1,170,10|10,0:1|0:1,0:0:0:0:
292,60,156349,6,0,P|324:116|300:232,1,170,12|10,0:0|0:1,0:0:0:0:
216,151,156849,2,0,P|284:105|366:120,1,170,10|10,0:1|0:1,0:0:0:0:
264,336,157349,6,0,P|260:288|264:248,1,85,12|0,0:1|0:0,0:0:0:0:
336,72,157682,1,10,0:0:0:0:
356,200,157849,1,2,0:0:0:0:
176,148,158016,6,0,P|132:144|84:148,1,85,4|0,0:0|0:0,0:0:0:0:
91,146,158516,1,0,0:0:0:0:
292,224,158682,2,0,P|316:164|288:56,1,170,10|8,0:0|0:3,0:0:0:0:
212,260,159182,1,8,0:0:0:0:
400,216,159349,6,0,P|460:216|488:228,1,85,0|0,0:0|0:0,0:0:0:0:
204,152,159682,2,0,P|156:160|104:152,1,85,10|0,0:1|0:0,0:0:0:0:
304,112,160016,2,0,L|296:172,2,56.6666666666667,2|2|2,0:0|0:0|0:0,0:0:0:0:
388,56,160349,2,0,L|400:120,2,56.6666666666667,2|2|2,0:0|0:0|0:0,0:0:0:0:
216,16,160682,6,0,P|172:16|144:88,2,127.5,4|2|2,0:0|0:0|0:0,0:0:0:0:
232,140,161349,2,0,P|220:200|216:272,2,127.5,10|2|2,0:1|0:0|0:0,0:0:0:0:
344,224,162016,5,10,0:0:0:0:
120,204,162238,1,10,0:0:0:0:
320,76,162460,1,10,0:0:0:0:
204,328,162682,1,10,0:0:0:0:
192,160,163016,1,0,0:0:0:0:
280,107,163182,6,0,P|362:110|410:177,1,170,12|10,0:1|0:1,0:0:0:0:
192,160,163682,2,0,P|180:104|192:60,1,85,10|2,0:0|0:0,0:0:0:0:
312,200,164016,1,10,0:1:0:0:
128,216,164182,1,8,0:1:0:0:
280,108,164349,1,8,0:0:0:0:
168,296,164516,6,0,B|180:244|180:244|176:196,1,85,12|0,0:1|0:0,0:0:0:0:
172,184,164766,1,0,0:0:0:0:
168,156,164849,1,10,0:1:0:0:
164,128,164932,1,0,0:0:0:0:
148,104,165016,6,0,L|132:52,1,42.5,10|0,0:0|0:0,0:0:0:0:
220,4,165182,2,0,L|216:52,1,42.5,2|0,0:0|0:0,0:0:0:0:
236,68,165349,1,10,0:1:0:0:
260,84,165432,1,0,0:0:0:0:
288,88,165516,1,10,0:1:0:0:
316,84,165599,1,0,0:0:0:0:
344,76,165682,2,0,L|328:120,1,42.5,10|0,0:0|0:0,0:0:0:0:
308,196,165849,6,0,L|344:224,2,42.5,0|0|10,0:0|0:0|0:1,0:0:0:0:
280,184,166099,1,0,0:0:0:0:
252,184,166182,1,2,0:0:0:0:
224,192,166266,1,0,0:0:0:0:
200,208,166349,2,0,L|164:180,3,42.5,10|0|0|0,0:0|0:0|0:0|0:0,0:0:0:0:
80,112,166682,6,0,L|36:96,1,42.5,10|0,0:1|0:0,0:0:0:0:
120,32,166849,2,0,L|164:16,1,42.5,10|0,0:1|0:0,0:0:0:0:
184,112,167016,2,0,L|223:126,1,42.5,10|0,0:0|0:0,0:0:0:0:
312,136,167182,6,0,P|340:88|372:72,1,85,12|0,0:1|0:0,0:0:0:0:
452,180,167516,2,0,B|456:268,1,85,2|8,0:0|0:0,0:0:0:0:
380,364,167849,1,2,0:0:0:0:
292,296,168016,1,10,0:1:0:0:
368,256,168182,1,10,0:1:0:0:
276,376,168349,1,10,0:0:0:0:
228,228,168516,1,10,0:1:0:0:
120,71,168682,6,0,P|120:114|118:156,1,85,12|2,0:1|0:0,0:0:0:0:
200,344,169016,2,0,B|191:290|191:290|197:245,1,85,10|2,0:0|0:0,0:0:0:0:
240,132,169349,2,0,L|224:84,2,42.5,10|8|8,0:0|0:0|0:0,0:0:0:0:
324,224,169682,1,10,0:0:0:0:
404,320,169849,6,0,P|448:250|436:167,1,170,12|10,0:1|0:1,0:0:0:0:
324,223,170349,2,0,B|288:228|288:228|240:224,1,85,10|2,0:0|0:0,0:0:0:0:
88,244,170682,1,8,0:0:0:0:
115,223,170766,1,8,0:0:0:0:
134,196,170849,1,8,0:0:0:0:
144,163,170932,1,8,0:0:0:0:
144,130,171016,1,8,0:0:0:0:
133,97,171099,1,8,0:0:0:0:
113,70,171182,6,0,L|204:60,1,85,12|0,0:1|0:0,0:0:0:0:
332,88,171516,2,0,L|284:96,1,42.5,10|8,0:3|0:1,0:0:0:0:
248,172,171682,2,0,L|292:172,1,42.5,10|0,0:0|0:0,0:0:0:0:
388,152,171849,5,12,0:1:0:0:
408,176,171932,1,0,0:0:0:0:
420,204,172016,1,2,0:0:0:0:
420,232,172099,1,0,0:0:0:0:
412,260,172182,1,10,0:0:0:0:
396,284,172266,1,0,0:0:0:0:
368,300,172349,2,0,L|312:312,1,42.5,10|0,0:0|0:0,0:0:0:0:
215,251,172516,6,0,P|161:190|179:110,1,170,12|10,0:1|0:1,0:0:0:0:
208,84,172932,1,0,0:0:0:0:
208,84,173016,2,0,L|248:72,1,42.5,10|0,0:0|0:0,0:0:0:0:
352,76,173182,5,12,0:1:0:0:
336,108,173266,1,0,0:0:0:0:
328,140,173349,1,2,0:0:0:0:
328,172,173432,1,0,0:0:0:0:
336,204,173516,1,10,0:1:0:0:
304,220,173599,1,0,0:0:0:0:
276,240,173682,1,10,0:0:0:0:
256,268,173766,1,0,0:0:0:0:
244,300,173849,6,0,P|207:238|155:198,1,127.5,4|0,0:0|0:0,0:0:0:0:
80,192,174182,2,0,L|28:204,2,42.5,8|0|8,0:1|0:0|0:0,0:0:0:0:
268,120,174516,6,0,P|252:159|226:192,1,85,2|8,0:0|0:1,0:0:0:0:
72,216,174849,2,0,L|20:228,2,42.5,8|8|8,0:0|0:0|0:1,0:0:0:0:
316,264,175182,6,0,P|299:224|273:191,1,85,2|8,0:0|0:0,0:0:0:0:
64,240,175516,2,0,L|12:252,1,42.5,0|0,0:0|0:0,0:0:0:0:
80,312,175682,2,0,L|124:300,3,28.3333333333333,8|0|0|0,0:1|0:0|0:0|0:0,0:0:0:0:
256,336,176016,6,0,L|280:284,1,42.5,10|0,0:0|0:0,0:0:0:0:
240,200,176182,2,0,L|252:148,1,42.5,2|0,0:0|0:0,0:0:0:0:
360,200,176349,2,0,L|379:161,1,42.5,2|0,0:0|0:0,0:0:0:0:
348,68,176516,5,12,0:1:0:0:
256,192,176599,12,8,178016,0:1:0:0:
208,176,178682,5,2,0:0:0:0:
208,176,179349,5,2,0:0:0:0:
296,216,179516,1,2,0:0:0:0:
388,192,179682,1,2,0:0:0:0:
432,108,179849,2,0,P|428:64|432:32,1,63.7500024318696,2|0,0:0|0:0,0:0:0:0:
328,116,180182,5,2,0:0:0:0:
476,232,180349,1,2,0:0:0:0:
476,232,180682,5,2,0:0:0:0:
388,192,180849,1,2,0:0:0:0:
304,240,181016,1,2,0:0:0:0:
212,216,181182,2,0,P|203:185|199:153,1,63.7500024318696,2|0,0:0|0:0,0:0:0:0:
264,72,181516,5,2,0:0:0:0:
304,240,181682,1,2,0:0:0:0:
304,240,182016,5,2,0:0:0:0:
212,300,182182,1,2,0:0:0:0:
120,244,182349,1,2,0:0:0:0:
12,264,182516,2,0,P|8:304|12:352,1,63.7500024318696,2|0,0:0|0:0,0:0:0:0:
104,344,183016,5,2,0:0:0:0:
88,148,183182,1,2,0:0:0:0:
120,244,183349,5,2,0:0:0:0:
204,272,183516,1,2,0:0:0:0:
284,232,183682,1,2,0:0:0:0:
300,144,183849,2,0,P|300:88|296:64,1,63.7500024318696,2|0,0:0|0:0,0:0:0:0:
220,40,184182,5,2,0:0:0:0:
204,188,184349,2,0,P|204:244|208:268,1,63.7500024318696,2|0,0:0|0:0,0:0:0:0:
336,328,184682,5,2,0:0:0:0:
412,272,184849,1,0,0:0:0:0:
412,176,185016,1,2,0:0:0:0:
348,104,185182,2,0,L|284:100,1,63.7500024318696,2|0,0:0|0:0,0:0:0:0:
328,220,185516,5,2,0:0:0:0:
440,92,185682,2,0,P|443:60|444:28,1,63.7500024318696,2|0,0:0|0:0,0:0:0:0:
412,176,186016,5,2,0:0:0:0:
328,220,186182,1,2,0:0:0:0:
316,316,186349,1,2,0:0:0:0:
384,380,186516,1,2,0:0:0:0:
176,328,186682,2,0,L|152:348,2,21.2500008106232,8|8|8,0:0|0:0|0:1,0:0:0:0:
92,220,186905,2,0,L|152:228,3,42.5000016212464,8|8|8|0,0:3|0:3|0:3|0:3,0:0:0:0:
240,204,187349,6,0,P|300:188|352:208,1,95.6250036478044,8|0,0:3|0:0,0:0:0:0:
359,242,187682,6,0,B|344:160|388:160|370:75,1,170,12|8,0:1|0:0,0:0:0:0:
287,52,188182,2,0,P|305:131|382:160,1,170,12|8,0:1|0:1,0:0:0:0:
192,32,188682,6,0,P|132:12|108:96,1,170,12|8,0:0|0:1,0:0:0:0:
192,296,189182,2,0,P|192:228|196:120,1,170,12|0,0:1|0:0,0:0:0:0:
280,232,189682,1,8,0:0:0:0:
104,264,189849,1,8,0:1:0:0:
280,232,190016,6,0,P|344:244|380:256,1,85,12|0,0:1|0:0,0:0:0:0:
192,264,190349,2,0,P|152:232|104:224,1,85,10|0,0:0|0:0,0:0:0:0:
216,168,190682,1,10,0:1:0:0:
276,312,190849,1,8,0:1:0:0:
344,152,191016,2,0,L|360:68,1,85,10|8,0:0|0:1,0:0:0:0:
232,160,191349,6,0,P|232:208|336:252,1,170,10|10,0:1|0:0,0:0:0:0:
284,96,191849,1,0,0:0:0:0:
164,232,192016,1,10,0:1:0:0:
344,168,192182,1,8,0:1:0:0:
184,92,192349,2,0,P|142:89|101:97,1,85,10|0,0:0|0:0,0:0:0:0:
256,196,192682,6,0,B|312:208|376:204|376:204|428:184,1,170,10|10,0:1|0:0,0:0:0:0:
312,60,193182,1,0,0:0:0:0:
328,232,193349,1,10,0:1:0:0:
376,124,193516,1,8,0:1:0:0:
424,264,193682,1,10,0:0:0:0:
232,108,193849,6,0,P|188:112|180:228,1,170,12|8,0:1|0:1,0:0:0:0:
336,112,194349,2,0,P|344:64|340:24,1,85,10|0,0:0|0:0,0:0:0:0:
256,196,194682,1,10,0:1:0:0:
392,220,194849,1,8,0:1:0:0:
256,196,195016,2,0,L|172:203,1,85,10|0,0:0|0:0,0:0:0:0:
80,316,195349,6,0,P|108:268|20:212,1,170,10|10,0:1|0:0,0:0:0:0:
80,316,195849,1,0,0:0:0:0:
244,332,196016,1,10,0:1:0:0:
184,224,196182,1,8,0:1:0:0:
244,332,196349,2,0,P|316:340|348:336,1,85,10|0,0:0|0:0,0:0:0:0:
192,252,196682,6,0,L|148:344,1,85,10|0,0:1|0:0,0:0:0:0:
272,184,197016,2,0,L|256:92,1,85,10|0,0:0|0:0,0:0:0:0:
312,264,197349,2,0,L|412:248,1,85,10|8,0:1|0:1,0:0:0:0:
180,168,197682,2,0,P|132:164|96:176,1,85,10|0,0:0|0:0,0:0:0:0:
312,264,198016,6,0,P|316:228|316:88,1,170,10|10,0:1|0:0,0:0:0:0:
316,94,198682,1,10,0:1:0:0:
224,232,198849,1,8,0:1:0:0:
384,256,199016,1,10,0:0:0:0:
196,192,199182,1,12,0:1:0:0:
196,192,199516,5,8,0:1:0:0:
280,320,199682,1,10,0:0:0:0:
312,160,199849,1,0,0:0:0:0:
208,272,200016,1,10,0:1:0:0:
272,152,200182,1,8,0:1:0:0:
392,208,200349,1,10,0:0:0:0:
208,272,200516,6,0,P|152:276|104:272,1,85,12|0,0:1|0:0,0:0:0:0:
264,184,200849,1,8,0:1:0:0:
368,268,201016,2,0,L|380:168,1,85,10|0,0:0|0:0,0:0:0:0:
280,320,201349,1,10,0:1:0:0:
424,328,201516,1,8,0:1:0:0:
276,196,201682,2,0,P|228:192|172:196,1,85,10|0,0:0|0:0,0:0:0:0:
300,284,202016,5,10,0:1:0:0:
360,164,202182,1,0,0:0:0:0:
424,280,202349,2,0,L|424:384,1,85,10|0,0:0|0:0,0:0:0:0:
264,280,202682,1,10,0:1:0:0:
248,116,202849,1,8,0:1:0:0:
360,164,203016,1,10,0:0:0:0:
148,184,203182,6,0,P|100:188|60:184,1,85,12|0,0:1|0:0,0:0:0:0:
220,80,203516,1,8,0:1:0:0:
272,232,203682,2,0,P|276:288|276:320,1,85,8|0,0:0|0:0,0:0:0:0:
220,164,204016,1,10,0:1:0:0:
328,288,204182,1,8,0:1:0:0:
340,84,204349,1,10,0:0:0:0:
272,232,204516,1,4,0:0:0:0:
272,232,204849,5,8,0:1:0:0:
432,192,205016,1,8,0:0:0:0:
280,112,205349,1,8,0:0:0:0:
253,125,205432,1,8,0:0:0:0:
223,127,205516,1,8,0:0:0:0:
195,117,205599,1,8,0:0:0:0:
167,98,205682,1,8,0:0:0:0:
148,120,205766,1,8,0:0:0:0:
122,135,205849,1,8,0:0:0:0:
93,139,205932,1,8,0:0:0:0:
64,132,206016,5,12,0:0:0:0:
296,60,207349,6,0,B|312:88|312:88|296:112|296:112|320:140|320:140|336:200|305:251,1,212.5,0|4,0:0|0:0,0:0:0:0:
224,304,208182,5,8,0:1:0:0:
192,180,208349,1,8,0:1:0:0:
332,260,208516,1,12,0:1:0:0:
124,224,209016,6,0,P|120:192|119:160,1,63.7500024318696,0|0,0:0|0:0,0:0:0:0:
104,128,209266,1,8,0:0:0:0:
95,97,209349,1,8,0:0:0:0:
104,67,209432,1,8,0:0:0:0:
128,47,209516,1,8,0:0:0:0:
159,44,209599,1,8,0:0:0:0:
187,59,209682,2,0,P|256:64|304:60,1,95.6250036478044,8|0,0:3|0:0,0:0:0:0:
324,4,210016,6,0,P|288:48|340:136,1,170,12|10,0:1|0:0,0:0:0:0:
452,132,210516,1,0,0:0:0:0:
296,228,210682,1,10,0:1:0:0:
368,64,210849,1,8,0:1:0:0:
384,244,211016,2,0,P|384:296|380:344,1,85,10|4,0:0|0:0,0:0:0:0:
384,244,211516,5,10,0:1:0:0:
296,176,211682,1,10,0:0:0:0:
184,188,211849,1,2,0:0:0:0:
264,336,212016,5,10,0:1:0:0:
260,216,212182,1,10,0:1:0:0:
304,104,212349,1,10,0:0:0:0:
220,20,212516,1,2,0:0:0:0:
100,160,212682,6,0,P|96:212|192:272,1,170,10|10,0:1|0:0,0:0:0:0:
328,252,213182,1,0,0:0:0:0:
184,188,213349,1,10,0:1:0:0:
264,324,213516,1,8,0:1:0:0:
304,128,213682,1,10,0:0:0:0:
404,304,213849,1,8,0:1:0:0:
404,304,214182,5,8,0:1:0:0:
216,220,214349,2,0,L|120:236,1,85,10|0,0:0|0:0,0:0:0:0:
260,128,214682,1,10,0:1:0:0:
280,284,214849,1,8,0:1:0:0:
260,128,215016,2,0,P|256:72|260:36,1,85,10|0,0:0|0:0,0:0:0:0:
336,204,215349,5,10,0:1:0:0:
176,132,215516,1,0,0:0:0:0:
128,256,215682,1,10,0:0:0:0:
344,124,215849,2,0,P|392:120|436:124,1,85,12|0,0:1|0:0,0:0:0:0:
240,204,216182,2,0,P|180:188|136:192,1,85,12|8,0:1|0:0,0:0:0:0:
348,288,216516,6,0,B|328:236|328:236|344:192|344:124,1,170,12|8,0:1|0:1,0:0:0:0:
224,232,217016,2,0,P|176:248|136:260,1,85,2|0,0:0|0:0,0:0:0:0:
256,128,217349,1,10,0:1:0:0:
440,224,217516,1,8,0:1:0:0:
296,264,217682,1,10,0:0:0:0:
356,108,217849,1,8,0:0:0:0:
296,264,218016,6,0,P|252:304|156:272,1,170,12|10,0:1|0:0,0:0:0:0:
96,112,218516,2,0,P|96:154|93:196,1,85,0|10,0:0|0:1,0:0:0:0:
4,80,218849,1,8,0:1:0:0:
136,0,219016,1,10,0:0:0:0:
208,144,219182,1,10,0:1:0:0:
208,144,219516,5,8,0:1:0:0:
364,196,219682,2,0,P|416:200|452:192,1,85,10|0,0:0|0:0,0:0:0:0:
288,124,220016,1,10,0:1:0:0:
292,276,220182,1,8,0:1:0:0:
140,168,220349,2,0,L|128:72,1,85,10|0,0:0|0:0,0:0:0:0:
44,256,220682,6,0,P|128:259|213:266,1,170,10|10,0:1|0:0,0:0:0:0:
352,232,221182,1,0,0:0:0:0:
296,96,221349,2,0,L|280:36,2,56.6666666666667,8|8|8,0:0|0:0|0:0,0:0:0:0:
352,232,221682,2,0,L|388:188,2,56.6666666666667,8|8|8,0:0|0:0|0:0,0:0:0:0:
200,156,222016,6,0,P|144:144|68:176,2,127.5,4|2|2,0:0|0:0|0:0,0:0:0:0:
224,272,222682,2,0,P|232:336|300:336,2,127.5,4|2|2,0:0|0:0|0:0,0:0:0:0:
308,88,223349,6,0,P|312:152|304:268,1,170,12|10,0:1|0:0,0:0:0:0:
184,116,223849,2,0,P|188:64|188:24,1,85,0|10,0:0|0:1,0:0:0:0:
68,160,224182,1,8,0:1:0:0:
200,208,224349,2,0,P|260:200|296:204,1,85,10|12,0:0|0:1,0:0:0:0:
284,201,224849,5,8,0:1:0:0:
456,260,225016,2,0,L|464:164,1,85,10|0,0:0|0:0,0:0:0:0:
336,288,225349,1,10,0:1:0:0:
480,344,225516,1,8,0:1:0:0:
376,176,225682,1,10,0:0:0:0:
396,352,225849,1,12,0:1:0:0:
396,352,226182,5,0,0:1:0:0:
292,132,226349,1,10,0:0:0:0:
292,132,226682,1,10,0:1:0:0:
244,264,226849,1,8,0:1:0:0:
376,232,227016,1,10,0:0:0:0:
184,144,227182,2,0,L|92:152,1,85,12|0,0:1|0:0,0:0:0:0:
376,148,227516,6,0,L|396:56,1,85,8|8,0:0|0:0,0:0:0:0:
296,228,227849,2,0,P|300:284|312:324,1,85,8|8,0:0|0:0,0:0:0:0:
224,136,228182,2,0,P|211:95|190:58,2,85,8|8|8,0:0|0:0|0:0,0:0:0:0:
168,264,228682,6,0,B|224:300|288:272|288:272|312:240|312:240|336:252|368:256,1,212.5,0|4,0:0|0:0,0:0:0:0:
360,104,229516,5,8,0:1:0:0:
236,196,229682,1,8,0:1:0:0:
380,264,229849,1,12,0:1:0:0:
380,264,230182,5,8,0:1:0:0:
168,264,230349,2,0,P|108:264|64:272,1,85,10|0,0:0|0:0,0:0:0:0:
236,168,230682,1,10,0:1:0:0:
304,320,230849,1,8,0:1:0:0:
352,152,231016,2,0,L|360:60,1,85,10|0,0:0|0:0,0:0:0:0:
240,200,231349,5,10,0:1:0:0:
380,264,231516,1,0,0:0:0:0:
256,104,231682,1,10,0:0:0:0:
272,276,231849,1,0,0:0:0:0:
144,172,232016,1,10,0:1:0:0:
340,192,232182,1,8,0:1:0:0:
320,32,232349,1,10,0:0:0:0:
240,200,232516,1,4,0:0:0:0:
240,200,232849,5,10,0:1:0:0:
360,208,233016,1,10,0:0:0:0:
440,120,233182,1,2,0:0:0:0:
316,48,233349,5,10,0:1:0:0:
344,156,233516,1,10,0:1:0:0:
308,260,233682,1,10,0:0:0:0:
392,332,233849,1,2,0:0:0:0:
196,264,234016,6,0,P|148:256|68:344,1,170,10|10,0:1|0:0,0:0:0:0:
44,144,234516,2,0,P|48:76|44:44,1,85,0|10,0:0|0:1,0:0:0:0:
124,216,234849,1,8,0:1:0:0:
224,112,235016,2,0,L|320:128,1,85,10|10,0:0|0:1,0:0:0:0:
307,125,235516,5,8,0:1:0:0:
456,236,235682,2,0,P|460:176|456:136,1,85,10|0,0:0|0:0,0:0:0:0:
348,268,236016,1,10,0:1:0:0:
488,316,236182,1,8,0:1:0:0:
348,268,236349,2,0,P|305:267|263:270,1,85,10|0,0:0|0:0,0:0:0:0:
36,272,236682,5,10,0:1:0:0:
188,216,236849,1,0,0:0:0:0:
172,344,237016,1,10,0:0:0:0:
112,80,237182,1,12,0:1:0:0:
244,120,237516,2,0,P|312:124|344:120,1,85,12|8,0:1|0:0,0:0:0:0:
188,216,237849,6,0,P|148:176|40:192,1,170,12|8,0:1|0:1,0:0:0:0:
268,300,238349,2,0,P|272:248|284:204,1,85,10|0,0:0|0:0,0:0:0:0:
280,20,238682,1,8,0:1:0:0:
352,164,238849,1,8,0:1:0:0:
176,132,239016,1,10,0:0:0:0:
176,132,239099,1,8,0:0:0:0:
176,132,239182,1,8,0:0:0:0:
432,84,239349,6,0,P|464:160|434:237,1,170,12|10,0:1|0:0,0:0:0:0:
252,128,239849,2,0,P|252:85|259:43,1,85,0|10,0:0|0:1,0:0:0:0:
352,164,240182,1,8,0:1:0:0:
172,184,240349,2,0,L|88:168,1,85,10|10,0:0|0:1,0:0:0:0:
88,168,240849,5,8,0:1:0:0:
232,264,241016,2,0,P|292:252|328:256,1,85,10|0,0:0|0:0,0:0:0:0:
132,296,241349,1,10,0:1:0:0:
240,168,241516,1,8,0:1:0:0:
288,340,241682,1,10,0:0:0:0:
332,164,241849,1,0,0:0:0:0:
156,208,242016,6,0,P|112:216|60:208,1,85,10|0,0:1|0:0,0:0:0:0:
200,100,242349,1,10,0:0:0:0:
248,256,242516,1,2,0:0:0:0:
292,56,242682,2,0,L|300:112,1,42.5,8|8,0:3|0:3,0:0:0:0:
212,192,242849,2,0,L|224:144,1,42.5,8|8,0:3|0:3,0:0:0:0:
360,164,243016,2,0,L|448:172,1,85,8|0,0:3|0:0,0:0:0:0:
260,168,243349,6,0,B|256:128|256:128|272:84|320:52,2,127.5,4|2|2,0:0|0:0|0:0,0:0:0:0:
232,296,244016,2,0,B|200:288|200:288|172:296|172:296|133:288|101:288,2,127.5,4|2|2,0:0|0:0|0:0,0:0:0:0:
384,336,244682,6,0,P|344:304|392:192,1,170,12|10,0:1|0:0,0:0:0:0:
384,336,245182,1,0,0:0:0:0:
264,192,245349,1,10,0:1:0:0:
412,264,245516,1,8,0:1:0:0:
352,88,245682,1,10,0:0:0:0:
288,268,245849,1,12,0:1:0:0:
288,268,246182,5,8,0:1:0:0:
212,120,246349,2,0,P|208:72|208:32,1,85,10|0,0:0|0:0,0:0:0:0:
308,184,246682,1,10,0:1:0:0:
168,260,246849,1,8,0:1:0:0:
124,92,247016,1,10,0:0:0:0:
272,256,247182,1,12,0:1:0:0:
272,256,247516,5,8,0:1:0:0:
148,136,247682,2,0,P|105:132|63:131,1,85,8|0,0:0|0:0,0:0:0:0:
208,200,248016,1,8,0:0:0:0:
225,223,248099,1,8,0:0:0:0:
248,242,248182,1,8,0:0:0:0:
276,253,248266,1,8,0:0:0:0:
305,256,248349,1,8,0:0:0:0:
335,251,248432,1,8,0:0:0:0:
361,238,248516,1,8,0:0:0:0:
384,218,248599,1,8,0:0:0:0:
399,193,248682,5,12,0:0:0:0:
304,152,249349,2,0,L|316:92,2,56.6666666666667,0|0|0,0:0|0:0|0:0,0:0:0:0:
204,192,249682,2,0,L|192:132,2,56.6666666666667,0|0|0,0:0|0:0|0:0,0:0:0:0:
256,284,250016,6,0,B|244:320|256:348|256:348|312:296|312:296|376:308|376:308|336:256|336:256|400:252|464:228|464:228|388:220|352:188|352:188|416:180|460:144|500:56|500:56|396:132|324:92|324:92|304:144|272:168|272:168|256:212|256:212|240:168|240:168|208:144|188:92|188:92|116:132|12:56|12:56|52:144|96:180|160:188|160:188|124:220|48:228|48:228|112:252|176:256|176:256|136:308|136:308|169:301,1,1955,12|12,0:1|0:1,0:0:0:0:
