osu file format v13

[General]
AudioFilename: True Blue Traveler.mp3
AudioLeadIn: 0
PreviewTime: 56999
Countdown: 0
SampleSet: Normal
StackLeniency: 0.7
Mode: 0
LetterboxInBreaks: 1
WidescreenStoryboard: 1

[Editor]
DistanceSpacing: 0.8
BeatDivisor: 4
GridSize: 8
TimelineZoom: 1

[Metadata]
Title:True Blue Traveler (TV Size)
TitleUnicode:True Blue Traveler (TV Size)
Artist:Kuribayashi Minami
ArtistUnicode:Kuribayashi Minami
Creator:DJ Yashiro
Version:Normal
Source:Infinite Stratos Season 2
Tags:
BeatmapID:318684
BeatmapSetID:124985

[Difficulty]
HPDrainRate:3
CircleSize:2
OverallDifficulty:3
ApproachRate:3
SliderMultiplier:1.4
SliderTickRate:1

[Events]
//Background and Video events
0,0,"263733-aliya06.jpg",0,0
//Break Periods
2,12050,21704
//Storyboard Layer 0 (Background)
//Storyboard Layer 1 (Fail)
//Storyboard Layer 2 (Pass)
//Storyboard Layer 3 (Foreground)
//Storyboard Sound Samples
//Background Colour Transformations
3,100,163,162,255

[TimingPoints]
556,352.941176470588,4,1,0,100,1,0
2144,-133.333333333333,4,1,0,5,0,0
2850,-133.333333333333,4,1,0,65,0,0
4791,-200,4,1,0,65,0,0
5321,-100,4,1,0,65,0,0
5497,-200,4,1,0,65,0,0
6027,-133.333333333333,4,2,0,65,0,0
8850,-133.333333333333,4,1,0,5,0,0
10526,-100,4,1,0,5,0,0
10615,-100,4,1,0,65,0,0
12026,-50,4,1,0,65,0,0
16262,-50,4,1,0,85,0,0
23144,-100,4,2,0,65,0,0
31615,-100,4,1,0,65,0,0
31791,-100,4,1,0,65,0,0
34262,-100,4,1,0,65,0,0
34438,-100,4,1,0,65,0,0
39379,-100,4,1,0,75,0,0
42203,-100,4,1,0,65,0,0
46262,-100,4,1,0,65,0,0
47850,-100,4,1,0,65,0,0
57026,-100,4,1,0,65,0,1
57203,-100,4,1,0,65,0,1
59850,-100,4,1,0,65,0,1
62674,-100,4,1,0,65,0,1
67968,-100,4,1,0,65,0,0
68321,-100,4,1,0,65,0,1
72379,-100,4,1,0,65,0,1
73085,-100,4,1,0,65,0,1
73438,-100,4,1,0,65,0,1
76262,-100,4,1,0,65,0,1
76791,-100,4,1,0,65,0,0
77144,-125,4,1,0,65,0,0
77674,-133.333333333333,4,1,0,65,0,0
78203,-166.666666666667,4,1,0,65,0,0
79085,-100,4,1,0,65,0,0

[Colours]
Combo1 : 255,255,255
Combo2 : 0,255,255
Combo3 : 18,124,255
Combo4 : 255,0,0
Combo5 : 255,128,64
Combo6 : 255,255,0

[HitObjects]
88,104,556,6,0,P|176:192|272:216,1,210.000008010865
368,192,1615,1,0,0:0:0:0:
368,88,1968,1,2,0:0:0:0:
72,136,3026,5,0,0:0:0:0:
72,248,3379,2,0,P|160:288|272:296,1,210.000008010865,0|0,0:0|0:0,0:0:0:0:
368,272,4438,1,0,0:0:0:0:
400,184,4791,1,0,0:0:0:0:
304,128,5144,2,8,L|304:176,2,35
224,48,6203,6,0,L|224:208,1,157.500006008148
96,288,7261,2,0,L|272:288,1,157.500006008148
336,240,8320,2,0,L|360:184,2,52.5000020027161,0|0|0,0:0|0:0|0:0,0:0:0:0:
240,264,8850,2,0,B|32:264|32:264|48:136|112:64|208:40|240:40,1,525.000020027161
256,192,10791,12,0,11850,0:0:0:0:
80,144,23144,6,0,P|144:208|200:224,1,140,0|0,0:0|0:0,0:0:0:0:
304,224,23850,1,0,0:0:0:0:
416,160,24203,2,0,P|360:80|312:56,1,140,0|0,0:0|0:0,0:0:0:0:
216,96,24909,5,0,0:0:0:0:
112,128,25262,2,8,L|112:224,2,70
168,224,25968,2,0,L|320:224,1,140
416,256,26674,2,0,L|416:104,1,140
352,24,27379,2,0,L|192:24,1,140,2|2,0:0|0:0,0:0:0:0:
152,176,28791,6,0,L|152:328,1,140
256,296,29497,2,0,P|320:224|376:216,1,140
352,128,30203,2,0,P|272:104|248:24,1,140
160,56,30909,2,0,P|112:120|32:128,1,140
136,216,31615,5,0,0:0:0:0:
216,296,31968,1,0,0:0:0:0:
296,216,32321,1,0,0:0:0:0:
216,136,32674,1,0,0:0:0:0:
80,232,34438,6,0,P|128:288|216:288,1,140,4|8,0:0|0:0,0:0:0:0:
336,288,35144,2,0,P|296:224|216:208,1,140,0|8,0:0|0:0,0:0:0:0:
144,144,35850,1,0,0:0:0:0:
256,144,36203,1,8,0:0:0:0:
280,64,36556,2,0,L|112:64,2,140,0|8|0,0:0|0:0|0:0,0:0:0:0:
392,64,37615,2,0,L|392:224,1,140,8|0,0:0|0:0,0:0:0:0:
400,320,38321,2,0,L|256:320,2,140,8|0|8,0:0|0:0|0:0,0:0:0:0:
424,144,39732,5,0,0:0:0:0:
320,144,40085,1,0,0:0:0:0:
208,144,40438,2,0,L|56:144,1,140,8|0,0:0|0:0,0:0:0:0:
64,232,41144,1,8,0:0:0:0:
64,328,41497,1,0,0:0:0:0:
168,328,41850,2,0,L|336:328,1,140,8|0,0:0|0:0,0:0:0:0:
376,248,42556,1,8,0:0:0:0:
432,144,42909,5,0,0:0:0:0:
64,144,43968,2,2,L|64:288,2,140,8|0|8,0:0|0:0|0:0,0:0:0:0:
200,144,45026,1,0,0:0:0:0:
344,144,45379,1,0,0:0:0:0:
272,256,45732,1,0,0:0:0:0:
376,56,46438,6,0,B|304:-16|168:-16|120:64,1,280
128,280,47850,6,0,B|200:352|336:352|384:272,1,280
256,200,48909,2,0,L|256:56,2,140
184,304,49968,2,2,L|328:304,2,140
168,192,51026,1,0,0:0:0:0:
208,112,51379,5,0,0:0:0:0:
256,40,51732,1,0,0:0:0:0:
304,112,52085,1,0,0:0:0:0:
344,192,52438,1,0,0:0:0:0:
256,192,52791,1,4,0:0:0:0:
240,288,53144,6,0,L|80:288,1,140
104,200,53850,2,0,L|104:48,1,140
192,48,54556,2,0,L|336:48,1,140
336,128,55262,2,0,L|336:296,1,140
56,160,57026,6,0,P|96:112|184:56,1,140,0|12,0:0|0:0,0:0:0:0:
184,168,57732,2,0,P|256:232|320:256,1,140,0|12,0:0|0:0,0:0:0:0:
304,120,58438,2,0,P|384:80|464:72,1,140,8|12,0:0|0:0,0:0:0:0:
448,208,59144,1,8,0:0:0:0:
360,296,59497,1,0,0:0:0:0:
240,304,59850,1,8,0:0:0:0:
128,312,60203,6,0,P|64:232|72:192,2,140,0|8|4,0:0|0:0|0:0,0:0:0:0:
224,200,61262,5,14,0:0:0:0:
328,128,61615,1,2,0:0:0:0:
464,128,61968,1,6,0:0:0:0:
408,296,62674,6,0,P|320:280|272:224,1,140,0|8,0:0|0:0,0:0:0:0:
192,216,63379,2,0,L|192:56,1,140,0|8,0:0|0:0,0:0:0:0:
296,104,64085,2,0,L|448:104,2,140,0|8|0,0:0|0:0|0:0,0:0:0:0:
64,96,65497,6,0,L|64:248,1,140
176,296,66203,1,0,0:0:0:0:
312,288,66556,1,0,0:0:0:0:
400,184,66909,1,0,0:0:0:0:
272,64,67968,6,0,L|272:160,2,70,2|2|2,0:0|0:0|0:0,0:0:0:0:
144,120,68674,1,2,0:0:0:0:
144,232,69026,1,12,0:0:0:0:
248,304,69379,1,2,0:0:0:0:
336,232,69732,1,12,0:0:0:0:
336,120,70085,1,2,0:0:0:0:
240,88,70438,2,0,L|240:240,2,140,0|0|8,0:0|0:0|0:0,0:0:0:0:
352,80,71497,6,0,L|496:80,1,140
360,192,72203,2,0,L|528:192,1,140
308,304,72909,2,0,L|448:304,2,140,2|4|2,0:0|0:0|0:0,0:0:0:0:
176,304,73968,1,0,0:0:0:0:
64,304,74321,1,0,0:0:0:0:
64,192,74674,2,0,L|64:32,2,140
176,192,75732,1,4,0:0:0:0:
176,192,76085,1,2,0:0:0:0:
392,192,76791,6,0,L|472:192,2,70,2|0|2,0:0|0:0|0:0,0:0:0:0:
344,96,77321,2,0,L|424:96,2,56,0|2|0,0:0|0:0|0:0,0:0:0:0:
248,88,77850,2,0,L|248:24,2,52.5000020027161,2|0|2,0:0|0:0|0:0,0:0:0:0:
248,184,78379,2,0,L|248:232,2,41.9999987182618,0|2|0,0:0|0:0|0:0,0:0:0:0:
336,176,78909,2,0,L|432:176,1,83.9999974365235,2|0,0:0|0:0,0:0:0:0:
392,304,79438,2,0,L|248:304,1,140
152,304,80144,1,0,0:0:0:0:
56,304,80497,1,0,0:0:0:0:
56,208,80850,5,0,0:0:0:0:
56,112,81026,2,0,L|216:112,1,140
328,200,81732,2,0,L|176:200,1,140
184,112,82438,1,0,0:0:0:0:
288,112,82791,1,0,0:0:0:0:
392,112,83144,1,0,0:0:0:0:
352,288,83850,2,0,L|208:288,2,140,0|0|0,0:0|0:0|0:0,0:0:0:0:
304,192,84908,2,0,L|464:192,2,140,0|0|0,0:0|0:0|0:0,0:0:0:0:
192,192,85967,2,0,L|112:192,3,70,0|0|0|0,0:0|0:0|0:0|0:0,0:0:0:0:
136,80,87203,5,0,0:0:0:0:
248,80,87555,1,0,0:0:0:0:
360,80,87908,1,0,0:0:0:0:
