osu file format v13

[General]
AudioFilename: True Blue Traveler.mp3
AudioLeadIn: 0
PreviewTime: 56999
Countdown: 0
SampleSet: Normal
StackLeniency: 0.7
Mode: 0
LetterboxInBreaks: 1
WidescreenStoryboard: 1

[Editor]
DistanceSpacing: 0.8
BeatDivisor: 4
GridSize: 8
TimelineZoom: 1

[Metadata]
Title:True Blue Traveler (TV Size)
TitleUnicode:True Blue Traveler (TV Size)
Artist:Kuribayashi Minami
ArtistUnicode:Kuribayashi Minami
Creator:DJ Yashiro
Version:Infinite
Source:Infinite Stratos Season 2
Tags:
BeatmapID:329501
BeatmapSetID:124985

[Difficulty]
HPDrainRate:7
CircleSize:5
OverallDifficulty:7
ApproachRate:9
SliderMultiplier:1.4
SliderTickRate:1

[Events]
//Background and Video events
0,0,"263733-aliya06.jpg",0,0
//Break Periods
//Storyboard Layer 0 (Background)
//Storyboard Layer 1 (Fail)
//Storyboard Layer 2 (Pass)
//Storyboard Layer 3 (Foreground)
//Storyboard Sound Samples
//Background Colour Transformations
3,100,163,162,255

[TimingPoints]
556,352.941176470588,4,1,0,100,1,0
2144,-133.333333333333,4,1,0,5,0,0
2850,-133.333333333333,4,1,0,65,0,0
4791,-200,4,1,0,65,0,0
5321,-100,4,1,0,65,0,0
5497,-200,4,1,0,65,0,0
6027,-133.333333333333,4,2,0,65,0,0
8850,-100,4,1,0,5,0,0
10526,-100,4,1,0,5,0,0
10615,-100,4,1,0,65,0,0
11347,-66.6666666666667,4,1,0,65,0,0
12026,-50,4,1,0,65,0,0
16262,-50,4,1,0,85,0,0
23144,-100,4,2,0,65,0,0
31615,-100,4,1,0,65,0,0
31791,-100,4,1,0,65,0,0
32877,-100,4,1,0,65,0,0
34262,-100,4,1,0,65,0,0
34438,-100,4,1,0,65,0,0
39379,-100,4,1,0,75,0,0
42203,-100,4,1,0,65,0,0
46262,-100,4,1,0,65,0,0
47850,-100,4,1,0,65,0,0
57026,-100,4,1,0,65,0,1
57203,-50,4,1,0,65,0,1
59850,-50,4,1,0,65,0,1
62674,-100,4,1,0,65,0,1
64085,-66.6666666666667,4,1,0,65,0,1
64968,-50,4,1,0,65,0,1
67968,-100,4,1,0,65,0,1
68321,-66.6666666666667,4,1,0,65,0,1
72379,-200,4,1,0,65,0,1
73085,-66.6666666666667,4,1,0,65,0,1
73438,-66.6666666666667,4,1,0,65,0,1
75379,-100,4,1,0,65,0,1
76262,-100,4,1,0,65,0,1
76791,-100,4,1,0,65,0,0
77144,-125,4,1,0,65,0,0
77674,-133.333333333333,4,1,0,65,0,0
78203,-166.666666666667,4,1,0,65,0,0
79085,-50,4,1,0,65,0,0

[Colours]
Combo1 : 255,255,255
Combo2 : 0,255,255
Combo3 : 18,124,255
Combo4 : 255,0,0
Combo5 : 255,128,64
Combo6 : 255,255,0

[HitObjects]
56,96,556,6,0,L|184:192,1,140,8|0,0:0|0:0,0:0:0:0:
196,260,1261,2,0,L|276:308,1,70
264,296,1526,1,0,0:0:0:0:
272,296,1614,1,0,0:0:0:0:
324,296,1791,2,0,L|360:228,1,70,8|8,0:0|0:0,0:0:0:0:
336,144,2850,6,0,L|360:76,1,52.5000020027161,8|8,0:0|0:0,0:0:0:0:
264,160,3203,2,0,L|288:96,1,52.5000020027161
388,220,3555,2,0,L|360:288,1,52.5000020027161
460,132,3908,2,0,L|432:204,1,52.5000020027161,8|8,0:0|0:0,0:0:0:0:
304,240,4261,2,0,L|328:172,2,52.5000020027161
228,192,4791,2,0,L|196:272,1,70,0|8,0:0|0:0,0:0:0:0:
128,296,5320,5,8,0:0:0:0:
128,296,5408,1,0,0:0:0:0:
128,296,5497,1,0,0:0:0:0:
384,304,6203,6,0,P|432:276|432:164,1,157.500006008148,0|0,0:0|0:0,0:0:0:0:
388,100,7261,2,0,P|340:128|340:232,1,157.500006008148
300,252,8320,1,0,0:0:0:0:
212,248,8673,2,0,L|144:248,1,52.5000020027161
256,192,8938,12,4,10261,0:0:0:0:
256,192,10614,5,0,0:0:0:0:
256,192,10967,1,0,0:0:0:0:
256,192,11320,1,0,0:0:0:0:
256,192,11497,1,0,0:0:0:0:
256,192,11673,1,0,0:0:0:0:
176,64,11850,6,0,L|60:136,1,105.000004005432
52,204,12203,1,8,0:0:0:0:
48,312,12379,1,8,0:0:0:0:
152,296,12555,2,0,L|304:264,1,140
372,240,12908,1,8,0:0:0:0:
468,292,13085,1,0,0:0:0:0:
464,208,13261,2,0,L|404:72,1,140
288,76,13614,1,8,0:0:0:0:
232,156,13791,1,8,0:0:0:0:
128,204,13967,5,0,0:0:0:0:
140,228,14055,1,0,0:0:0:0:
160,248,14144,1,0,0:0:0:0:
184,260,14232,1,0,0:0:0:0:
212,264,14320,1,0,0:0:0:0:
340,264,14497,6,0,L|152:268,1,140
84,276,14850,1,8,0:0:0:0:
36,180,15026,1,8,0:0:0:0:
120,96,15203,2,0,L|256:44,1,140
292,124,15555,1,8,0:0:0:0:
248,220,15732,1,0,0:0:0:0:
276,308,15908,2,0,L|416:224,1,140
424,128,16261,1,8,0:0:0:0:
308,60,16438,1,8,0:0:0:0:
180,56,16614,5,0,0:0:0:0:
180,84,16703,1,0,0:0:0:0:
180,112,16791,1,0,0:0:0:0:
180,140,16879,1,0,0:0:0:0:
180,168,16967,1,0,0:0:0:0:
180,280,17144,6,0,L|180:128,1,140
252,132,17497,1,8,0:0:0:0:
312,208,17673,1,8,0:0:0:0:
348,304,17850,2,0,L|212:240,1,140
72,200,18203,1,8,0:0:0:0:
48,80,18379,1,0,0:0:0:0:
160,132,18555,2,0,L|264:256,1,140
356,248,18908,1,8,0:0:0:0:
432,144,19085,1,8,0:0:0:0:
340,64,19261,5,0,0:0:0:0:
312,80,19350,1,0,0:0:0:0:
300,108,19438,1,0,0:0:0:0:
304,136,19526,1,0,0:0:0:0:
324,152,19614,1,0,0:0:0:0:
404,168,19791,6,0,L|256:208,1,140
208,252,20320,6,0,L|144:112,1,140
96,152,20673,1,0,0:0:0:0:
60,220,20850,1,0,0:0:0:0:
16,292,21026,1,0,0:0:0:0:
168,316,21203,5,0,0:0:0:0:
248,276,21379,1,0,0:0:0:0:
328,232,21555,1,0,0:0:0:0:
400,184,21732,1,0,0:0:0:0:
464,132,21908,1,0,0:0:0:0:
248,96,22085,6,0,L|424:64,1,140
344,144,22438,1,8,0:0:0:0:
264,200,22614,1,8,0:0:0:0:
180,244,22791,1,12,0:0:0:0:
296,308,23144,6,0,P|384:276|424:244,1,140
444,184,23673,1,0,0:0:0:0:
360,64,23850,1,0,0:0:0:0:
308,200,24026,1,0,0:0:0:0:
444,184,24203,1,0,0:0:0:0:
308,200,24379,1,0,0:0:0:0:
360,64,24555,1,0,0:0:0:0:
80,200,24908,5,0,0:0:0:0:
80,200,24997,1,0,0:0:0:0:
80,200,25085,2,0,L|140:272,2,70
200,260,25614,2,0,L|152:196,2,70
284,284,26144,2,0,L|360:248,1,70
396,296,26497,2,0,L|464:256,1,70
420,212,26850,5,0,0:0:0:0:
420,212,26938,1,0,0:0:0:0:
420,212,27026,2,0,L|444:132,1,70
504,176,27379,2,4,L|500:76,1,70,0|0,0:0|0:0,0:0:0:0:
76,112,28615,5,0,0:0:0:0:
76,112,28703,1,0,0:0:0:0:
76,112,28791,2,0,P|120:136|156:144,1,70
160,208,29144,2,0,L|132:292,1,70
200,292,29497,2,0,L|256:244,1,70
288,192,29850,1,0,0:0:0:0:
300,128,30026,1,0,0:0:0:0:
272,76,30203,1,0,0:0:0:0:
212,64,30379,1,0,0:0:0:0:
300,56,30555,2,0,L|388:56,1,70
380,56,30820,1,0,0:0:0:0:
392,56,30908,1,0,0:0:0:0:
328,272,31614,6,0,P|256:256|180:276,1,140
188,200,32320,2,0,P|256:212|332:200,1,140
196,64,32850,6,0,L|196:136,1,70
312,64,33203,2,0,L|312:140,1,70
256,136,33555,2,0,L|256:40,1,70
376,88,33909,5,0,0:0:0:0:
376,88,33997,1,0,0:0:0:0:
376,88,34085,1,0,0:0:0:0:
376,88,34174,1,0,0:0:0:0:
376,88,34262,1,0,0:0:0:0:
392,188,34438,6,0,L|328:248,1,70,0|8,0:0|0:0,0:0:0:0:
224,172,34791,2,0,L|148:232,1,70,8|0,0:0|0:0,0:0:0:0:
284,292,35144,2,0,L|224:240,1,70,0|8,0:0|0:0,0:0:0:0:
104,256,35497,2,0,L|36:192,1,70,8|0,0:0|0:0,0:0:0:0:
152,136,35850,2,0,L|220:88,1,70,0|8,0:0|0:0,0:0:0:0:
320,128,36203,2,0,L|392:84,1,70,8|0,0:0|0:0,0:0:0:0:
416,200,36555,5,0,0:0:0:0:
400,224,36644,1,8,0:0:0:0:
380,240,36732,1,0,0:0:0:0:
288,216,36908,2,0,L|228:264,1,70,8|0,0:0|0:0,0:0:0:0:
100,228,37261,1,0,0:0:0:0:
120,144,37438,2,0,L|188:88,1,70,8|8,0:0|0:0,0:0:0:0:
280,124,37791,1,0,0:0:0:0:
244,228,37967,2,0,L|184:292,1,70,0|8,0:0|0:0,0:0:0:0:
292,308,38320,1,8,0:0:0:0:
400,284,38497,1,0,0:0:0:0:
260,288,38673,5,0,0:0:0:0:
240,268,38761,1,0,0:0:0:0:
232,240,38849,1,0,0:0:0:0:
236,212,38938,1,0,0:0:0:0:
248,184,39026,1,0,0:0:0:0:
272,168,39114,1,4,0:0:0:0:
296,156,39202,1,0,0:0:0:0:
320,144,39291,1,0,0:0:0:0:
336,120,39379,1,0,0:0:0:0:
336,96,39467,1,0,0:0:0:0:
328,72,39555,1,6,0:0:0:0:
304,52,39644,1,0,0:0:0:0:
276,44,39732,1,4,0:0:0:0:
188,76,39908,6,0,L|120:132,1,70
80,160,40261,1,0,0:0:0:0:
92,288,40614,6,0,L|160:240,1,70
208,208,40967,1,0,0:0:0:0:
284,144,41144,6,0,L|344:88,2,70
400,144,42203,6,0,L|340:208,1,70
288,208,42555,2,0,L|224:268,1,70
172,228,42908,5,0,0:0:0:0:
156,208,42997,1,0,0:0:0:0:
152,180,43085,1,0,0:0:0:0:
160,152,43173,1,0,0:0:0:0:
176,136,43261,1,0,0:0:0:0:
204,124,43350,1,0,0:0:0:0:
236,136,43438,1,0,0:0:0:0:
256,160,43526,1,0,0:0:0:0:
272,184,43614,2,0,L|296:224,3,35
332,264,43967,6,0,L|360:216,1,35
408,212,44144,2,0,L|384:260,1,35
372,176,44320,2,0,L|412:96,2,70
336,280,44850,2,0,L|351:248,1,35
416,228,45026,2,0,L|397:258,1,35
352,216,45203,2,0,L|320:132,1,70
320,132,45467,1,0,0:0:0:0:
312,116,45555,2,0,L|232:80,1,70
44,192,46438,6,0,P|88:240|92:240,1,70
200,248,46791,2,0,L|120:248,1,70
200,184,47144,1,0,0:0:0:0:
320,184,47497,1,0,0:0:0:0:
468,192,47673,6,0,P|424:144|420:144,1,70
312,136,48026,2,0,L|392:136,1,70
408,224,48379,2,0,L|248:224,1,140
208,152,48908,6,0,L|128:192,1,70
208,120,49261,2,0,L|176:184,1,70
176,104,49614,2,0,L|208:168,1,70
232,232,49967,6,0,P|312:248|392:232,3,140
376,240,51114,1,0,0:0:0:0:
384,240,51203,1,0,0:0:0:0:
392,240,51291,1,0,0:0:0:0:
400,240,51379,1,0,0:0:0:0:
296,176,51555,6,0,L|224:128,1,70
144,176,51908,2,0,L|96:256,1,70
208,288,52261,2,0,L|288:280,1,70
432,176,52614,2,0,L|376:112,1,70
304,160,52967,2,0,L|248:224,1,70
376,280,53320,2,0,L|464:272,1,70
384,112,53673,2,0,L|320:56,1,70
192,120,54026,2,0,L|176:200,1,70
264,240,54379,2,0,L|336:200,1,70
248,88,54732,2,0,L|184:48,1,70
96,136,55085,2,0,L|96:208,1,70
96,296,55438,1,0,0:0:0:0:
184,152,55614,5,0,0:0:0:0:
256,216,55879,1,0,0:0:0:0:
328,280,56144,1,0,0:0:0:0:
400,336,56320,1,0,0:0:0:0:
432,264,56673,1,4,0:0:0:0:
432,264,56761,1,0,0:0:0:0:
432,264,56850,1,0,0:0:0:0:
432,264,56938,1,0,0:0:0:0:
432,264,57026,1,0,0:0:0:0:
448,184,57203,6,0,L|368:40,1,140
248,56,57555,1,0,0:0:0:0:
128,48,57732,1,0,0:0:0:0:
32,128,57908,2,0,L|136:264,1,140
224,280,58261,1,0,0:0:0:0:
304,192,58438,1,0,0:0:0:0:
400,144,58614,2,0,L|352:304,1,140
256,320,58967,1,0,0:0:0:0:
152,240,59144,1,0,0:0:0:0:
160,128,59320,5,0,0:0:0:0:
176,104,59408,1,0,0:0:0:0:
176,72,59497,1,0,0:0:0:0:
160,48,59585,1,0,0:0:0:0:
128,40,59673,1,0,0:0:0:0:
40,104,59850,6,0,L|184:176,1,140
232,208,60203,5,0,0:0:0:0:
296,312,60379,1,0,0:0:0:0:
368,232,60555,5,0,0:0:0:0:
360,120,60732,1,0,0:0:0:0:
448,144,60908,6,0,L|488:288,1,140
384,296,61261,1,0,0:0:0:0:
288,240,61438,1,0,0:0:0:0:
184,160,61614,2,0,L|40:88,1,140
136,64,61967,1,0,0:0:0:0:
168,64,62055,1,0,0:0:0:0:
200,64,62144,1,0,0:0:0:0:
232,64,62232,1,0,0:0:0:0:
264,64,62320,1,0,0:0:0:0:
352,112,62497,6,0,P|256:208|200:224,1,140
144,176,62850,2,0,L|144:264,1,70
120,264,63026,2,0,L|120:192,1,70
88,216,63203,2,0,L|88:288,1,70
120,336,63556,5,0,0:0:0:0:
152,336,63644,1,0,0:0:0:0:
184,336,63732,1,0,0:0:0:0:
216,336,63820,1,0,0:0:0:0:
248,336,63909,1,0,0:0:0:0:
336,336,64085,6,0,L|408:232,1,105.000004005432
432,144,64438,1,0,0:0:0:0:
368,64,64614,1,0,0:0:0:0:
248,64,64791,2,0,L|152:144,1,105.000004005432
64,160,65144,1,0,0:0:0:0:
72,32,65320,1,0,0:0:0:0:
176,96,65497,2,0,L|280:232,1,140
320,280,65850,2,0,L|384:128,1,140
392,80,66203,2,0,L|232:80,1,140
176,88,66555,1,0,0:0:0:0:
96,136,66732,6,0,L|-8:272,1,140
80,272,67085,2,0,L|224:272,1,140
208,208,67438,2,0,L|136:64,1,140
256,96,67967,5,0,0:0:0:0:
256,144,68055,1,0,0:0:0:0:
256,192,68144,1,0,0:0:0:0:
256,240,68232,1,0,0:0:0:0:
256,288,68320,1,4,0:0:0:0:
344,280,68673,6,0,P|392:208|400:152,1,105.000004005432,4|0,0:0|0:0,0:0:0:0:
400,88,69026,1,4,0:0:0:0:
296,24,69203,1,0,0:0:0:0:
288,136,69379,1,4,0:0:0:0:
400,88,69555,1,0,0:0:0:0:
296,24,69732,2,0,P|208:48|168:72,1,105.000004005432,4|0,0:0|0:0,0:0:0:0:
112,136,70085,1,4,0:0:0:0:
64,240,70261,1,0,0:0:0:0:
112,136,70438,1,4,0:0:0:0:
184,200,70614,6,0,L|288:128,1,105.000004005432
320,200,70967,2,0,L|448:192,2,105.000004005432
256,128,71497,2,0,L|232:64,1,52.5000020027161
176,160,71673,2,0,L|80:128,1,52.5000020027161
128,240,71850,2,0,L|48:272,1,52.5000020027161
232,264,72026,2,0,L|216:336,1,52.5000020027161
224,328,72203,2,0,P|296:336|352:296,1,105.000004005432
368,248,72555,6,0,B|376:216|376:216|400:192|400:192|400:176,1,70
400,120,73085,5,0,0:0:0:0:
400,88,73173,1,0,0:0:0:0:
400,56,73261,1,0,0:0:0:0:
296,72,73615,5,0,0:0:0:0:
280,96,73703,1,0,0:0:0:0:
256,112,73791,1,0,0:0:0:0:
224,128,73880,1,0,0:0:0:0:
192,128,73967,2,0,P|152:88|144:40,1,105.000004005432
88,136,74320,2,0,P|88:224|48:272,1,105.000004005432
184,208,74673,2,0,P|232:176|288:160,1,105.000004005432
360,200,75026,2,0,L|424:216,1,52.5000020027161
328,272,75203,2,0,L|384:328,1,52.5000020027161
240,288,75379,2,0,B|120:288|80:232|144:104,1,245
352,128,76261,5,0,0:0:0:0:
192,256,76438,1,0,0:0:0:0:
256,64,76614,1,0,0:0:0:0:
320,256,76791,1,0,0:0:0:0:
160,128,76967,1,0,0:0:0:0:
384,96,77144,5,0,0:0:0:0:
160,288,77320,1,0,0:0:0:0:
256,32,77497,1,0,0:0:0:0:
352,288,77673,1,0,0:0:0:0:
128,96,77850,1,0,0:0:0:0:
416,64,78026,5,0,0:0:0:0:
128,320,78203,1,0,0:0:0:0:
256,0,78379,1,0,0:0:0:0:
384,320,78555,1,0,0:0:0:0:
96,64,78732,1,0,0:0:0:0:
256,192,78908,5,0,0:0:0:0:
256,192,79085,1,0,0:0:0:0:
256,192,79261,6,0,L|256:96,2,70
256,56,79791,1,0,0:0:0:0:
256,296,80144,1,0,0:0:0:0:
200,192,80497,1,0,0:0:0:0:
312,192,80674,1,0,0:0:0:0:
200,40,81026,6,0,L|72:120,1,140
52,204,81379,1,8,0:0:0:0:
48,312,81555,1,8,0:0:0:0:
152,296,81732,2,0,L|304:264,1,140
372,240,82084,1,8,0:0:0:0:
468,292,82261,1,0,0:0:0:0:
464,208,82437,2,0,L|404:72,1,140
288,76,82791,1,8,0:0:0:0:
232,156,82967,1,8,0:0:0:0:
64,232,83850,6,0,P|64:120|80:80,1,140
144,192,84203,1,0,0:0:0:0:
176,280,84379,1,0,0:0:0:0:
240,208,84555,2,0,L|280:64,1,140
352,120,84908,1,0,0:0:0:0:
432,184,85085,1,0,0:0:0:0:
432,280,85261,1,0,0:0:0:0:
352,344,85438,1,0,0:0:0:0:
248,336,85614,1,0,0:0:0:0:
144,200,85967,5,0,0:0:0:0:
248,48,86320,5,0,0:0:0:0:
272,104,86497,1,0,0:0:0:0:
352,200,87203,5,0,0:0:0:0:
80,320,87555,1,0,0:0:0:0:
136,88,87908,1,0,0:0:0:0:
