osu file format v13

[General]
AudioFilename: True Blue Traveler.mp3
AudioLeadIn: 0
PreviewTime: 56999
Countdown: 0
SampleSet: Normal
StackLeniency: 0.7
Mode: 0
LetterboxInBreaks: 1
WidescreenStoryboard: 1

[Editor]
DistanceSpacing: 0.8
BeatDivisor: 4
GridSize: 8
TimelineZoom: 1

[Metadata]
Title:True Blue Traveler (TV Size)
TitleUnicode:True Blue Traveler (TV Size)
Artist:Kuribayashi Minami
ArtistUnicode:Kuribayashi Minami
Creator:DJ Yashiro
Version:Hard
Source:Infinite Stratos Season 2
Tags:
BeatmapID:318313
BeatmapSetID:124985

[Difficulty]
HPDrainRate:5
CircleSize:3
OverallDifficulty:5
ApproachRate:8
SliderMultiplier:1.4
SliderTickRate:1

[Events]
//Background and Video events
0,0,"263733-aliya06.jpg",0,0
//Break Periods
//Storyboard Layer 0 (Background)
//Storyboard Layer 1 (Fail)
//Storyboard Layer 2 (Pass)
//Storyboard Layer 3 (Foreground)
//Storyboard Sound Samples
//Background Colour Transformations
3,100,163,162,255

[TimingPoints]
556,352.941176470588,4,1,0,100,1,0
2144,-133.333333333333,4,1,0,5,0,0
2850,-133.333333333333,4,1,0,65,0,0
4791,-200,4,1,0,65,0,0
5321,-100,4,1,0,65,0,0
5497,-200,4,1,0,65,0,0
6027,-133.333333333333,4,2,0,65,0,0
8850,-100,4,1,0,5,0,0
10526,-100,4,1,0,5,0,0
10615,-100,4,1,0,65,0,0
23144,-100,4,2,0,65,0,0
31615,-100,4,1,0,65,0,0
34262,-100,4,1,0,65,0,0
34438,-100,4,1,0,65,0,0
39379,-100,4,1,0,75,0,0
42203,-100,4,1,0,65,0,0
46262,-100,4,1,0,65,0,0
47850,-100,4,1,0,65,0,0
57026,-100,4,1,0,65,0,1
57203,-66.6666666666667,4,1,0,65,0,1
59850,-100,4,1,0,65,0,1
62674,-100,4,1,0,65,0,1
67968,-100,4,1,0,65,0,0
68321,-66.6666666666667,4,1,0,65,0,1
72379,-200,4,1,0,65,0,1
73085,-66.6666666666667,4,1,0,65,0,1
73438,-66.6666666666667,4,1,0,65,0,1
76262,-100,4,1,0,65,0,1
76791,-100,4,1,0,65,0,0
77144,-125,4,1,0,65,0,0
77674,-133.333333333333,4,1,0,65,0,0
78203,-166.666666666667,4,1,0,65,0,0
79085,-100,4,1,0,65,0,0

[Colours]
Combo1 : 255,255,255
Combo2 : 0,255,255
Combo3 : 18,124,255
Combo4 : 255,0,0
Combo5 : 255,128,64
Combo6 : 255,255,0

[HitObjects]
296,248,556,5,0,0:0:0:0:
416,248,908,1,0,0:0:0:0:
440,152,1262,1,0,0:0:0:0:
280,152,1615,1,0,0:0:0:0:
280,72,1967,2,0,P|296:32|392:32,1,140
200,168,2850,6,0,L|152:144,1,52.5000020027161
296,176,3203,2,0,L|344:144,1,52.5000020027161
424,176,3556,2,0,L|448:152,3,26.2500010013581
376,248,4085,2,0,L|256:272,1,105.000004005432
273,268,4579,1,0,0:0:0:0:
200,288,4791,6,0,P|144:288|128:272,1,70
128,184,5321,5,0,0:0:0:0:
128,184,5409,1,0,0:0:0:0:
128,184,5497,1,4,0:0:0:0:
216,88,6203,6,0,B|272:80|312:160|368:128,1,157.500006008148
152,208,7262,5,0,0:0:0:0:
200,288,7791,6,0,L|312:240,1,105.000004005432
312,248,8321,2,0,L|376:264,1,52.5000020027161
392,256,8674,1,0,0:0:0:0:
256,192,8850,12,2,10438,0:0:0:0:
136,88,10615,5,0,0:0:0:0:
320,152,10968,1,0,0:0:0:0:
208,272,11321,1,0,0:0:0:0:
296,272,11497,1,0,0:0:0:0:
304,264,11585,1,0,0:0:0:0:
312,256,11674,1,0,0:0:0:0:
408,152,11850,6,0,P|352:96|288:80,1,140,0|8,0:0|0:0,0:0:0:0:
192,96,12556,2,0,P|200:136|120:200,1,140,0|8,0:0|0:0,0:0:0:0:
240,272,13262,1,0,0:0:0:0:
368,304,13615,2,0,P|360:240|416:192,1,140,8|0,0:0|0:0,0:0:0:0:
376,112,14321,2,0,P|288:112|248:72,2,140,8|0|8,0:0|0:0|0:0,0:0:0:0:
392,184,15380,5,0,0:0:0:0:
224,184,15732,1,8,0:0:0:0:
312,320,16085,1,0,0:0:0:0:
160,320,16438,1,8,0:0:0:0:
152,320,16526,1,0,0:0:0:0:
144,320,16615,1,8,0:0:0:0:
88,176,16968,1,0,0:0:0:0:
88,120,17144,2,0,P|120:72|144:64,2,70,8|0|0,0:0|0:0|0:0,0:0:0:0:
208,136,17850,1,0,0:0:0:0:
328,136,18203,1,8,0:0:0:0:
376,224,18556,1,0,0:0:0:0:
376,232,18644,1,0,0:0:0:0:
376,240,18732,2,0,P|344:280|304:288,2,70,8|0|0,0:0|0:0|0:0,0:0:0:0:
432,136,19438,1,0,0:0:0:0:
432,136,19615,1,0,0:0:0:0:
264,128,20497,5,0,0:0:0:0:
320,72,20674,1,0,0:0:0:0:
320,72,20762,1,0,0:0:0:0:
320,72,20850,1,0,0:0:0:0:
400,72,21026,1,0,0:0:0:0:
464,112,21203,1,0,0:0:0:0:
472,192,21379,1,0,0:0:0:0:
392,280,21732,1,0,0:0:0:0:
320,288,21909,5,0,0:0:0:0:
312,264,21997,1,0,0:0:0:0:
304,288,22085,1,0,0:0:0:0:
296,264,22174,1,0,0:0:0:0:
288,288,22262,1,0,0:0:0:0:
280,264,22350,1,0,0:0:0:0:
272,288,22438,2,0,L|232:288,6,35
256,200,23144,6,0,P|304:176|400:192,1,140
383,89,23850,2,0,P|315:104|248:88,1,140
168,120,24556,1,0,0:0:0:0:
120,256,24909,1,8,0:0:0:0:
224,248,25262,6,0,L|272:192,1,70,8|8,0:0|0:0,0:0:0:0:
336,256,25615,2,0,L|408:264,1,70
376,176,25968,2,0,P|440:96|432:48,2,140
256,192,27026,1,0,0:0:0:0:
256,192,27379,1,0,0:0:0:0:
152,216,27732,2,0,P|88:288|96:328,2,140,2|2|2,0:0|0:0|0:0,0:0:0:0:
256,192,28615,5,8,0:0:0:0:
256,192,28703,1,8,0:0:0:0:
256,192,28792,1,8,0:0:0:0:
256,112,28968,6,0,L|256:32,1,70,8|0,0:0|0:0,0:0:0:0:
176,112,29321,2,0,L|96:112,1,70,8|0,0:0|0:0,0:0:0:0:
152,176,29674,2,0,L|152:264,1,70,8|8,0:0|0:0,0:0:0:0:
152,320,30026,5,8,0:0:0:0:
232,320,30203,2,0,L|320:320,3,70,0|8|0|8,0:0|0:0|0:0|0:0,0:0:0:0:
312,248,31615,6,0,L|160:248,2,140,2|2|2,0:0|0:0|0:0,0:0:0:0:
104,248,32674,1,0,0:0:0:0:
136,176,33026,2,0,L|192:112,1,70,2|0,0:0|0:0,0:0:0:0:
224,160,33379,2,0,L|296:120,1,70,2|0,0:0|0:0,0:0:0:0:
328,168,33732,2,0,L|368:152,1,35,2|0,0:0|0:0,0:0:0:0:
384,208,33909,2,0,L|424:208,4,35
384,288,34438,6,0,L|312:312,1,70,8|0,0:0|0:0,0:0:0:0:
184,280,34791,2,0,L|264:312,2,70,8|0|8,0:0|0:0|0:0,0:0:0:0:
112,248,35321,1,0,0:0:0:0:
112,248,35497,1,8,0:0:0:0:
248,176,35674,6,0,L|328:136,1,70,8|8,0:0|0:0,0:0:0:0:
384,104,36026,1,0,0:0:0:0:
464,200,36203,1,8,0:0:0:0:
464,208,36291,1,0,0:0:0:0:
464,216,36379,2,0,L|384:240|384:240,1,70,0|8,0:0|0:0,0:0:0:0:
272,256,36732,2,0,L|192:256,1,70,0|8,0:0|0:0,0:0:0:0:
144,224,37085,2,0,L|112:144,1,70,8|8,0:0|0:0,0:0:0:0:
184,152,37438,2,0,L|256:176,1,70,0|8,0:0|0:0,0:0:0:0:
320,176,37791,2,0,L|376:120,1,70,0|8,0:0|0:0,0:0:0:0:
408,56,38144,2,0,L|328:96,1,70,0|8,0:0|0:0,0:0:0:0:
288,96,38497,5,8,0:0:0:0:
288,112,38585,1,8,0:0:0:0:
288,128,38674,1,8,0:0:0:0:
288,200,38850,2,0,L|288:344,1,140
216,272,39379,6,0,L|64:272,1,140,2|2,0:0|0:0,0:0:0:0:
136,192,39909,6,0,L|136:144,2,35
368,192,40262,1,0,0:0:0:0:
208,192,40438,1,8,0:0:0:0:
296,256,40615,6,0,L|376:296,1,70,0|8,0:0|0:0,0:0:0:0:
432,256,40968,2,0,L|496:200,1,70,0|8,0:0|0:0,0:0:0:0:
480,144,41321,2,0,L|440:104,2,35,0|0|8,0:0|0:0|0:0,0:0:0:0:
312,96,42203,6,0,P|248:96|168:128,1,140,2|2,0:0|0:0,0:0:0:0:
88,192,42909,1,2,0:0:0:0:
152,280,43262,2,0,P|256:320|296:320,1,140,2|2,0:0|0:0,0:0:0:0:
296,248,43968,6,0,L|368:256,2,70
256,176,44497,1,0,0:0:0:0:
288,112,44674,1,0,0:0:0:0:
360,96,44850,1,0,0:0:0:0:
408,144,45026,1,0,0:0:0:0:
416,208,45203,1,0,0:0:0:0:
368,256,45379,1,0,0:0:0:0:
296,248,45556,6,0,L|200:248,1,70
248,128,46262,6,0,L|160:152,1,70,0|8,0:0|0:0,0:0:0:0:
112,192,46615,2,0,L|184:224,1,70,0|8,0:0|0:0,0:0:0:0:
208,272,46968,2,0,L|272:232,1,70,0|8,0:0|0:0,0:0:0:0:
368,144,47850,6,0,L|336:216,1,70,0|8,0:0|0:0,0:0:0:0:
312,256,48203,2,0,L|272:168,1,70,0|8,0:0|0:0,0:0:0:0:
264,144,48556,2,0,L|232:224,1,70,0|8,0:0|0:0,0:0:0:0:
184,176,48909,5,8,0:0:0:0:
176,168,48997,1,0,0:0:0:0:
168,160,49085,1,0,0:0:0:0:
128,136,49262,2,0,L|96:200,1,70,8|0,0:0|0:0,0:0:0:0:
88,232,49615,1,8,0:0:0:0:
120,296,49791,2,0,P|208:336|264:328,3,140
336,304,51026,1,0,0:0:0:0:
336,304,51115,1,0,0:0:0:0:
336,304,51203,1,0,0:0:0:0:
352,168,51379,6,0,P|288:144|200:144,1,140
176,176,51909,2,0,P|256:200|320:208,2,140
216,144,52791,2,0,P|288:152|352:169,1,140
352,240,53321,6,0,L|256:280,1,70,8|0,0:0|0:0,0:0:0:0:
248,312,53674,2,0,L|192:256,1,70,8|0,0:0|0:0,0:0:0:0:
144,280,54026,2,0,L|160:192,1,70,8|0,0:0|0:0,0:0:0:0:
184,136,54379,6,0,L|224:216,1,70,8|0,0:0|0:0,0:0:0:0:
256,216,54732,2,0,L|288:144,1,70,8|0,0:0|0:0,0:0:0:0:
320,168,55085,2,0,L|344:248,2,70,8|8|8,0:0|0:0|0:0,0:0:0:0:
400,96,55615,5,2,0:0:0:0:
320,256,55968,1,2,0:0:0:0:
200,216,56144,1,2,0:0:0:0:
80,208,56321,1,8,0:0:0:0:
80,200,56408,1,8,0:0:0:0:
80,192,56497,1,8,0:0:0:0:
80,184,56585,1,8,0:0:0:0:
80,176,56674,2,0,L|80:128,2,35
152,280,57026,5,0,0:0:0:0:
240,240,57203,2,0,P|256:168|272:88,1,105.000004005432,0|8,0:0|0:0,0:0:0:0:
240,80,57556,2,0,L|216:192,1,105.000004005432,0|8,0:0|0:0,0:0:0:0:
264,256,57909,2,0,P|304:312|376:336,1,105.000004005432,0|8,0:0|0:0,0:0:0:0:
328,272,58262,2,0,P|272:208|224:208,1,105.000004005432,0|8,0:0|0:0,0:0:0:0:
120,176,58615,2,0,P|168:248|192:256,1,105.000004005432,0|8,0:0|0:0,0:0:0:0:
240,248,58968,2,0,P|200:200|152:176,1,105.000004005432,0|8,0:0|0:0,0:0:0:0:
144,264,59321,1,0,0:0:0:0:
152,280,59409,1,0,0:0:0:0:
160,296,59497,1,8,0:0:0:0:
288,88,59674,5,0,0:0:0:0:
272,176,59850,6,0,B|312:224|312:224|328:224,1,70,8|0,0:0|0:0,0:0:0:0:
288,288,60203,2,0,B|248:248|248:248|224:248,1,70,8|0,0:0|0:0,0:0:0:0:
152,160,60556,1,8,0:0:0:0:
152,160,60732,1,0,0:0:0:0:
360,216,60909,2,0,P|376:184|384:120,1,70,8|0,0:0|0:0,0:0:0:0:
383,150,61174,1,0,0:0:0:0:
383,150,61262,1,8,0:0:0:0:
272,248,61615,1,10,0:0:0:0:
264,248,61703,1,8,0:0:0:0:
256,248,61791,1,10,0:0:0:0:
248,256,61879,1,8,0:0:0:0:
240,248,61967,2,0,L|160:248,2,70,0|0|0,0:0|0:0|0:0,0:0:0:0:
360,56,62674,6,0,B|341:42|341:42|301:114,1,105,2|0,0:0|0:0,0:0:0:0:
296,128,63026,2,0,P|216:224|184:224,1,140
96,224,63556,1,0,0:0:0:0:
96,224,63732,1,0,0:0:0:0:
56,88,64085,1,10,0:0:0:0:
56,88,64174,1,0,0:0:0:0:
56,88,64262,2,0,P|80:120|112:136,1,70,0|8,0:0|0:0,0:0:0:0:
136,144,64615,2,0,L|192:96,1,70,0|8,0:0|0:0,0:0:0:0:
248,184,65144,6,0,L|320:232,1,70,8|0,0:0|0:0,0:0:0:0:
336,232,65497,2,0,L|352:144,1,70,8|0,0:0|0:0,0:0:0:0:
336,160,65850,2,0,L|256:168,1,70,8|0,0:0|0:0,0:0:0:0:
50,206,66203,6,0,L|120:200,1,70,8|0,0:0|0:0,0:0:0:0:
132,203,66556,2,0,L|120:272,1,70,8|0,0:0|0:0,0:0:0:0:
96,272,66909,2,0,L|45:217,1,70,8|0,0:0|0:0,0:0:0:0:
232,240,67262,5,8,0:0:0:0:
288,296,67438,1,0,0:0:0:0:
296,232,67615,1,10,0:0:0:0:
320,232,67703,1,2,0:0:0:0:
336,224,67791,1,2,0:0:0:0:
344,208,67879,1,2,0:0:0:0:
344,192,67968,2,0,L|344:152,2,35,0|0|0,0:0|0:0|0:0,0:0:0:0:
208,160,68321,5,4,0:0:0:0:
56,72,68497,6,0,P|32:160|56:192,1,105.000004005432,0|12,0:0|0:0,0:0:0:0:
168,224,68850,2,0,P|192:152|176:104,1,105.000004005432,0|12,0:0|0:0,0:0:0:0:
24,320,69202,2,0,P|80:344|144:328,1,105.000004005432,0|12,0:0|0:0,0:0:0:0:
224,208,69555,2,0,P|160:192|96:208,1,105.000004005432,0|12,0:0|0:0,0:0:0:0:
224,336,69908,2,0,P|296:280|304:248,1,105.000004005432,0|12,0:0|0:0,0:0:0:0:
240,120,70261,2,0,P|208:184|216:232,1,105.000004005432,0|12,0:0|0:0,0:0:0:0:
152,248,70615,1,8,0:0:0:0:
144,248,70703,1,0,0:0:0:0:
136,248,70791,1,12,0:0:0:0:
152,104,70968,5,0,0:0:0:0:
56,168,71144,2,0,P|152:200|288:144,1,210.000008010865
328,208,71674,5,0,0:0:0:0:
400,256,71850,1,0,0:0:0:0:
472,304,72026,2,0,P|496:216|480:200,1,105.000004005432,2|2,0:0|0:0,0:0:0:0:
512,128,72379,1,0,0:0:0:0:
432,128,72555,2,0,B|424:120|424:120|424:136|424:136|416:120|416:120|416:136|416:136|408:120|408:120|408:136|408:136|400:128|400:128|384:128,1,105
390,128,73174,1,8,0:0:0:0:
392,128,73262,1,8,0:0:0:0:
296,96,73438,6,0,P|216:144|176:184,1,105.000004005432,0|8,0:0|0:0,0:0:0:0:
208,192,73791,2,0,P|144:208|88:152,1,105.000004005432,0|8,0:0|0:0,0:0:0:0:
88,224,74144,2,0,L|144:328,1,105.000004005432,0|8,0:0|0:0,0:0:0:0:
168,320,74497,2,0,L|272:248,1,105.000004005432,0|8,0:0|0:0,0:0:0:0:
280,240,74850,2,0,L|384:272,1,105.000004005432,0|8,0:0|0:0,0:0:0:0:
432,216,75203,1,8,0:0:0:0:
432,208,75291,1,0,0:0:0:0:
432,200,75379,1,8,0:0:0:0:
416,88,75556,6,0,L|288:152,1,105.000004005432,0|10,0:0|0:0,0:0:0:0:
312,184,75909,2,0,L|192:112,1,105.000004005432,0|8,0:0|0:0,0:0:0:0:
152,192,76262,5,0,0:0:0:0:
192,248,76438,1,0,0:0:0:0:
256,280,76615,1,0,0:0:0:0:
328,288,76791,2,2,L|328:200,1,70
336,168,77144,2,2,L|336:88,1,56,10|10,0:0|0:0,0:0:0:0:
336,80,77497,1,0,0:0:0:0:
264,40,77674,2,2,L|184:40,1,52.5000020027161,10|10,0:0|0:0,0:0:0:0:
168,40,78026,5,0,0:0:0:0:
136,80,78203,1,0,0:0:0:0:
112,112,78379,2,2,B|72:128|16:120|16:120|16:136,1,83.9999974365235,10|10,0:0|0:0,0:0:0:0:
32,168,78908,1,0,0:0:0:0:
40,208,79085,5,0,0:0:0:0:
56,232,79262,2,0,B|96:256|96:256|152:240|152:240|168:288|168:288,1,140,0|4,0:0|0:0,0:0:0:0:
224,312,79791,2,0,P|272:328|352:296,1,140
296,168,80320,2,0,P|216:152|144:176,1,140
352,64,81026,6,0,P|384:136|448:168,1,140
296,184,81732,1,0,0:0:0:0:
328,296,82085,2,0,P|248:264|184:272,1,140
144,152,82791,1,0,0:0:0:0:
144,152,82967,2,0,P|224:160|248:280,1,210
88,288,83850,2,0,L|176:288,3,70,0|0|0|0,0:0|0:0|0:0|0:0,0:0:0:0:
288,288,84555,1,0,0:0:0:0:
288,288,84732,1,0,0:0:0:0:
440,280,84908,2,0,L|440:192,3,70,0|0|0|0,0:0|0:0|0:0|0:0,0:0:0:0:
440,128,85614,1,0,0:0:0:0:
264,128,85967,1,0,0:0:0:0:
80,128,86320,5,0,0:0:0:0:
80,208,86497,1,0,0:0:0:0:
416,272,87203,5,0,0:0:0:0:
432,152,87555,1,0,0:0:0:0:
320,88,87908,1,0,0:0:0:0:
