osu file format v7

[General]
AudioFilename: Kuribayashi Minami - Sympathizer.mp3
AudioLeadIn: 0
PreviewTime: 37683
Countdown: 0
SampleSet: Normal
StackLeniency: 0.9
Mode: 0
LetterboxInBreaks: 0

[Editor]
DistanceSpacing: 0.899999976158142
BeatDivisor: 4
GridSize: 8

[Metadata]
Title:Sympathizer
Artist:Kuribayashi Minami
Creator:quintitem
Version:Normal
Source:Kurokami The Animation
Tags:Anime

[Difficulty]
HPDrainRate:4
CircleSize:4
OverallDifficulty:4
SliderMultiplier:0.9
SliderTickRate:0.5

[Events]
//Background and Video events
0,0,"kuro_2.jpg"
//Break Periods
2,85914,94342
//Storyboard Layer 0 (Background)
//Storyboard Layer 1 (Fail)
//Storyboard Layer 2 (Pass)
//Storyboard Layer 3 (Foreground)
Sprite,Foreground,Centre,"Storyboard\title.png",320,240 M,0,6129,7372,275,336,300,336 F,0,6129,7372,0,1 F,0,7372,14833,1 M,0,15144,15766,300,336,300,351 F,0,15144,15766,1,0
Sprite,Foreground,Centre,"Storyboard\artist.png",320,240 M,0,8305,9548,275,373,300,373 F,0,8305,9548,0,1 F,0,9548,14833,1 M,0,15144,15766,300,373,300,388 F,0,15144,15766,1,0
Sprite,Foreground,Centre,"Storyboard\by.png",320,240 M,0,10481,11724,275,410,300,410 F,0,10481,11724,0,1 F,0,11724,14833,1 M,0,15144,15766,300,410,300,425 F,0,15144,15766,1,0
Sprite,Foreground,Centre,"Storyboard\aa.png",320,240 M,0,18875,,314,415 F,0,18875,19030,0,1 F,0,19030,23382,1 F,0,23382,23538,1,0
Sprite,Foreground,Centre,"Storyboard\ab.png",320,240 M,0,21362,,541,415 F,0,21362,21517,0,1 F,0,21517,23382,1 F,0,23382,23538,1,0
Sprite,Foreground,Centre,"Storyboard\ac.png",320,240 M,0,23849,,314,415 F,0,23849,24004,0,1 F,0,24004,27735,1 F,0,27735,27890,1,0
Sprite,Foreground,Centre,"Storyboard\ad.png",320,240 M,0,28823,,314,415 F,0,28823,28978,0,1 F,0,28978,33331,1 F,0,33331,33486,1,0
Sprite,Foreground,Centre,"Storyboard\ae.png",320,240 M,0,31310,,512,415 F,0,31310,31465,0,1 F,0,31465,33331,1 F,0,33331,33486,1,0
Sprite,Foreground,Centre,"Storyboard\af.png",320,240 M,0,33797,,314,415 F,0,33797,33952,0,1 F,0,33952,37372,1 F,0,37372,37528,1,0
Sprite,Foreground,Centre,"Storyboard\ag.png",320,240 M,0,37838,,314,415 F,0,37838,37994,0,1 F,0,37994,47631,1 F,0,47631,47787,1,0
Sprite,Foreground,Centre,"Storyboard\ah.png",320,240 M,0,43123,,525,415 F,0,43123,43279,0,1 F,0,43279,47631,1 F,0,47631,47787,1,0
Sprite,Foreground,Centre,"Storyboard\ai.png",320,240 M,0,48098,,314,415 F,0,48098,48253,0,1 F,0,48253,59756,1 F,0,59756,59911,1,0
Sprite,Foreground,Centre,"Storyboard\aj.png",320,240 M,0,53227,,472,415 F,0,53227,53382,0,1 F,0,53382,59756,1 F,0,59756,59911,1,0
Sprite,Foreground,Centre,"Storyboard\ba.png",320,240 M,0,60222,,314,415 F,0,60222,60377,0,1 F,0,60377,65662,1 F,0,65662,65818,1,0
Sprite,Foreground,Centre,"Storyboard\bb.png",320,240 M,0,63175,,511,415 F,0,63175,63331,0,1 F,0,63331,65662,1 F,0,65662,65818,1,0
Sprite,Foreground,Centre,"Storyboard\bc.png",320,240 M,0,66129,,314,415 F,0,66129,66284,0,1 F,0,66284,70015,1 F,0,70015,70170,1,0
Sprite,Foreground,Centre,"Storyboard\bd.png",320,240 M,0,70636,,314,415 F,0,70636,70792,0,1 F,0,70792,75300,1 F,0,75300,75455,1,0
Sprite,Foreground,Centre,"Storyboard\be.png",320,240 M,0,73123,,515,415 F,0,73123,73279,0,1 F,0,73279,75300,1 F,0,75300,75455,1,0
Sprite,Foreground,Centre,"Storyboard\bf.png",320,240 M,0,75766,,314,415 F,0,75766,75921,0,1 F,0,75921,80274,1 F,0,80274,80429,1,0
Sprite,Foreground,Centre,"Storyboard\bg.png",320,240 M,0,77631,,473,415 F,0,77631,77787,0,1 F,0,77787,80274,1 F,0,80274,80429,1,0
Sprite,Foreground,Centre,"Storyboard\bh.png",320,240 M,0,80740,,314,415 F,0,80740,80895,0,1 F,0,80895,85870,1 F,0,85870,86025,1,0
Sprite,Foreground,Centre,"Storyboard\bi.png",320,240 M,0,82605,,447,415 F,0,82605,82761,0,1 F,0,82761,85870,1 F,0,85870,86025,1,0
Sprite,Foreground,Centre,"Storyboard\ca.png",320,240 M,0,95973,,314,415 F,0,95973,96129,0,1 F,0,96129,100481,1 F,0,100481,100636,1,0
Sprite,Foreground,Centre,"Storyboard\cb.png",320,240 M,0,98460,,567,415 F,0,98460,98616,0,1 F,0,98616,100481,1 F,0,100481,100636,1,0
Sprite,Foreground,Centre,"Storyboard\cc.png",320,240 M,0,100947,,314,415 F,0,100947,101103,0,1 F,0,101103,104833,1 F,0,104833,104989,1,0
Sprite,Foreground,Centre,"Storyboard\cd.png",320,240 M,0,105921,,314,415 F,0,105921,106077,0,1 F,0,106077,110429,1 F,0,110429,110585,1,0
Sprite,Foreground,Centre,"Storyboard\ce.png",320,240 M,0,108408,,531,415 F,0,108408,108564,0,1 F,0,108564,110429,1 F,0,110429,110585,1,0
Sprite,Foreground,Centre,"Storyboard\cf.png",320,240 M,0,110895,,314,415 F,0,110895,111051,0,1 F,0,111051,114471,1 F,0,114471,114626,1,0
Sprite,Foreground,Centre,"Storyboard\cg.png",320,240 M,0,114937,,314,415 F,0,114937,115092,0,1 F,0,115092,124730,1 F,0,124730,124885,1,0
Sprite,Foreground,Centre,"Storyboard\ch.png",320,240 M,0,120222,,557,415 F,0,120222,120377,0,1 F,0,120377,124730,1 F,0,124730,124885,1,0
Sprite,Foreground,Centre,"Storyboard\ci.png",320,240 M,0,125196,,314,415 F,0,125196,125351,0,1 F,0,125351,136854,1 F,0,136854,137009,1,0
Sprite,Foreground,Centre,"Storyboard\cj.png",320,240 M,0,130325,,537,415 F,0,130325,130481,0,1 F,0,130481,136854,1 F,0,136854,137009,1,0
Sprite,Foreground,Centre,"Storyboard\da.png",320,240 M,0,137320,,314,415 F,0,137320,137476,0,1 F,0,137476,142761,1 F,0,142761,142916,1,0
Sprite,Foreground,Centre,"Storyboard\db.png",320,240 M,0,140274,,505,415 F,0,140274,140429,0,1 F,0,140429,142761,1 F,0,142761,142916,1,0
Sprite,Foreground,Centre,"Storyboard\dc.png",320,240 M,0,143227,,314,415 F,0,143227,143382,0,1 F,0,143382,147113,1 F,0,147113,147268,1,0
Sprite,Foreground,Centre,"Storyboard\dd.png",320,240 M,0,147735,,314,415 F,0,147735,147890,0,1 F,0,147890,152398,1 F,0,152398,152553,1,0
Sprite,Foreground,Centre,"Storyboard\de.png",320,240 M,0,150222,,509,415 F,0,150222,150377,0,1 F,0,150377,152398,1 F,0,152398,152553,1,0
Sprite,Foreground,Centre,"Storyboard\df.png",320,240 M,0,152864,,314,415 F,0,152864,153020,0,1 F,0,153020,157372,1 F,0,157372,157528,1,0
Sprite,Foreground,Centre,"Storyboard\dg.png",320,240 M,0,154730,,484,415 F,0,154730,154885,0,1 F,0,154885,157372,1 F,0,157372,157528,1,0
Sprite,Foreground,Centre,"Storyboard\dh.png",320,240 M,0,157838,,314,415 F,0,157838,157994,0,1 F,0,157994,162657,1 F,0,162657,162813,1,0
Sprite,Foreground,Centre,"Storyboard\di.png",320,240 M,0,159704,,478,415 F,0,159704,159859,0,1 F,0,159859,162657,1 F,0,162657,162813,1,0
//Storyboard Sound Samples
//Background Colour Transformations
3,100,163,162,255

[TimingPoints]
1155,310.880829015544,4,1,0,50,1,0
18253,-100,4,1,0,80,0,0
38460,-200,4,1,0,70,0,0
52916,-100,4,1,0,80,0,0
58357,-100,4,1,0,40,0,0
60688,-100,4,1,0,70,0,0
60844,-100,4,1,0,70,0,1
60882,-100,4,1,0,70,0,0
60999,-100,4,1,0,90,0,0
85714,-100,4,1,0,70,0,0
94419,-200,4,2,0,80,0,0
99704,-200,4,1,0,70,0,0
105300,-100,4,1,0,80,0,0
134056,-100,4,1,0,90,0,0
135300,-100,4,1,0,100,0,0
137320,-100,4,1,0,70,0,0
137631,-100,4,1,0,80,0,0
138098,-100,4,1,0,90,0,0
162813,-100,4,1,0,40,0,0

[Colours]
Combo1 : 255,150,0
Combo2 : 42,42,42
Combo3 : 38,60,249
Combo4 : 255,44,13

[HitObjects]
256,192,16077,12,0,17942
256,40,18564,5,0
188,80,18875,1,0
256,124,19186,2,0,B|440:124,2,180
184,164,20740,2,0,B|84:164,2,90,0|4|0
256,200,21673,2,0,B|440:200,2,180
188,244,23227,1,0
156,320,23538,1,4
236,340,23849,5,0
316,324,24160,2,0,B|418:295|423:184,2,180
300,244,25714,1,0
244,184,26025,1,0
168,156,26336,1,0
88,136,26647,2,0,B|88:44,2,90
328,336,28512,5,4
256,300,28823,1,0
224,224,29134,2,0,B|122:253|117:364,2,180
280,168,30688,2,0,B|380:168,2,90,0|4|0
220,112,31621,2,0,B|36:112,2,180
256,40,33175,1,0
316,92,33486,1,4
384,44,33797,5,0
444,100,34108,2,0,B|444:288,2,180
368,128,35662,1,0
312,188,35973,2,0,B|200:188,2,90
336,264,36906,1,0
336,264,37061,1,0
280,320,37372,1,0
280,320,37528,1,0
204,296,37838,6,0,B|96:296,2,90,0|0|4
236,36,40325,6,0,B|284:36,2,45,0|0|4
472,160,43123,5,0
472,160,43434,2,0,B|472:236,2,67.5,4|0|0
32,232,45921,6,0,B|32:136,3,90,4|0|0|0
92,88,48098,5,0
168,120,48408,2,0,B|268:120,3,90,4|0|0|0
320,176,50585,1,0
384,224,50895,2,0,B|384:324,3,90,4|0|0|0
232,260,53382,5,4
232,260,53693,2,0,B|124:260,2,90
304,224,54626,1,0
304,224,54937,2,0,B|408:224,2,90
256,160,55870,2,0,B|68:160,3,180
256,192,58357,12,0,60222
256,80,60844,5,4
224,152,61154,2,0,B|40:152,2,180
300,164,62709,2,0,B|300:72,2,90
240,220,63642,2,0,B|138:249|133:360,2,180
312,256,65196,2,0,B|312:348,2,90,0|0|4
388,224,66129,5,0
408,144,66439,2,0,B|504:144,2,90
340,100,67372,1,0
340,100,67528,2,0,B|148:100,2,180
340,180,69082,1,0
340,180,69237,1,0
340,180,69393,2,0,B|263:206|260:295,1,135
196,328,70170,1,0
132,280,70481,1,0
72,224,70792,5,4
104,148,71103,1,0
104,148,71258,2,0,B|104:44,2,90
168,200,72191,1,0
168,200,72346,2,0,B|276:200,2,90
184,120,73279,5,0
256,84,73590,1,0
256,84,73745,2,0,B|360:84,2,90
256,164,74678,1,0
256,164,74833,2,0,B|256:272,2,90,0|0|4
336,160,75766,6,0,B|438:189|443:300,2,180
304,236,77320,1,0
256,192,77631,12,4,80429
344,168,80740,6,0,B|348:68|450:39,2,180
320,244,82294,1,0
252,200,82605,1,0
200,260,82916,1,0
120,276,83227,1,0
60,220,83538,1,0
88,144,83849,1,0
256,192,84160,12,4,85714
172,100,95662,6,0,B|220:52|288:152|348:92,1,180,2|2
340,284,98149,2,0,B|292:332|224:232|164:292,1,180,2|2
36,192,100015,2,0,B|36:136,2,45,0|0|4
176,108,101258,6,0,B|268:108,2,90
128,264,103123,2,0,B|36:264,2,90
240,160,105610,5,4
304,112,105921,1,0
380,84,106232,2,0,B|457:110|460:199,2,135
304,112,107476,1,0
256,180,107787,1,0
188,224,108098,5,4
108,244,108408,1,0
28,256,108719,2,0,B|40:336|126:356,2,135
56,180,109963,1,0
124,132,110274,1,0
196,96,110585,5,4
276,80,110895,1,0
356,72,111206,2,0,B|434:95|440:184,2,135
324,148,112450,2,0,B|324:240,2,90
256,104,113382,1,0
200,160,113693,1,0
144,100,114004,1,0
144,100,114160,1,0
88,160,114471,1,0
88,160,114626,1,0
64,236,114937,5,0
128,284,115248,1,0
208,272,115559,2,0,B|260:286|259:343,2,90,4|0|0
156,208,116491,2,0,B|154:157|207:142,2,90
128,284,117424,1,0
128,284,117735,1,0
128,284,118046,2,0,B|16:284,2,90,4|0|0
200,320,118978,2,0,B|296:320,2,90
200,240,119911,2,0,B|200:184,2,45
280,240,120533,6,0,B|357:214|360:125,2,135,4|0|0
252,316,121776,1,0
328,344,122087,1,0
404,316,122398,1,0
460,256,122709,1,0
472,176,123020,2,0,B|473:125|420:110,2,90,4|0|0
396,208,123952,2,0,B|345:214|339:268,2,90
352,140,124885,1,0
352,140,125041,1,0
352,140,125196,1,0
300,80,125507,6,0,B|204:80,1,90,4|0
132,52,126129,2,0,B|81:58|75:112,1,90
144,152,126750,2,0,B|195:158|201:212,1,90
128,248,127372,1,0
128,248,127683,1,0
180,308,127994,1,4
180,308,128305,1,0
260,328,128616,1,0
260,328,128927,1,0
340,312,129237,1,0
340,312,129548,1,0
392,252,129859,2,0,B|444:252,2,45
344,188,130481,6,0,B|349:134|400:128,2,90,4|0|0
288,248,131414,1,0
216,208,131724,2,0,B|112:208,2,90,0|0|0
268,144,132657,1,0
220,80,132968,2,0,B|172:32|104:132|44:72,1,180
52,240,134211,2,0,B|100:288|168:188|228:248,1,180
256,192,135455,12,0,137320
256,308,137942,5,4
176,288,138253,1,0
176,288,138408,2,0,B|72:288,2,90
208,216,139341,1,0
208,216,139496,1,0
272,168,139807,1,0
344,200,140118,1,0
412,156,140429,5,0
360,96,140740,1,0
360,96,140895,2,0,B|359:44|411:33,2,90,0|0|0
288,60,141828,1,0
288,60,141984,1,0
208,60,142294,1,0
152,120,142605,1,0
184,196,142916,6,0,B|84:196,2,90,4|0|0
228,128,143849,1,0
228,128,144160,1,0
304,100,144471,1,0
304,100,144626,2,0,B|406:129|411:240,2,180
288,180,146180,2,0,B|228:180,2,45
292,300,146958,2,0,B|404:300,2,90
212,284,147890,5,4
164,220,148201,2,0,B|62:249|57:360,2,180
172,140,149756,2,0,B|173:88|121:77,2,90,0|0|0
244,108,150688,2,0,B|436:108,2,180
272,184,152243,1,0
324,244,152553,1,4
380,184,152864,6,0,B|478:203|490:308,2,180
324,128,154419,2,0,B|323:76|376:65,2,90,0|0|0
288,200,155351,2,0,B|288:251|235:262,2,90,0|0|0
216,160,156284,1,0
216,160,156439,1,0
144,192,156750,1,0
144,192,156906,2,0,B|48:192,2,90,0|0|4
168,268,157838,6,0,B|368:268,2,180
256,192,159704,12,4,162813
