osu file format v7

[General]
AudioFilename: Kuribayashi Minami - Sympathizer.mp3
AudioLeadIn: 0
PreviewTime: 37683
Countdown: 0
SampleSet: Normal
StackLeniency: 0.9
Mode: 0
LetterboxInBreaks: 0

[Editor]
DistanceSpacing: 0.899999976158142
BeatDivisor: 4
GridSize: 8

[Metadata]
Title:Sympathizer
Artist:Kuribayashi Minami
Creator:quintitem
Version:Hard
Source:Kurokami The Animation
Tags:Anime

[Difficulty]
HPDrainRate:7
CircleSize:5
OverallDifficulty:7
SliderMultiplier:1.2
SliderTickRate:0.5

[Events]
//Background and Video events
0,0,"kuro_2.jpg"
//Break Periods
2,85914,94762
2,163013,170617
2,206536,211032
//Storyboard Layer 0 (Background)
//Storyboard Layer 1 (Fail)
//Storyboard Layer 2 (Pass)
//Storyboard Layer 3 (Foreground)
Sprite,Foreground,Centre,"Storyboard\title.png",320,240 M,0,6129,7372,275,336,300,336 F,0,6129,7372,0,1 F,0,7372,14833,1 M,0,15144,15766,300,336,300,351 F,0,15144,15766,1,0
Sprite,Foreground,Centre,"Storyboard\artist.png",320,240 M,0,8305,9548,275,373,300,373 F,0,8305,9548,0,1 F,0,9548,14833,1 M,0,15144,15766,300,373,300,388 F,0,15144,15766,1,0
Sprite,Foreground,Centre,"Storyboard\by.png",320,240 M,0,10481,11724,275,410,300,410 F,0,10481,11724,0,1 F,0,11724,14833,1 M,0,15144,15766,300,410,300,425 F,0,15144,15766,1,0
Sprite,Foreground,Centre,"Storyboard\aa.png",320,240 M,0,18875,,314,415 F,0,18875,19030,0,1 F,0,19030,23382,1 F,0,23382,23538,1,0
Sprite,Foreground,Centre,"Storyboard\ab.png",320,240 M,0,21362,,541,415 F,0,21362,21517,0,1 F,0,21517,23382,1 F,0,23382,23538,1,0
Sprite,Foreground,Centre,"Storyboard\ac.png",320,240 M,0,23849,,314,415 F,0,23849,24004,0,1 F,0,24004,27735,1 F,0,27735,27890,1,0
Sprite,Foreground,Centre,"Storyboard\ad.png",320,240 M,0,28823,,314,415 F,0,28823,28978,0,1 F,0,28978,33331,1 F,0,33331,33486,1,0
Sprite,Foreground,Centre,"Storyboard\ae.png",320,240 M,0,31310,,512,415 F,0,31310,31465,0,1 F,0,31465,33331,1 F,0,33331,33486,1,0
Sprite,Foreground,Centre,"Storyboard\af.png",320,240 M,0,33797,,314,415 F,0,33797,33952,0,1 F,0,33952,37372,1 F,0,37372,37528,1,0
Sprite,Foreground,Centre,"Storyboard\ag.png",320,240 M,0,37838,,314,415 F,0,37838,37994,0,1 F,0,37994,47631,1 F,0,47631,47787,1,0
Sprite,Foreground,Centre,"Storyboard\ah.png",320,240 M,0,43123,,525,415 F,0,43123,43279,0,1 F,0,43279,47631,1 F,0,47631,47787,1,0
Sprite,Foreground,Centre,"Storyboard\ai.png",320,240 M,0,48098,,314,415 F,0,48098,48253,0,1 F,0,48253,59756,1 F,0,59756,59911,1,0
Sprite,Foreground,Centre,"Storyboard\aj.png",320,240 M,0,53227,,472,415 F,0,53227,53382,0,1 F,0,53382,59756,1 F,0,59756,59911,1,0
Sprite,Foreground,Centre,"Storyboard\ba.png",320,240 M,0,60222,,314,415 F,0,60222,60377,0,1 F,0,60377,65662,1 F,0,65662,65818,1,0
Sprite,Foreground,Centre,"Storyboard\bb.png",320,240 M,0,63175,,511,415 F,0,63175,63331,0,1 F,0,63331,65662,1 F,0,65662,65818,1,0
Sprite,Foreground,Centre,"Storyboard\bc.png",320,240 M,0,66129,,314,415 F,0,66129,66284,0,1 F,0,66284,70015,1 F,0,70015,70170,1,0
Sprite,Foreground,Centre,"Storyboard\bd.png",320,240 M,0,70636,,314,415 F,0,70636,70792,0,1 F,0,70792,75300,1 F,0,75300,75455,1,0
Sprite,Foreground,Centre,"Storyboard\be.png",320,240 M,0,73123,,515,415 F,0,73123,73279,0,1 F,0,73279,75300,1 F,0,75300,75455,1,0
Sprite,Foreground,Centre,"Storyboard\bf.png",320,240 M,0,75766,,314,415 F,0,75766,75921,0,1 F,0,75921,80274,1 F,0,80274,80429,1,0
Sprite,Foreground,Centre,"Storyboard\bg.png",320,240 M,0,77631,,473,415 F,0,77631,77787,0,1 F,0,77787,80274,1 F,0,80274,80429,1,0
Sprite,Foreground,Centre,"Storyboard\bh.png",320,240 M,0,80740,,314,415 F,0,80740,80895,0,1 F,0,80895,85870,1 F,0,85870,86025,1,0
Sprite,Foreground,Centre,"Storyboard\bi.png",320,240 M,0,82605,,447,415 F,0,82605,82761,0,1 F,0,82761,85870,1 F,0,85870,86025,1,0
Sprite,Foreground,Centre,"Storyboard\ca.png",320,240 M,0,95973,,314,415 F,0,95973,96129,0,1 F,0,96129,100481,1 F,0,100481,100636,1,0
Sprite,Foreground,Centre,"Storyboard\cb.png",320,240 M,0,98460,,567,415 F,0,98460,98616,0,1 F,0,98616,100481,1 F,0,100481,100636,1,0
Sprite,Foreground,Centre,"Storyboard\cc.png",320,240 M,0,100947,,314,415 F,0,100947,101103,0,1 F,0,101103,104833,1 F,0,104833,104989,1,0
Sprite,Foreground,Centre,"Storyboard\cd.png",320,240 M,0,105921,,314,415 F,0,105921,106077,0,1 F,0,106077,110429,1 F,0,110429,110585,1,0
Sprite,Foreground,Centre,"Storyboard\ce.png",320,240 M,0,108408,,531,415 F,0,108408,108564,0,1 F,0,108564,110429,1 F,0,110429,110585,1,0
Sprite,Foreground,Centre,"Storyboard\cf.png",320,240 M,0,110895,,314,415 F,0,110895,111051,0,1 F,0,111051,114471,1 F,0,114471,114626,1,0
Sprite,Foreground,Centre,"Storyboard\cg.png",320,240 M,0,114937,,314,415 F,0,114937,115092,0,1 F,0,115092,124730,1 F,0,124730,124885,1,0
Sprite,Foreground,Centre,"Storyboard\ch.png",320,240 M,0,120222,,557,415 F,0,120222,120377,0,1 F,0,120377,124730,1 F,0,124730,124885,1,0
Sprite,Foreground,Centre,"Storyboard\ci.png",320,240 M,0,125196,,314,415 F,0,125196,125351,0,1 F,0,125351,136854,1 F,0,136854,137009,1,0
Sprite,Foreground,Centre,"Storyboard\cj.png",320,240 M,0,130325,,537,415 F,0,130325,130481,0,1 F,0,130481,136854,1 F,0,136854,137009,1,0
Sprite,Foreground,Centre,"Storyboard\da.png",320,240 M,0,137320,,314,415 F,0,137320,137476,0,1 F,0,137476,142761,1 F,0,142761,142916,1,0
Sprite,Foreground,Centre,"Storyboard\db.png",320,240 M,0,140274,,505,415 F,0,140274,140429,0,1 F,0,140429,142761,1 F,0,142761,142916,1,0
Sprite,Foreground,Centre,"Storyboard\dc.png",320,240 M,0,143227,,314,415 F,0,143227,143382,0,1 F,0,143382,147113,1 F,0,147113,147268,1,0
Sprite,Foreground,Centre,"Storyboard\dd.png",320,240 M,0,147735,,314,415 F,0,147735,147890,0,1 F,0,147890,152398,1 F,0,152398,152553,1,0
Sprite,Foreground,Centre,"Storyboard\de.png",320,240 M,0,150222,,509,415 F,0,150222,150377,0,1 F,0,150377,152398,1 F,0,152398,152553,1,0
Sprite,Foreground,Centre,"Storyboard\df.png",320,240 M,0,152864,,314,415 F,0,152864,153020,0,1 F,0,153020,157372,1 F,0,157372,157528,1,0
Sprite,Foreground,Centre,"Storyboard\dg.png",320,240 M,0,154730,,484,415 F,0,154730,154885,0,1 F,0,154885,157372,1 F,0,157372,157528,1,0
Sprite,Foreground,Centre,"Storyboard\dh.png",320,240 M,0,157838,,314,415 F,0,157838,157994,0,1 F,0,157994,162657,1 F,0,162657,162813,1,0
Sprite,Foreground,Centre,"Storyboard\di.png",320,240 M,0,159704,,478,415 F,0,159704,159859,0,1 F,0,159859,162657,1 F,0,162657,162813,1,0
Sprite,Foreground,Centre,"Storyboard\ea.png",320,240 M,0,182864,,314,415 F,0,182864,183020,0,1 F,0,183020,185041,1 F,0,185041,185196,1,0
Sprite,Foreground,Centre,"Storyboard\eb.png",320,240 M,0,185507,,314,415 F,0,185507,185662,0,1 F,0,185662,187528,1 F,0,187528,187683,1,0
Sprite,Foreground,Centre,"Storyboard\ec.png",320,240 M,0,187994,,314,415 F,0,187994,188149,0,1 F,0,188149,192191,1 F,0,192191,192346,1,0
Sprite,Foreground,Centre,"Storyboard\ed.png",320,240 M,0,192813,,314,415 F,0,192813,192968,0,1 F,0,192968,197476,1 F,0,197476,197631,1,0
Sprite,Foreground,Centre,"Storyboard\ee.png",320,240 M,0,195455,,502,415 F,0,195455,195610,0,1 F,0,195610,197476,1 F,0,197476,197631,1,0
Sprite,Foreground,Centre,"Storyboard\ef.png",320,240 M,0,197942,,314,415 F,0,197942,198098,0,1 F,0,198098,206180,1 F,0,206180,206336,1,0
Sprite,Foreground,Centre,"Storyboard\eg.png",320,240 M,0,201362,,457,415 F,0,201362,201517,0,1 F,0,201517,206180,1 F,0,206180,206336,1,0
Sprite,Foreground,Centre,"Storyboard\ba.png",320,240 M,0,211932,,314,415 F,0,211932,212087,0,1 F,0,212087,217372,1 F,0,217372,217528,1,0
Sprite,Foreground,Centre,"Storyboard\bb.png",320,240 M,0,214885,,510,415 F,0,214885,215041,0,1 F,0,215041,217372,1 F,0,217372,217528,1,0
Sprite,Foreground,Centre,"Storyboard\bc.png",320,240 M,0,217838,,314,415 F,0,217838,217994,0,1 F,0,217994,221724,1 F,0,221724,221880,1,0
Sprite,Foreground,Centre,"Storyboard\bd.png",320,240 M,0,222346,,314,415 F,0,222346,222502,0,1 F,0,222502,227009,1 F,0,227009,227165,1,0
Sprite,Foreground,Centre,"Storyboard\be.png",320,240 M,0,224833,,513,415 F,0,224833,224989,0,1 F,0,224989,227009,1 F,0,227009,227165,1,0
Sprite,Foreground,Centre,"Storyboard\bf.png",320,240 M,0,227476,,314,415 F,0,227476,227631,0,1 F,0,227631,231984,1 F,0,231984,232139,1,0
Sprite,Foreground,Centre,"Storyboard\bg.png",320,240 M,0,229341,,471,415 F,0,229341,229496,0,1 F,0,229496,231984,1 F,0,231984,232139,1,0
Sprite,Foreground,Centre,"Storyboard\bh.png",320,240 M,0,232450,,314,415 F,0,232450,232605,0,1 F,0,232605,239756,1 F,0,239756,239911,1,0
Sprite,Foreground,Centre,"Storyboard\bi.png",320,240 M,0,234315,,451,415 F,0,234315,234471,0,1 F,0,234471,239756,1 F,0,239756,239911,1,0
//Storyboard Sound Samples
//Background Colour Transformations
3,100,163,162,255

[TimingPoints]
1155,310.880829015544,4,1,0,50,1,0
18564,-100,4,1,0,80,0,0
38305,-200,4,1,0,70,0,0
52916,-100,4,1,0,80,0,0
58357,-100,4,1,0,40,0,0
59600,-100,4,1,0,0,0,0
59911,-100,4,1,0,50,0,0
60688,-100,4,1,0,70,0,0
60844,-100,4,1,0,70,0,1
60882,-100,4,1,0,70,0,0
61154,-100,4,1,0,90,0,0
65585,-100,4,1,0,60,0,0
65818,-100,4,1,0,90,0,0
70248,-100,4,1,0,70,0,0
70481,-100,4,1,0,90,0,0
85714,-100,4,1,0,70,0,0
94419,-200,4,2,0,80,0,0
99704,-200,4,1,0,70,0,0
104445,-100,4,1,0,70,0,0
105144,-100,4,1,0,60,0,0
105610,-100,4,1,0,80,0,0
134056,-100,4,1,0,90,0,0
135300,-100,4,1,0,100,0,0
137165,-100,4,1,0,80,0,0
138098,-100,4,1,0,90,0,0
142683,-100,4,1,0,70,0,0
142916,-100,4,1,0,90,0,0
147346,-100,4,1,0,60,0,0
147579,-100,4,1,0,90,0,0
162813,-100,4,1,0,40,0,0
171206,-100,4,1,0,90,0,0
178823,-100,4,1,0,95,0,0
180066,-100,4,1,0,100,0,0
182009,-100,4,1,0,70,0,0
182709,-100,4,1,0,85,0,0
202450,-100,4,1,0,70,0,0
202916,-100,4,1,0,50,0,0
206336,-100,4,1,0,0,0,0
211310,-200,4,1,0,70,0,0
213175,-200,4,1,0,80,0,0
214963,-200,4,1,0,60,0,0
215662,-200,4,1,0,70,0,0
216906,-100,4,1,0,80,0,0
217838,-100,4,1,0,90,0,0
221958,-100,4,1,0,60,0,0
222191,-100,4,1,0,90,0,0
236180,-100,4,1,0,60,0,0
238667,-100,4,1,0,0,0,0

[Colours]
Combo1 : 255,150,0
Combo2 : 42,42,42
Combo3 : 38,60,249
Combo4 : 255,44,13

[HitObjects]
256,192,16077,12,0,17320
256,40,17942,5,0
256,52,18020,1,0
256,64,18098,1,0
256,76,18175,1,0
256,88,18253,1,0
256,100,18331,1,0
256,112,18408,1,0
256,124,18486,1,0
256,136,18564,6,0,B|128:136,2,120,0|0|0
308,144,19341,2,0,B|377:164|381:244,1,120
396,336,19963,2,0,B|476:336,2,60
340,332,20429,2,0,B|340:248,2,60,0|0|0
232,316,21051,1,4
144,256,21362,6,0,B|76:229|76:152,1,120,0|0
24,164,21828,2,0,B|160:164,1,120
212,80,22450,1,0
212,80,22605,1,0
260,56,22761,1,0
260,56,22916,2,0,B|327:82|328:160,1,120,0|0
424,192,23538,1,4
328,240,23849,5,0
256,320,24160,1,0
184,240,24471,1,0
184,240,24626,2,0,B|171:169|94:153,1,120,0|0
108,212,25092,2,0,B|108:80,1,120
204,44,25714,1,0
280,120,26025,6,0,B|349:99|356:22,2,120
256,224,26958,1,0
256,224,27113,1,0
348,284,27424,1,0
348,284,27579,1,0
436,224,27890,1,0
436,224,28046,1,0
348,164,28357,1,0
348,164,28512,1,4
256,104,28823,6,0,B|256:40,2,60
200,108,29289,2,0,B|131:128|127:208,2,120
232,152,30066,2,0,B|232:196|284:200,1,60
312,224,30377,2,0,B|356:236|356:280,1,60
364,316,30688,2,0,B|492:316,1,120,0|4
480,208,31310,5,0
480,208,31465,1,0
480,208,31621,1,0
480,208,31776,2,0,B|477:141|408:121,1,120,0|0
312,76,32398,2,0,B|232:76,2,60
312,132,32864,2,0,B|301:203|225:221,1,120,0|0
180,308,33486,1,4
92,244,33797,5,0
92,244,33952,1,0
92,188,34108,1,0
92,188,34263,2,0,B|28:188,2,60
180,124,34885,1,0
180,124,35041,2,0,B|312:124,2,120
100,48,35973,2,0,B|32:71|28:149,2,120,0|0|0
208,32,36906,1,0
208,32,37061,1,0
316,48,37372,1,0
316,48,37528,1,0
408,104,37838,5,0
408,104,38149,1,0
408,104,38460,2,0,B|400:175|325:196,1,120,4|0
256,264,39393,1,0
256,264,39548,1,0
176,192,39859,1,0
176,192,40015,2,0,B|176:128,2,60
100,268,40947,2,0,B|34:239|37:161,2,120,4|0|0
152,284,42346,2,0,B|188:292|188:332,1,60
236,356,42813,2,0,B|276:356|276:316,1,60,0|0
380,296,43434,6,0,B|476:296,2,90,4|0|0
380,188,44678,2,0,B|380:116,2,60
280,152,45610,1,0
196,80,45921,2,0,B|126:98|117:175,1,120,4|0
116,272,46854,2,0,B|160:272,1,30
240,328,47320,2,0,B|280:328,1,30
364,276,47787,1,0
432,192,48098,5,0
432,192,48408,2,0,B|420:121|345:102,1,120,4|0
256,64,49341,2,0,B|212:64,1,30
128,108,49807,2,0,B|104:140,1,30
56,224,50274,1,0
56,224,50585,1,0
56,224,50895,2,0,B|56:352,2,120,4|0|0
104,200,52294,1,0
152,296,52605,1,0
152,296,52761,1,0
260,292,53072,6,0,B|332:292,2,60,0|0|4
216,196,53693,1,0
216,196,53849,2,0,B|226:125|302:106,1,120,0|0
368,36,54471,2,0,B|468:62|487:176,1,180
484,268,55248,1,0
412,348,55559,1,0
340,268,55870,2,0,B|212:268,3,120
144,192,57113,2,0,B|272:192,3,120,0|0|0|0
256,192,58357,12,0,59600
180,60,60222,5,0
180,60,60533,1,0
180,60,60844,2,0,B|116:71|102:142,1,120,4|0
48,144,61310,2,0,B|184:144,1,120
256,204,61932,1,0
348,148,62243,1,0
348,148,62398,2,0,B|415:168|420:233,1,120,0|0
428,340,63020,6,0,B|500:340,2,60
348,268,63642,1,0
348,268,63797,2,0,B|280:288|275:353,1,120,0|0
172,316,64419,1,0
88,248,64730,1,0
88,248,64885,2,0,B|88:124,2,120
88,304,65662,2,0,B|40:304,2,30,0|0|4
184,252,66129,5,0
240,160,66439,1,0
296,252,66750,1,0
352,160,67061,1,0
408,252,67372,1,0
408,252,67528,2,0,B|476:272|481:337,2,120
404,308,68305,2,0,B|404:172,1,120
404,188,68771,1,0
428,84,69082,2,0,B|488:24,2,60
320,84,69704,1,0
320,84,69859,2,0,B|264:28,2,60
320,140,70325,2,0,B|356:140,2,30
272,168,70636,5,0
272,168,70792,2,0,B|204:188|199:253,1,120,4|0
144,256,71258,2,0,B|284:256,2,120
52,312,72191,1,0
52,312,72346,1,0
24,208,72657,1,0
56,104,72968,5,0
56,104,73123,1,0
56,104,73279,2,0,B|124:124|129:189,1,120,0|0
156,236,73745,2,0,B|224:216|229:151,1,120,0|0
256,48,74367,1,0
360,80,74678,1,0
360,80,74833,2,0,B|492:80,2,120,0|0|4
304,172,75766,5,0
304,172,75921,1,0
304,228,76077,1,0
304,228,76232,2,0,B|372:248|377:313,1,120,0|0
432,312,76699,1,0
432,312,76854,2,0,B|296:312,1,120
312,312,77320,1,0
212,268,77631,6,0,B|144:288|139:353,2,120
148,180,78564,1,0
88,268,78875,1,0
28,180,79186,1,0
28,180,79341,1,0
92,92,79652,1,0
92,92,79807,2,0,B|228:92,1,120
304,36,80429,1,4
392,96,80740,6,0,B|468:96,2,60
392,152,81206,2,0,B|376:221|312:230,1,120,0|0
272,196,81673,1,0
272,196,81828,2,0,B|202:211|193:275,1,120,0|0
193,275,82294,1,0
96,228,82605,6,0,B|96:352,2,120
168,148,83538,2,0,B|168:24,2,120
168,148,84315,1,0
256,192,84471,12,4,85714
140,84,95662,6,0,B|216:32|304:136|372:84,1,240,2|2
372,300,98149,2,0,B|296:352|208:248|140:300,1,240,2|2
36,192,100015,2,0,B|36:120,2,60,0|0|4
288,88,101258,6,0,B|356:108|361:173,2,120
228,296,103123,2,0,B|160:276|155:211,2,120
284,300,104522,5,0
284,300,104678,2,0,B|284:372,2,60
284,192,105300,1,0
284,180,105377,1,0
284,168,105455,1,0
284,156,105533,1,0
284,144,105610,2,0,B|296:74|360:62,1,120,4|0
412,156,106232,5,0
412,156,106388,2,0,B|481:176|485:256,2,120
360,172,107165,1,0
360,172,107320,1,0
308,156,107476,1,0
308,156,107631,1,0
256,172,107787,2,0,B|188:191|185:258,1,120,0|4
76,260,108408,5,0
76,260,108564,1,0
76,208,108719,1,0
76,208,108875,2,0,B|76:80,2,120
124,232,109652,1,0
168,204,109807,1,0
212,232,109963,2,0,B|280:255|284:333,1,120,0|0
284,320,110585,1,4
388,344,110895,6,0,B|444:312,1,60
416,268,111206,2,0,B|452:208,1,60
404,184,111517,2,0,B|412:120,1,60
344,40,111984,1,0
344,40,112139,2,0,B|276:63|272:141,1,120
168,160,112761,1,0
168,160,113072,2,0,B|100:137|96:59,2,120
256,224,114004,1,0
256,224,114160,2,0,B|324:247|328:325,1,120
380,312,114626,2,0,B|248:312,1,120
160,352,115248,1,0
116,252,115559,6,0,B|48:275|44:353,2,120,4|0|0
164,156,116491,1,0
164,156,116647,2,0,B|232:133|236:55,1,120
180,68,117113,2,0,B|316:68,1,120
392,124,117735,1,0
444,220,118046,2,0,B|444:352,2,120,4|0|0
396,196,118823,1,0
348,216,118978,2,0,B|279:237|274:315,1,120
168,324,119600,1,0
168,324,119911,2,0,B|92:324,2,60
144,216,120533,6,0,B|133:113|24:76,2,180,4|0|0
144,216,121776,1,0
228,152,122087,1,0
228,152,122398,1,0
328,192,122709,1,0
328,192,123020,1,4
380,100,123331,1,0
380,100,123642,1,0
380,100,123797,1,0
380,100,123952,2,0,B|448:121|453:199,2,120
272,84,124885,2,0,B|272:20,2,60,0|0|0
164,96,125507,6,0,B|32:96,1,120,4|0
24,204,126129,2,0,B|160:204,1,120
143,203,126595,1,0
204,292,126906,1,0
204,292,127061,2,0,B|272:270|277:192,1,120,0|0
352,128,127683,1,0
424,208,127994,2,0,B|427:273|496:294,2,120,4|0|0
424,208,128771,1,0
424,208,128927,1,0
460,104,129237,1,0
364,56,129548,1,0
256,36,129859,2,0,B|192:36,2,60
256,92,130325,5,0
288,136,130481,1,4
288,136,130792,1,0
256,180,130947,1,0
256,180,131258,1,0
256,180,131569,2,0,B|156:206|137:320,1,180
40,268,132346,1,0
60,164,132657,1,0
164,192,132968,5,0
256,284,133279,1,0
348,192,133590,1,0
256,100,133901,1,0
92,192,134211,5,0
256,320,134522,1,0
420,192,134833,1,0
256,64,135144,1,0
28,164,135455,6,0,B|28:244,1,60,0|0
228,356,135921,2,0,B|308:356,1,60,0|0
484,220,136388,2,0,B|484:140,1,60,0|0
284,28,136854,2,0,B|204:28,1,60,0|0
176,124,137320,6,0,B|44:124,2,120,0|0|4
256,196,138253,1,0
256,196,138408,2,0,B|319:182|329:111,2,120
148,216,139341,1,0
148,216,139496,2,0,B|81:236|76:301,1,120,0|0
180,332,140118,5,0
180,332,140274,1,0
180,332,140429,2,0,B|316:332,1,120
300,332,140895,1,0
380,260,141206,1,0
300,188,141517,1,0
380,116,141828,1,0
380,116,141984,2,0,B|447:136|452:201,2,120
336,84,142761,2,0,B|336:44,2,30,0|0|4
232,60,143227,6,0,B|165:80|160:145,1,120
52,152,143849,2,0,B|60:221|123:237,1,120
220,192,144471,1,0
220,192,144626,2,0,B|288:212|293:277,1,120
388,332,145248,1,0
388,332,145403,2,0,B|456:312|461:247,1,120
460,192,145870,2,0,B|455:121|393:101,1,120
356,140,146336,1,0
316,104,146491,2,0,B|184:104,1,120
148,80,146958,2,0,B|148:16,2,60
100,104,147424,2,0,B|56:104,2,30
100,160,147735,5,0
100,160,147890,2,0,B|168:180|173:245,1,120,4|0
228,244,148357,2,0,B|88:244,1,120
32,324,148978,1,0
32,324,149289,1,0
32,324,149445,2,0,B|172:324,1,120
256,296,150066,6,0,B|256:368,2,60
356,252,150688,1,0
388,208,150844,1,0
388,208,151155,1,0
388,208,151465,2,0,B|383:143|315:123,1,120,0|0
312,176,151932,2,0,B|312:44,1,120
312,56,152553,1,4
204,40,152864,5,0
204,40,153020,1,0
204,40,153175,1,0
204,40,153331,2,0,B|136:60|131:125,1,120,0|0
92,164,153797,1,0
132,200,153952,1,0
228,252,154263,1,0
228,252,154419,1,0
196,356,154730,6,0,B|332:356,2,120
316,28,155662,2,0,B|180:28,2,120
256,192,156439,12,4,157528
288,112,157838,5,0
288,112,157994,1,0
288,112,158149,1,0
288,112,158305,2,0,B|354:135|357:199,1,120,0|0
412,200,158771,1,0
412,200,158927,2,0,B|280:200,1,120
292,200,159393,1,0
256,304,159704,5,0
212,80,160015,1,0
168,304,160325,1,0
124,80,160636,1,0
80,304,160947,1,0
40,84,161258,1,0
40,84,161414,1,0
256,192,161569,12,4,162813
256,192,171517,12,4,172761
256,112,173072,5,0
184,192,173382,2,0,B|108:192,2,60,0|0|0
256,272,174004,1,0
332,192,174315,1,0
332,192,174626,2,0,B|408:192,2,60,0|0|0
256,112,175248,5,4
164,56,175559,1,0
72,112,175870,1,0
72,112,176025,1,0
72,112,176180,1,0
72,220,176491,1,0
164,280,176802,1,0
256,220,177113,1,0
256,220,177268,1,0
256,220,177424,1,0
360,192,177735,5,4
256,88,178046,1,0
152,192,178357,1,0
256,296,178667,1,0
480,192,178978,5,0
256,28,179289,1,0
32,192,179600,1,0
256,356,179911,1,0
280,252,180222,6,0,B|352:252,2,60,0|0|0
240,216,180688,6,0,B|164:216,2,60
280,180,181155,6,0,B|352:180,2,60
240,140,181621,6,0,B|172:140,2,60,0|0|0
276,100,182087,5,0
288,100,182165,1,0
300,100,182243,1,0
312,100,182320,1,0
324,100,182398,1,0
336,100,182476,1,0
348,100,182553,1,0
360,100,182631,1,0
372,100,182709,6,0,B|438:123|441:187,1,120,4|0
496,188,183175,2,0,B|360:188,1,120,0|0
336,228,183642,1,0
296,192,183797,2,0,B|230:215|227:279,1,120,0|0
228,336,184263,2,0,B|300:336,2,60
128,292,184885,1,0
76,200,185196,1,4
76,92,185507,6,0,B|8:92,2,60
128,76,185973,2,0,B|128:8,2,60
236,96,186595,1,0
236,96,186750,2,0,B|302:119|305:183,2,120
188,192,187683,1,4
148,292,187994,5,0
148,292,188149,2,0,B|76:292,2,60
252,320,188771,2,0,B|319:300|325:236,1,120
272,232,189237,2,0,B|412:232,2,120
192,160,190170,2,0,B|64:160,2,120
256,72,191103,1,0
256,72,191258,2,0,B|323:91|329:155,1,120
276,160,191724,2,0,B|420:160,1,120
472,236,192346,1,4
424,332,192657,6,0,B|358:309|355:245,1,120,0|0
316,208,193123,2,0,B|250:231|247:295,1,120,0|0
304,296,193590,1,0
304,296,193745,2,0,B|168:296,1,120
128,300,194211,2,0,B|84:308|84:360,2,60
128,192,194833,2,0,B|120:122|58:105,1,120,0|4
136,28,195455,6,0,B|204:44,1,60
200,96,195766,2,0,B|260:140,1,60
224,180,196077,2,0,B|244:248,1,60
316,316,196543,1,0
316,316,196699,1,0
408,256,197009,1,0
316,200,197320,1,0
408,144,197631,1,4
316,84,197942,6,0,B|184:84,1,120
136,176,198564,2,0,B|276:176,1,120
308,272,199186,1,0
308,272,199341,2,0,B|371:259|384:190,2,120
256,252,200118,2,0,B|192:264|179:333,1,120
84,284,200740,1,0
120,184,201051,1,0
196,104,201362,6,0,B|332:104,2,120
256,192,202294,1,0
256,192,202605,1,4
256,192,202916,12,0,206336
256,44,211932,6,0,B|324:44,2,60,0|0|4
256,348,214885,1,0
256,348,215041,1,4
256,264,216129,6,0,B|224:216|292:168|256:120,1,150
256,68,217061,2,0,B|336:68,2,60
200,68,217528,6,0,B|136:81|124:150,1,120,4|0
24,192,218149,1,0
24,192,218460,2,0,B|24:261|85:283,1,120
180,232,219082,1,0
180,232,219237,2,0,B|248:252|253:317,1,120
360,340,219859,1,0
360,340,220015,2,0,B|428:320|433:255,1,120
488,256,220481,2,0,B|352:256,1,120
368,256,220947,1,0
368,256,221103,1,0
268,220,221414,2,0,B|228:220|224:172,1,60
220,132,221724,2,0,B|220:100|184:88,1,60
132,80,222035,2,0,B|132:40,2,30
100,124,222346,5,0
100,124,222502,1,4
36,212,222813,1,0
36,212,222968,2,0,B|45:282|108:297,1,120,0|0
184,220,223590,2,0,B|252:240|257:304,1,120,0|0
204,308,224056,2,0,B|344:308,1,120
432,308,224678,6,0,B|472:308|476:360,2,60
376,216,225300,1,0
376,216,225455,2,0,B|376:92,1,120
280,44,226077,2,0,B|280:172,1,120
228,176,226543,2,0,B|160:196|155:260,2,120,0|0|4
256,280,227476,5,0
256,280,227631,2,0,B|332:280,2,60
152,312,228253,2,0,B|88:312,2,60
256,348,228875,1,0
256,348,229030,1,0
364,356,229341,6,0,B|504:356,1,120
312,192,229963,2,0,B|172:192,1,120
36,32,230585,2,0,B|184:32,1,120
256,192,231051,12,4,232139
168,192,232450,6,0,B|100:192,2,60
220,192,232916,2,0,B|286:215|289:279,1,120,0|0
332,312,233382,1,0
332,312,233538,2,0,B|398:289|401:225,1,120,0|0
348,220,234004,2,0,B|480:220,2,120
256,160,234937,2,0,B|128:160,2,120
256,268,235870,2,0,B|256:336,1,60
256,192,236180,12,0,238667
