osu file format v9

[General]
AudioFilename: [DL-FS][OP] Infinite Stratos - Straight Jet [53971AD1].mp3
AudioLeadIn: 2500
PreviewTime: 54365
Countdown: 0
SampleSet: Soft
StackLeniency: 0.7
Mode: 0
LetterboxInBreaks: 1
CountdownOffset: 3

[Editor]
DistanceSpacing: 1
BeatDivisor: 4
GridSize: 8

[Metadata]
Title:STRAIGHT JET (TV Size)
Artist:Kuribayashi Minami
Creator:net45291
Version:Easy
Source:Infinite Stratos
Tags:DJPop

[Difficulty]
HPDrainRate:1
CircleSize:3
OverallDifficulty:1
ApproachRate:2
SliderMultiplier:0.9
SliderTickRate:1

[Events]
//Background and Video events
Video,0,"Minami Kuribayashi - STRAIGHT JET (TV Size).avi"
0,0,"BG.png"
//Break Periods
//Storyboard Layer 0 (Background)
//Storyboard Layer 1 (Fail)
//Storyboard Layer 2 (Pass)
//Storyboard Layer 3 (Foreground)
//Storyboard Sound Samples
//Background Colour Transformations
3,100,163,162,255

[TimingPoints]
215,389.61038961039,4,2,1,75,1,0
22422,-100,4,2,1,5,0,0
22617,-100,4,2,1,75,0,0
54755,-100,4,2,1,75,0,1
81643,-100,4,2,1,5,0,1
81838,-100,4,2,1,75,0,1
82033,-100,4,2,1,5,0,1
82422,-100,4,2,1,75,0,1
85929,-100,4,2,1,75,0,0
88851,-100,4,2,1,50,0,0

[Colours]
Combo1 : 255,62,62
Combo2 : 57,79,223
Combo3 : 255,157,60

[HitObjects]
80,120,215,1,6
152,72,604,2,0,B|176:56|208:64|248:64|248:88,1,90,0|2
224,160,1383,2,0,B|280:184|312:168,1,90,0|0
400,144,2163,1,0
448,216,2552,2,0,B|448:304,2,90,2|0|0
360,224,3721,5,0
344,312,4111,2,0,B|296:328|240:312,1,90,2|0
168,304,4890,1,2
256,192,5279,12,4,7812
376,128,8591,5,0
256,192,9176,1,8
168,200,9565,2,0,B|96:216|72:168,1,90,2|8
96,96,10344,2,2,B|152:88|192:120,2,90,2|8|2
40,168,11513,1,8
56,256,11903,2,0,B|56:288|80:304,2,45,2|0|8
256,192,12682,12,6,15799
256,192,16578,5,2
168,192,16968,2,0,B|128:200|104:192|80:168,2,90
256,192,18137,1,2
432,192,18916,5,2
376,128,19305,2,0,B|360:96|320:88|288:104,2,90
328,200,20474,1,2
208,72,21253,1,2
32,96,22033,6,0,B|16:128|8:168|32:200|48:216|72:224,1,135
192,216,23202,1,0
280,192,23591,2,0,B|376:192,2,90,2|0|2
224,128,24760,1,0
136,96,25150,2,0,B|88:72|32:96,2,90,2|0|2
88,176,26318,2,0,B|152:176,2,45,0|0|2
264,144,27487,5,2
176,152,27877,1,0
120,224,28266,2,0,B|72:216|40:256,2,90,6|8|2
208,224,29435,2,0,B|304:224,3,90,8|0|8|0
384,208,30994,5,8
320,144,31383,2,0,B|280:112|224:136,2,90,2|8|2
320,232,32552,1,8
232,232,32942,2,0,B|176:224|128:256,2,90,2|8|2
320,232,34111,1,8
200,104,34890,5,8
112,104,35279,2,0,B|48:104,2,45,2|0|8
152,184,36059,1,2
112,264,36448,1,8
280,208,37227,5,8
240,288,37617,1,2
328,320,38007,1,8
496,296,38786,5,8
408,264,39176,2,0,B|400:200|344:184,2,90,6|0|6
248,184,40734,5,6
104,296,41513,1,2
248,184,42292,1,2
160,168,42682,1,8
72,184,43072,1,2
24,112,43461,6,0,B|80:80|120:88,1,90,8|2
192,120,44240,1,8
280,136,44630,2,0,B|328:152|384:136,2,90,2|8|2
96,136,46189,5,2
208,272,46968,2,2,B|152:272|104:296,2,90,2|8|2
368,192,48526,2,2,B|440:192|464:216,2,90,2|8|2
192,216,50085,5,2
136,144,50474,2,2,B|40:144,1,90
256,192,51059,12,0,53202
384,144,54760,6,2,B|280:144,2,90,4|8|2
360,232,55929,1,8
272,232,56318,1,2
184,208,56708,2,0,B|112:192|80:224,2,90,8|2|8
208,296,57877,5,2
296,312,58266,1,8
384,304,58656,1,2
440,232,59046,1,8
456,144,59435,2,0,B|464:72|440:48,1,90,2|8
368,72,60215,2,0,B|344:120|368:176,1,90,2|8
272,184,60994,5,6
184,184,61383,1,8
120,248,61773,2,0,B|104:296|88:336,2,90,2|8|2
200,200,62942,1,8
280,240,63331,2,2,B|328:328,2,90,2|8|2
112,216,64890,5,2
264,304,65669,1,2
344,264,66059,1,8
328,176,66448,1,2
176,80,67227,6,0,B|224:56|280:88,2,90,4|8|2
104,128,68396,1,8
72,216,68786,1,2
112,296,69176,1,8
192,344,69565,1,2
264,184,70344,5,2
336,352,71124,1,2
256,312,71513,1,8
184,256,71903,2,0,B|96:264|56:216,1,135
64,56,73461,5,4
240,80,74240,1,2
112,208,75020,2,0,B|176:208|200:232,2,90,2|8|2
264,80,76578,6,2,B|368:80,2,90,6|8|2
288,168,77747,1,8
240,248,78137,2,2,B|136:248,2,90,6|8|2
328,224,79305,1,8
384,152,79695,5,6
208,112,80474,1,2
32,152,81253,2,2,B|72:208|152:224,2,135,2|0|0
256,192,82812,12,4,88851
