osu file format v10

[General]
AudioFilename: STRAIGHT JET.mp3
AudioLeadIn: 2000
PreviewTime: 54979
Countdown: 0
SampleSet: Normal
StackLeniency: 0.7
Mode: 1
LetterboxInBreaks: 0

[Editor]
DistanceSpacing: 1.4
BeatDivisor: 4
GridSize: 4

[Metadata]
Title:STRAIGHT JET (TV Size)
TitleUnicode:STRAIGHT JET (TV Size)
Artist:Kuribayashi Minami
ArtistUnicode:Kuribayashi Minami
Creator:No_Gu
Version:Pangko
Source:Infinite Stratos
Tags:IS opening Nymph Melophobia Alace
BeatmapID:186763
BeatmapSetID:54031

[Difficulty]
HPDrainRate:5
CircleSize:4
OverallDifficulty:5
ApproachRate:5
SliderMultiplier:1.40000000596046
SliderTickRate:1

[Events]
//Background and Video events
0,0,"Taiko BG.jpg"
//Break Periods
//Storyboard Layer 0 (Background)
//Storyboard Layer 1 (Fail)
//Storyboard Layer 2 (Pass)
//Storyboard Layer 3 (Foreground)
//Storyboard Sound Samples
//Background Colour Transformations
3,100,163,162,255

[TimingPoints]
456,389.61038961039,4,1,0,70,1,0
55001,-100,4,1,0,70,0,1
82956,-100,4,1,0,70,0,0

[Colours]
Combo1 : 128,128,255
Combo2 : 0,255,64

[HitObjects]
76,140,456,1,0,0:0:0
340,188,845,1,0,0:0:0
72,148,1235,1,0,0:0:0
204,168,1430,1,2,0:0:0
468,204,1819,1,2,0:0:0
220,100,2209,1,2,0:0:0
464,216,2598,1,2,0:0:0
220,104,2988,1,2,0:0:0
344,156,3183,1,0,0:0:0
220,104,3378,1,2,0:0:0
280,132,3572,1,0,0:0:0
32,232,3962,1,0,0:0:0
280,132,4352,1,0,0:0:0
156,180,4546,1,2,0:0:0
408,84,4936,1,2,0:0:0
272,176,5326,1,2,0:0:0
272,176,5520,1,0,0:0:0
272,176,5715,1,2,0:0:0
240,80,5910,1,0,0:0:0
240,80,6007,1,0,0:0:0
240,80,6105,1,2,0:0:0
240,80,6202,1,2,0:0:0
240,80,6300,1,2,0:0:0
240,80,6397,1,0,0:0:0
240,80,6494,1,2,0:0:0
240,80,6592,1,0,0:0:0
168,32,6689,5,2,0:0:0
176,112,7079,1,0,0:0:0
88,144,7274,1,0,0:0:0
88,144,7371,1,0,0:0:0
88,144,7468,1,0,0:0:0
176,112,7663,1,2,0:0:0
168,32,8053,1,2,0:0:0
168,32,8443,1,2,0:0:0
168,32,8832,1,2,0:0:0
168,32,9222,1,2,0:0:0
168,32,9417,1,0,0:0:0
168,32,9611,1,2,0:0:0
188,112,9806,1,0,0:0:0
244,72,10196,1,2,0:0:0
244,72,10391,1,0,0:0:0
244,72,10488,1,0,0:0:0
244,72,10585,1,0,0:0:0
244,72,10780,1,2,0:0:0
244,72,10975,1,0,0:0:0
244,72,11170,1,2,0:0:0
244,72,11559,1,2,0:0:0
244,72,11754,1,0,0:0:0
160,84,11949,1,2,0:0:0
176,24,12339,1,2,0:0:0
176,24,12533,1,0,0:0:0
176,24,12728,1,2,0:0:0
220,152,12923,1,0,0:0:0
220,152,13313,1,0,0:0:0
220,152,13702,1,0,0:0:0
168,104,13897,1,0,0:0:0
168,104,13994,1,0,0:0:0
168,104,14092,1,0,0:0:0
188,96,14189,1,0,0:0:0
168,104,14287,1,0,0:0:0
336,128,14481,1,4,0:0:0
336,128,14871,1,4,0:0:0
336,128,15261,1,4,0:0:0
336,128,15456,1,4,0:0:0
336,128,15650,1,4,0:0:0
184,192,16040,5,0,0:0:0
184,192,16235,1,0,0:0:0
204,68,16430,1,0,0:0:0
176,88,16819,1,2,0:0:0
292,180,17111,1,2,0:0:0
292,180,17404,1,2,0:0:0
188,32,17598,1,0,0:0:0
188,32,17891,1,2,0:0:0
188,32,17988,1,0,0:0:0
188,32,18183,1,2,0:0:0
188,32,18378,1,0,0:0:0
188,32,18572,1,0,0:0:0
412,264,18670,1,2,0:0:0
412,264,18767,1,0,0:0:0
412,264,18962,1,2,0:0:0
184,192,19157,1,0,0:0:0
184,192,19352,1,2,0:0:0
184,192,19547,1,0,0:0:0
260,56,19741,1,2,0:0:0
176,88,19936,1,2,0:0:0
292,180,20228,1,2,0:0:0
292,180,20521,1,2,0:0:0
188,32,20715,1,0,0:0:0
188,32,21008,1,2,0:0:0
188,32,21105,1,0,0:0:0
188,32,21300,1,2,0:0:0
188,32,21495,1,0,0:0:0
188,32,21689,1,0,0:0:0
412,264,21787,1,2,0:0:0
412,264,21884,1,0,0:0:0
412,264,22079,1,2,0:0:0
176,80,22274,1,0,0:0:0
176,80,22566,1,2,0:0:0
176,80,22663,1,0,0:0:0
176,80,22858,1,2,0:0:0
352,216,23053,1,0,0:0:0
352,216,23443,1,0,0:0:0
280,68,23832,1,0,0:0:0
280,68,24222,1,0,0:0:0
280,68,24611,1,0,0:0:0
280,68,25001,1,0,0:0:0
280,68,25196,1,0,0:0:0
280,68,25391,1,0,0:0:0
280,68,25683,1,2,0:0:0
280,68,25780,1,0,0:0:0
248,84,25975,1,2,0:0:0
168,112,26170,1,0,0:0:0
168,112,26559,1,2,0:0:0
168,112,26754,1,2,0:0:0
224,160,26949,1,0,0:0:0
224,160,27144,1,2,0:0:0
224,160,27339,1,0,0:0:0
224,160,27533,1,2,0:0:0
308,76,27728,1,0,0:0:0
308,76,27826,1,0,0:0:0
308,76,27923,1,2,0:0:0
308,76,28020,1,2,0:0:0
308,76,28118,1,0,0:0:0
308,76,28215,1,2,0:0:0
308,76,28313,1,0,0:0:0
208,52,28507,5,0,0:0:0
208,52,28800,1,0,0:0:0
208,52,28897,1,2,0:0:0
208,52,29092,1,2,0:0:0
208,52,29287,1,0,0:0:0
208,52,29481,1,0,0:0:0
208,52,29579,1,0,0:0:0
208,52,29676,1,2,0:0:0
208,52,29871,1,2,0:0:0
176,76,30066,1,0,0:0:0
176,76,30358,1,2,0:0:0
176,76,30456,1,0,0:0:0
176,76,30650,1,2,0:0:0
288,160,30845,1,0,0:0:0
288,160,31040,1,0,0:0:0
288,160,31137,1,2,0:0:0
288,160,31235,1,0,0:0:0
288,160,31430,1,2,0:0:0
208,52,31624,5,0,0:0:0
172,112,31819,1,0,0:0:0
208,52,31917,1,0,0:0:0
208,52,32014,1,2,0:0:0
208,52,32209,1,2,0:0:0
208,52,32404,1,0,0:0:0
208,52,32696,1,0,0:0:0
208,52,32793,1,2,0:0:0
208,52,32988,1,2,0:0:0
176,76,33183,1,0,0:0:0
256,92,33378,1,0,0:0:0
176,76,33475,1,2,0:0:0
176,76,33573,1,0,0:0:0
176,76,33767,1,2,0:0:0
288,160,33962,1,0,0:0:0
288,160,34254,1,2,0:0:0
288,160,34352,1,0,0:0:0
288,160,34547,1,2,0:0:0
144,144,34741,5,0,0:0:0
176,76,35131,1,2,0:0:0
288,88,35326,1,0,0:0:0
288,88,35423,1,2,0:0:0
288,88,35520,1,0,0:0:0
288,88,35715,1,0,0:0:0
288,88,35910,1,2,0:0:0
288,88,36105,1,2,0:0:0
168,108,36494,1,2,0:0:0
168,108,36592,1,2,0:0:0
168,108,36689,1,2,0:0:0
168,108,36884,1,2,0:0:0
168,108,37274,1,2,0:0:0
168,108,37371,1,2,0:0:0
168,108,37468,1,2,0:0:0
168,108,37663,1,2,0:0:0
224,116,37858,1,0,0:0:0
224,116,38150,1,2,0:0:0
224,116,38248,1,0,0:0:0
224,116,38443,1,2,0:0:0
224,116,38637,1,0,0:0:0
240,60,38735,1,2,0:0:0
240,60,38832,1,0,0:0:0
240,60,38930,1,2,0:0:0
240,60,39027,1,2,0:0:0
240,60,39222,1,0,0:0:0
240,60,39417,1,4,0:0:0
240,80,39709,1,4,0:0:0
240,80,40001,1,6,0:0:0
176,44,40196,1,6,0:0:0
176,44,40391,1,2,0:0:0
176,44,40488,1,2,0:0:0
192,60,40585,1,2,0:0:0
192,60,40683,1,2,0:0:0
192,60,40780,1,2,0:0:0
160,176,40975,5,4,0:0:0
296,196,41267,1,2,0:0:0
128,92,41365,1,0,0:0:0
248,132,41559,1,2,0:0:0
272,140,41754,1,4,0:0:0
248,132,42046,1,2,0:0:0
248,132,42144,1,0,0:0:0
248,132,42339,1,2,0:0:0
160,176,42533,1,4,0:0:0
244,36,42728,1,2,0:0:0
296,196,42825,1,2,0:0:0
128,92,42923,1,0,0:0:0
248,132,43117,1,2,0:0:0
272,140,43312,1,4,0:0:0
248,132,43702,1,0,0:0:0
196,4,43897,1,0,0:0:0
204,64,44092,1,4,0:0:0
280,164,44384,1,2,0:0:0
280,164,44481,1,0,0:0:0
280,164,44676,1,2,0:0:0
164,108,44871,1,4,0:0:0
312,216,45163,1,2,0:0:0
204,64,45261,1,0,0:0:0
208,84,45456,1,2,0:0:0
176,188,45650,1,4,0:0:0
176,188,45845,1,2,0:0:0
176,188,45943,1,2,0:0:0
176,188,46040,1,0,0:0:0
176,188,46235,1,2,0:0:0
176,188,46430,1,4,0:0:0
164,32,46624,1,2,0:0:0
164,32,46722,1,2,0:0:0
228,144,46819,1,0,0:0:0
228,144,47014,1,2,0:0:0
296,96,47209,5,4,0:0:0
296,96,47501,1,4,0:0:0
296,96,47793,1,4,0:0:0
188,72,47988,1,4,0:0:0
308,176,48183,1,2,0:0:0
308,176,48280,1,2,0:0:0
200,92,48378,1,0,0:0:0
232,168,48572,1,2,0:0:0
232,168,48767,1,4,0:0:0
196,156,49157,1,0,0:0:0
196,156,49546,1,4,0:0:0
196,156,49936,1,0,0:0:0
192,120,50326,1,6,0:0:0
192,120,50520,1,6,0:0:0
192,120,50910,1,6,0:0:0
196,156,51105,1,6,0:0:0
200,92,51494,1,6,0:0:0
220,56,51884,1,0,0:0:0
288,128,52274,1,0,0:0:0
288,128,52663,1,0,0:0:0
288,128,53053,1,0,0:0:0
204,76,53248,1,0,0:0:0
200,148,53443,1,2,0:0:0
200,148,53540,1,2,0:0:0
200,148,53637,1,2,0:0:0
200,148,53832,1,2,0:0:0
204,104,53930,1,2,0:0:0
204,104,54027,1,2,0:0:0
216,136,54222,1,0,0:0:0
216,136,54319,1,0,0:0:0
216,136,54417,1,2,0:0:0
216,136,54514,1,2,0:0:0
216,136,54611,1,0,0:0:0
216,136,54709,1,2,0:0:0
216,136,54806,1,0,0:0:0
184,12,54904,1,2,0:0:0
128,120,55001,5,0,0:0:0
336,200,55293,1,0,0:0:0
336,200,55391,1,2,0:0:0
336,200,55585,1,0,0:0:0
276,96,55780,1,2,0:0:0
252,84,55878,1,0,0:0:0
252,84,56072,1,2,0:0:0
252,84,56170,1,0,0:0:0
412,220,56365,1,2,0:0:0
368,208,56559,1,0,0:0:0
368,208,56754,1,0,0:0:0
368,208,56852,1,0,0:0:0
368,208,56949,1,2,0:0:0
368,208,57144,1,0,0:0:0
368,208,57339,1,2,0:0:0
368,208,57436,1,0,0:0:0
368,208,57631,1,2,0:0:0
368,208,57728,1,0,0:0:0
368,208,57923,1,2,0:0:0
128,120,58118,1,0,0:0:0
336,200,58410,1,0,0:0:0
336,200,58508,1,2,0:0:0
336,200,58702,1,0,0:0:0
276,96,58897,1,2,0:0:0
252,84,58995,1,0,0:0:0
252,84,59189,1,2,0:0:0
252,84,59287,1,0,0:0:0
412,220,59482,1,2,0:0:0
368,208,59676,1,0,0:0:0
212,108,59774,1,2,0:0:0
212,108,59871,1,2,0:0:0
212,108,59968,1,0,0:0:0
368,208,60066,1,2,0:0:0
368,208,60261,1,0,0:0:0
152,72,60358,1,2,0:0:0
152,72,60456,1,0,0:0:0
152,72,60650,1,2,0:0:0
152,72,60845,1,0,0:0:0
152,72,61040,1,2,0:0:0
168,176,61235,5,0,0:0:0
168,176,61527,1,0,0:0:0
168,176,61624,1,2,0:0:0
168,176,61819,1,2,0:0:0
372,104,62014,1,0,0:0:0
372,104,62209,1,2,0:0:0
372,104,62404,1,0,0:0:0
372,104,62598,1,2,0:0:0
220,40,62988,1,0,0:0:0
220,40,63085,1,0,0:0:0
220,40,63183,1,2,0:0:0
220,40,63378,1,2,0:0:0
220,40,63572,1,0,0:0:0
220,40,63962,1,0,0:0:0
244,124,64157,1,0,0:0:0
184,96,64352,1,2,0:0:0
244,124,64449,1,0,0:0:0
184,96,64644,1,2,0:0:0
244,124,64741,1,0,0:0:0
188,52,64936,1,2,0:0:0
244,124,65033,1,0,0:0:0
244,124,65228,1,2,0:0:0
232,96,65326,1,0,0:0:0
216,168,65423,1,2,0:0:0
232,96,65520,1,0,0:0:0
212,52,65715,1,2,0:0:0
128,144,65910,1,0,0:0:0
236,152,66007,1,2,0:0:0
236,152,66105,1,2,0:0:0
236,152,66202,1,0,0:0:0
128,144,66300,1,2,0:0:0
236,152,66397,1,2,0:0:0
236,152,66494,1,0,0:0:0
236,152,66592,1,2,0:0:0
128,144,66689,1,0,0:0:0
128,144,66884,1,2,0:0:0
248,160,67079,1,0,0:0:0
152,4,67176,1,2,0:0:0
152,4,67274,1,0,0:0:0
128,120,67468,5,0,0:0:0
336,200,67760,1,0,0:0:0
336,200,67858,1,2,0:0:0
336,200,68052,1,0,0:0:0
276,96,68247,1,2,0:0:0
252,84,68345,1,0,0:0:0
252,84,68539,1,2,0:0:0
252,84,68637,1,0,0:0:0
412,220,68832,1,2,0:0:0
368,208,69026,1,0,0:0:0
368,208,69221,1,0,0:0:0
368,208,69319,1,0,0:0:0
368,208,69416,1,2,0:0:0
368,208,69611,1,0,0:0:0
368,208,69806,1,2,0:0:0
368,208,69903,1,0,0:0:0
368,208,70098,1,2,0:0:0
368,208,70195,1,0,0:0:0
368,208,70390,1,2,0:0:0
128,120,70585,1,0,0:0:0
336,200,70878,1,2,0:0:0
336,200,71169,1,0,0:0:0
276,96,71364,1,2,0:0:0
252,84,71462,1,0,0:0:0
252,84,71656,1,0,0:0:0
252,84,71754,1,2,0:0:0
412,220,71949,1,2,0:0:0
368,208,72143,1,4,0:0:0
212,108,72435,1,4,0:0:0
368,208,72728,1,6,0:0:0
152,72,73117,1,2,0:0:0
152,72,73312,1,0,0:0:0
152,72,73507,1,2,0:0:0
168,176,73702,5,0,0:0:0
240,32,73994,1,2,0:0:0
168,176,74091,1,0,0:0:0
168,176,74286,1,2,0:0:0
372,104,74676,1,2,0:0:0
372,104,75065,1,6,0:0:0
220,40,75455,1,2,0:0:0
220,40,75552,1,2,0:0:0
220,40,75650,1,0,0:0:0
220,40,75845,1,2,0:0:0
220,40,76039,1,0,0:0:0
240,32,76235,1,2,0:0:0
240,32,76332,1,2,0:0:0
220,40,76429,1,0,0:0:0
240,32,76527,1,2,0:0:0
244,124,76624,1,0,0:0:0
148,56,76819,1,0,0:0:0
176,104,77014,1,0,0:0:0
148,56,77111,1,0,0:0:0
148,56,77209,1,2,0:0:0
148,56,77404,1,0,0:0:0
148,56,77598,1,2,0:0:0
148,56,77891,1,2,0:0:0
148,56,78183,1,2,0:0:0
148,56,78378,1,0,0:0:0
176,104,78573,1,0,0:0:0
148,56,78670,1,0,0:0:0
148,56,78768,1,2,0:0:0
148,56,78963,1,0,0:0:0
148,56,79157,1,2,0:0:0
148,56,79450,1,2,0:0:0
148,56,79742,1,2,0:0:0
268,84,79936,1,0,0:0:0
268,84,80326,1,0,0:0:0
268,84,80715,1,0,0:0:0
268,84,81105,1,0,0:0:0
268,84,81300,1,0,0:0:0
268,84,81494,1,0,0:0:0
268,84,81884,1,2,0:0:0
268,84,82079,1,2,0:0:0
268,84,82176,1,2,0:0:0
268,84,82274,1,0,0:0:0
268,84,82468,1,2,0:0:0
268,84,82663,1,0,0:0:0
268,84,82858,1,2,0:0:0
208,128,83053,5,0,0:0:0
208,128,83443,1,0,0:0:0
208,128,83832,1,0,0:0:0
208,128,84027,1,2,0:0:0
208,128,84222,1,0,0:0:0
208,128,84417,1,2,0:0:0
236,48,84806,1,2,0:0:0
236,48,85196,1,2,0:0:0
328,216,85585,1,2,0:0:0
328,216,85683,1,2,0:0:0
328,216,85780,1,0,0:0:0
168,12,85878,1,0,0:0:0
328,216,85975,1,2,0:0:0
328,216,86072,1,2,0:0:0
328,216,86170,1,0,0:0:0
316,144,86559,1,0,0:0:0
316,144,86949,1,0,0:0:0
316,144,87144,1,2,0:0:0
316,144,87339,1,0,0:0:0
316,144,87533,1,2,0:0:0
316,144,87923,1,2,0:0:0
316,144,88313,1,2,0:0:0
316,144,88702,1,4,0:0:0
316,144,88897,1,4,0:0:0
316,144,89092,1,4,0:0:0
