osu file format v10

[General]
AudioFilename: STRAIGHT JET.mp3
AudioLeadIn: 2000
PreviewTime: 54979
Countdown: 0
SampleSet: Normal
StackLeniency: 0.4
Mode: 0
LetterboxInBreaks: 1

[Editor]
DistanceSpacing: 1.2
BeatDivisor: 4
GridSize: 4

[Metadata]
Title:STRAIGHT JET (TV Size)
TitleUnicode:STRAIGHT JET (TV Size)
Artist:Kuribayashi Minami
ArtistUnicode:Kuribayashi Minami
Creator:No_Gu
Version:Easy
Source:Infinite Stratos
Tags:IS opening Nymph Melophobia Alace
BeatmapID:174592
BeatmapSetID:54031

[Difficulty]
HPDrainRate:2
CircleSize:3
OverallDifficulty:2
ApproachRate:3
SliderMultiplier:0.8
SliderTickRate:1

[Events]
//Background and Video events
Video,0,"video.avi"
0,0,"BG.jpg"
//Break Periods
//Storyboard Layer 0 (Background)
//Storyboard Layer 1 (Fail)
//Storyboard Layer 2 (Pass)
//Storyboard Layer 3 (Foreground)
//Storyboard Sound Samples
//Background Colour Transformations
3,100,163,162,255

[TimingPoints]
456,389.61038961039,4,1,1,50,1,0
22858,-100,4,2,1,50,0,0
23053,-100,4,1,1,50,0,0
25975,-100,4,2,1,50,0,0
26170,-100,4,1,1,50,0,0
27533,-100,4,2,1,50,0,0
27728,-100,4,1,1,50,0,0
53832,-100,4,1,1,40,0,0
54222,-100,4,1,1,30,0,0
54611,-100,4,1,1,20,0,0
55001,-100,4,1,1,70,0,1
66884,-100,4,2,1,70,0,1
67371,-100,4,2,1,70,0,0
67468,-100,4,1,1,70,0,1
82956,-100,4,2,1,70,0,0
83053,-100,4,1,1,70,0,1
83150,-100,4,1,1,70,0,0
87533,-100,4,2,1,70,0,0
88702,-100,4,1,1,70,0,0

[Colours]
Combo1 : 255,128,128
Combo2 : 255,255,128
Combo3 : 128,255,255
Combo4 : 128,255,128

[HitObjects]
96,192,456,2,0,B|16:192,2,80,0|2|0,0:0|0:0|0:0,0:0:0
172,132,1624,2,0,B|220:144|220:192|220:244|172:256,1,160
256,304,2793,1,0,0:0:0
337,255,3183,6,0,B|292:244|292:192|292:144|340:132,1,160,0|2,0:0|0:0,0:0:0
416,192,4352,2,0,B|496:192,2,80,2|0|0,0:0|0:0|0:0,0:0:0
424,96,5520,2,8,B|412:40|344:16|296:56,1,160,8|8,0:0|0:0,0:0:0
256,132,6689,5,4,0:0:0
216,56,7079,2,8,B|168:16|100:40|88:96,1,160,8|8,0:0|0:0,0:0:0
124,184,8248,2,0,B|112:264,1,80,0|8,0:0|0:0,0:0:0
200,304,9027,1,0,0:0:0
256,224,9417,1,8,0:0:0
312,304,9806,5,0,0:0:0
400,264,10196,2,0,B|388:184,1,80,8|0,0:0|0:0,0:0:0
480,156,10975,2,8,B|436:188|360:148|368:88,1,160
280,52,12144,2,0,B|200:60,2,80,0|8|0,0:0|0:0|0:0,0:0:0
36,348,14481,6,0,B|116:344,1,80,0|8,0:0|0:0,0:0:0
64,264,15261,2,0,B|144:260,1,80,0|0,0:0|0:0,0:0:0
212,328,16040,6,0,B|272:300|272:300|352:360|436:316,1,240,4|0,0:0|0:0,0:0:0
480,232,17598,1,0,0:0:0
392,192,17988,2,0,B|368:152|392:96|392:96|368:112|332:104,1,160
264,40,19157,6,0,B|224:72|240:124|240:124|160:152|96:100,1,240
32,40,20715,2,0,B|-8:64|-8:140|40:180|40:180|16:212|28:256,1,240
124,236,22274,6,0,B|244:256,2,120
184,160,23832,2,0,B|288:180|288:180|352:232|316:304,1,240
396,356,25391,2,0,B|516:348,2,120
316,300,26949,2,0,B|196:308,2,120,0|0|8,0:0|0:0|0:0,0:0:0
356,212,28507,5,4,0:0:0
320,124,28897,2,8,B|280:140|256:172|256:172|228:140|192:124,1,160
156,212,30066,1,0,0:0:0
96,136,30456,2,0,B|16:136,2,80,8|0|8,0:0|0:0|0:0,0:0:0
136,48,31624,5,0,0:0:0
192,124,32014,2,8,B|232:140|256:172|256:172|284:140|320:124,1,160
376,48,33183,1,0,0:0:0
416,136,33572,2,0,B|496:136,2,80,8|0|8,0:0|0:0|0:0,0:0:0
320,124,34741,5,0,0:0:0
336,220,35131,2,8,B|256:240|176:220,1,160
192,124,36300,1,0,0:0:0
100,156,36689,2,8,B|56:152|56:152|16:208|40:264,1,160
132,284,37858,6,0,B|208:260,1,80,0|8,0:0|0:0,0:0:0
304,260,38637,2,0,B|380:284,1,80,0|8,0:0|0:0,0:0:0
440,208,39417,2,0,B|468:224|476:256,2,60,4|4|4,0:0|0:0|0:0,0:0:0
400,180,40196,2,0,B|400:96,1,80,0|0,0:0|0:0,0:0:0
308,68,40975,6,0,B|304:156,1,80,6|8,0:0|0:0,0:0:0
207,147,41754,2,0,B|204:68,1,80,2|8,0:0|0:0,0:0:0
112,36,42533,1,2,0:0:0
68,120,42923,2,8,B|128:172|112:268,1,160
188,324,44092,5,4,0:0:0
256,256,44481,1,8,0:0:0
324,324,44871,1,2,0:0:0
400,268,45261,2,8,B|384:172|444:120,1,160
384,48,46430,2,0,B|304:52,1,80,0|8,0:0|0:0,0:0:0
208,56,47209,5,2,0:0:0
81,196,47989,1,2,0:0:0
175,361,48768,1,2,0:0:0
361,321,49547,1,2,0:0:0
381,133,50326,1,2,0:0:0
381,133,51884,6,0,B|460:140,1,80
432,232,52663,2,0,B|353:225,1,80
288,152,53443,2,0,B|248:76|120:80|88:168,1,240
152,236,55001,5,4,0:0:0
192,324,55391,2,8,B|200:364|256:376|312:364|316:324,1,160
360,236,56559,1,2,0:0:0
440,184,56949,2,8,B|416:140|364:140|364:140|336:72,1,160
256,128,58118,5,2,0:0:0
173,77,58507,2,8,B|148:140|148:140|96:140|72:184,1,160
156,232,59676,1,2,0:0:0
132,324,60066,2,0,B|180:328|208:308,1,80,8|2,0:0|0:0,0:0:0
303,307,60845,2,0,B|332:328|380:324,1,80,8|4,0:0|0:0,0:0:0
464,276,61624,6,8,B|496:120,1,160
420,60,62793,1,0,0:0:0
336,108,63183,2,8,B|256:128|176:108,1,160
92,60,64352,5,4,0:0:0
16,120,64742,2,8,B|48:276,1,160
72,368,65910,1,2,0:0:0
164,340,66300,1,0,0:0:0
132,252,66689,2,0,B|120:212,1,40,2|2,0:0|0:0,0:0:0
256,160,67468,5,4,0:0:0
312,240,67858,2,8,B|360:284|440:256|452:208,2,160
356,156,69806,1,0,0:0:0
300,76,70196,1,8,0:0:0
256,160,70585,5,2,0:0:0
200,240,70975,2,8,B|152:284|72:256|60:208,1,160
144,164,72144,2,4,B|128:104,2,60
256,72,73313,1,8,0:0:0
332,132,73702,6,0,B|372:144|412:128,1,80,4|8,0:0|0:0,0:0:0
484,192,74481,1,0,0:0:0
468,288,74871,2,0,B|388:312|308:280,1,160,8|8,0:0|0:0,0:0:0
256,204,76040,1,0,0:0:0
200,281,76430,6,0,B|124:312|44:288,1,160,8|8,0:0|0:0,0:0:0
28,192,77599,1,0,0:0:0
101,128,77989,2,0,B|140:144|180:132,1,80,8|4,0:0|0:0,0:0:0
252,68,78767,6,8,B|284:104|272:156|272:156|252:228,1,160
328,280,79936,2,0,B|408:268,1,80,0|8,0:0|0:0,0:0:0
428,176,80715,2,0,B|348:188,1,80,0|8,0:0|0:0,0:0:0
256,164,81494,1,0,0:0:0
224,72,81884,1,8,0:0:0
316,40,82274,1,0,0:0:0
348,128,82663,1,8,0:0:0
316,220,83053,6,0,B|304:300,1,80,6|8,0:0|0:0,0:0:0
208,300,83832,2,0,B|196:220,2,80,2|8|0,0:0|0:0|0:0,0:0:0
120,336,85001,2,8,B|60:352|16:320|16:320|8:268,1,160
64,192,86170,5,0,0:0:0
8,116,86559,2,8,B|16:64|16:64|60:32|120:48,1,160,10|8,0:0|0:0,0:0:0
148,84,87533,2,0,B|228:88,2,80,2|2|2,0:0|0:0|0:0,0:0:0
87,158,88702,6,0,B|47:162,2,40
