osu file format v9

[General]
AudioFilename: HAPPY CRAZY BOX (TV Size).mp3
AudioLeadIn: 1750
PreviewTime: 55638
Countdown: 0
SampleSet: Soft
StackLeniency: 0.7
Mode: 0
LetterboxInBreaks: 0
UseSkinSprites: 1

[Editor]
DistanceSpacing: 1.6
BeatDivisor: 4
GridSize: 8

[Metadata]
Title:HAPPY CRAZY BOX (TV Size)
Artist:Kuribayashi Minami
Creator:wcx19911123
Version:Insane
Source:Medaka Box
Tags:opening Kurokami Medaka Toyosaki Aki

[Difficulty]
HPDrainRate:8
CircleSize:4
OverallDifficulty:7
ApproachRate:8
SliderMultiplier:1.92
SliderTickRate:1

[Events]
//Background and Video events
0,0,"BG.jpg"
Video,0,"HAPPY CRAZY BOX (TV Size).avi"
//Break Periods
//Storyboard Layer 0 (Background)
//Storyboard Layer 1 (Fail)
//Storyboard Layer 2 (Pass)
//Storyboard Layer 3 (Foreground)
//Storyboard Sound Samples
//Background Colour Transformations
3,100,163,162,255

[TimingPoints]
-401,337.078651685393,4,2,1,60,1,0
441,-125,4,2,1,60,0,0
8363,-100,4,2,1,70,0,0
22688,-100,4,2,1,60,0,0
27913,-100,4,2,1,70,0,0
30778,-100,4,2,1,60,0,0
38531,-100,4,2,1,70,0,0
54879,-100,4,1,1,60,0,0
55722,-100,4,2,2,80,0,0
56228,-100,4,2,2,80,0,1
66930,-100,4,2,2,80,0,0
67014,-100,4,2,2,80,0,1
73756,-100,4,2,2,70,0,1
80497,-100,4,2,2,70,0,0
85891,-100,4,1,1,60,0,0
87155,-100,4,2,2,5,0,0

[Colours]
Combo1 : 128,105,60
Combo2 : 113,45,255
Combo3 : 236,255,66
Combo4 : 83,207,255

[HitObjects]
160,48,441,1,0
88,92,610,1,0
84,176,778,1,0
156,132,947,6,0,B|232:104|304:144,1,153.6,2|0
360,208,1452,1,0
456,352,1621,2,0,B|376:352|328:280,1,153.6
440,196,2127,5,0
440,196,2211,1,0
440,196,2295,2,0,B|440:280|376:332,1,153.6,2|0
360,168,2801,2,0,B|328:88|248:64,1,153.6
168,56,3306,1,0
88,88,3475,1,0
184,168,3643,6,0,B|272:168|320:96,1,153.6,2|0
488,32,4318,1,0
480,120,4486,1,0
480,120,4570,1,0
480,120,4655,1,0
400,88,4823,6,0,B|320:64|248:112,1,153.6,2|0
248,132,5245,1,0
236,152,5329,2,0,B|208:184|168:184,1,76.8
40,96,5666,1,0
120,116,5834,1,0
168,184,6003,1,0
168,268,6172,6,0,B|144:344|64:376,1,153.6,2|0
240,224,6677,1,0
272,304,6846,2,0,B|320:368|408:360,1,153.6
480,316,7351,1,0
508,236,7520,1,2
508,236,8025,5,0
496,104,8363,1,2
487,77,8447,1,0
469,54,8531,1,0
446,35,8615,1,0
417,26,8700,1,0
388,27,8784,1,0
360,35,8868,1,0
336,52,8952,1,0
319,75,9037,6,0,B|280:176|332:260,1,192,4|8
496,340,9542,2,0,B|440:256|332:260,1,192,2|0
240,288,10048,1,4
40,32,10385,5,0
96,112,10554,2,0,B|144:200|104:304,1,192,8|0
48,376,11059,1,8
48,376,11143,1,0
48,376,11228,1,0
184,352,11396,1,8
256,288,11565,1,0
264,192,11733,6,0,B|304:288|408:304,1,192,4|8
512,152,12239,2,0,B|472:56|368:40,1,192,2|0
280,80,12745,1,4
368,176,12913,2,0,B|352:280|264:328,1,192,8|0
168,344,13419,5,8
80,304,13587,1,0
32,224,13756,1,8
32,224,13840,1,0
32,224,13924,1,0
32,128,14093,1,8
88,48,14261,1,0
224,16,14430,6,0,B|272:16|312:48,1,96,4|0
352,136,14767,1,8
440,104,14936,2,0,B|392:104|352:136,1,96
312,224,15273,1,0
224,192,15441,2,0,B|272:192|312:224,1,96,8|0
352,312,15778,5,2
456,360,15947,1,0
456,360,16031,1,0
456,360,16115,1,8
444,244,16284,1,0
352,312,16452,2,0,B|312:344|256:336,1,96
168,312,16790,1,8
96,248,16958,1,0
32,112,17127,6,0,B|104:184|208:168,1,192,4|0
304,152,17632,1,0
384,96,17801,1,8
424,8,17969,1,0
496,144,18138,2,0,B|496:248|416:312,1,192
296,352,18643,5,0
296,352,18728,1,0
296,352,18812,2,0,B|280:304|304:256,1,96
360,152,19149,1,8
360,152,19318,1,0
264,56,19486,1,8
264,56,19655,1,0
128,48,19823,6,0,B|80:64|56:112,1,96,4|0
40,204,20160,1,0
140,208,20329,2,0,B|196:216|220:264,1,96,0|8
256,352,20666,1,0
480,192,21003,1,8
480,192,21172,1,8
256,32,21509,6,0,B|208:32|168:72,2,96,0|0|8
352,48,22014,1,0
432,104,22183,1,8
488,24,22351,1,4
480,288,22688,6,0,B|472:336|432:368,2,96,0|8|0
384,280,23194,1,0
296,240,23363,1,0
256,152,23531,1,8
216,64,23700,6,0,B|136:8|32:32,1,192
0,184,24205,2,0,B|80:240|184:216,1,192,8|0
256,152,24711,1,0
320,80,24879,5,8
320,80,24964,1,0
320,80,25048,2,0,B|408:32|512:72,1,192
472,160,25554,1,8
400,224,25722,1,0
312,184,25891,2,0,B|264:160|216:192,1,96
272,272,26228,1,8
352,112,26396,6,0,B|256:64|160:128,1,192
88,264,26902,1,8
168,336,27070,1,0
168,336,27155,1,0
168,336,27239,2,0,B|264:384|360:320,1,192,0|8
424,216,27745,2,0,B|456:256|512:256,2,96,0|4|0
384,128,28250,5,8
328,48,28419,2,0,B|296:8|240:8,2,96
240,120,28924,1,8
128,88,29093,1,0
100,80,29177,1,0
72,72,29261,1,0
168,168,29430,5,0
208,256,29598,1,8
248,344,29767,1,0
152,328,29936,2,0,B|56:304,2,96,2|2|8
344,360,30441,1,4
344,360,30778,5,0
432,320,30947,1,8
488,240,31115,1,0
488,240,31200,1,0
488,240,31284,2,0,B|504:192|480:144,1,96
432,64,31621,1,8
344,104,31790,6,0,B|296:112|256:72,2,96
344,240,32295,2,0,B|232:248|168:168,1,192,8|0
128,88,32801,1,0
248,128,32969,5,8
248,128,33054,1,0
248,128,33138,2,0,B|272:224|200:312,1,192
112,336,33643,1,8
24,296,33812,1,0
0,204,33981,2,0,B|0:152|40:112,1,96
128,88,34318,1,8
152,240,34486,6,0,B|200:328|312:344,1,192
400,328,34992,1,8
472,264,35160,1,0
480,168,35329,2,0,B|480:112|440:80,2,96,0|0|8
384,160,35834,6,0,B|280:152|232:56,1,192
232,200,36340,2,0,B|320:144|328:40,2,192,8|0|8
32,192,37351,5,0
256,352,37688,2,0,B|256:256,2,96,8|0|0
480,192,38363,1,8
384,184,38531,5,0
384,184,38615,1,0
384,184,38700,2,0,B|288:152|256:52,1,192,4|8
128,184,39205,2,0,B|224:152|256:52,1,192,4|4
256,352,39879,1,4
384,224,40216,5,0
356,228,40301,1,0
328,236,40385,1,0
304,252,40469,1,0
284,272,40554,1,4
268,296,40638,1,0
260,324,40722,1,0
256,352,40806,1,0
244,296,40891,1,0
228,272,40975,1,0
208,252,41060,1,0
184,236,41144,1,0
156,228,41228,1,0
128,224,41313,1,0
100,224,41396,6,0,B|8:184|0:72,1,192,4|8
80,16,41902,2,0,B|136:0|176:32,1,96
256,80,42239,1,0
432,16,42407,2,0,B|376:0|336:32,1,96,8|0
256,352,42913,5,0
348,328,43082,2,0,B|440:288|448:176,1,192,8|0
432,80,43587,1,0
432,80,43672,1,0
432,80,43756,1,8
288,24,43924,6,0,B|184:-8|104:56,1,192
48,128,44430,1,8
40,224,44598,1,0
56,320,44767,1,0
224,248,44936,2,0,B|232:192|192:160,1,96,0|8
160,312,45273,6,0,B|200:360|296:344|312:272,1,192
316,244,45694,1,0
320,216,45778,2,0,B|337:144|433:128|473:176,1,192,8|0
500,268,46284,1,0
432,336,46452,1,8
408,244,46621,5,0
408,244,46705,1,0
408,244,46790,2,0,B|384:136|464:64,1,192,4|8
384,128,47295,1,0
288,136,47464,1,0
200,96,47632,1,0
104,96,47801,1,8
32,160,47969,6,0,B|-8:256|48:344,1,192,4|0
200,208,48475,2,0,B|240:112|184:24,1,192,8|4
104,224,48981,1,0
164,296,49149,1,8
260,284,49318,1,0
292,196,49486,6,0,B|344:104|456:112,1,192,4|8
488,368,50160,1,0
416,288,50329,1,0
416,288,50413,1,0
416,288,50497,2,0,B|392:240|408:192,1,96,8|0
472,48,50834,6,0,B|408:128|296:112,1,192,0|8
208,80,51340,1,0
56,112,51509,2,0,B|120:192|232:176,1,192,4|8
320,152,52014,1,0
384,80,52183,5,4
480,352,52520,1,8
416,280,52688,1,4
224,32,53025,1,4
24,272,53363,6,0,B|88:360|192:352,1,192,4|0
216,344,53784,1,0
240,328,53868,2,0,B|280:296|336:312,1,96,8|0
448,344,54205,1,0
448,344,54290,1,0
448,344,54374,1,0
408,256,54542,2,0,B|392:208|408:160,1,96,8|0
456,48,54879,5,0
456,48,55048,1,0
128,96,55385,1,0
320,256,55722,1,0
304,160,55891,1,0
232,96,56059,5,0
232,96,56143,1,0
232,96,56228,2,0,B|144:40|48:72,1,192,4|8
32,248,56733,1,0
112,312,56902,2,0,B|144:264|128:216,1,96
232,96,57239,2,0,B|200:136|208:192,1,96,8|0
296,360,57576,6,0,B|352:272|312:176,1,192,0|8
384,24,58082,2,0,B|432:8|480:40,1,96
512,128,58419,1,0
504,224,58587,1,8
448,304,58756,5,0
448,304,58840,1,0
448,304,58924,2,0,B|368:368|264:336,1,192,4|8
152,152,59430,2,0,B|232:88|336:120,1,192
416,168,59936,1,8
312,240,60104,6,0,B|208:240|152:152,1,192
128,56,60610,1,8
48,176,60778,1,0
48,176,60863,1,0
48,176,60947,2,0,B|32:224|48:272,1,96
96,352,61284,1,8
160,200,61452,6,0,B|208:112|320:104,1,192,4|0
412,116,61958,1,8
488,176,62127,1,0
496,272,62295,1,0
496,272,62379,1,0
496,272,62464,1,0
448,360,62632,1,8
400,272,62801,6,0,B|336:192|224:208,1,192
48,224,63306,2,0,B|112:304|224:288,1,192,8|0
312,264,63812,1,0
376,168,63981,1,8
376,168,64065,1,0
376,168,64149,1,0
408,32,64318,5,4
136,216,64655,1,8
104,352,64823,2,0,B|200:336|248:232,1,192,4|0
272,144,65329,1,8
416,256,65497,6,0,B|312:240|272:144,1,192,4|0
240,32,66003,1,8
240,32,66172,1,0
128,40,66340,1,0
104,56,66424,1,0
88,80,66509,1,0
56,168,66677,1,8
64,264,66846,1,0
128,336,67014,6,0,B|216:384|320:344,1,192,4|8
440,272,67520,1,0
376,200,67688,2,0,B|352:160|368:104,1,96
256,16,68025,2,0,B|280:56|264:112,1,96,8|0
160,272,68363,6,0,B|112:184|160:88,1,192,0|8
256,16,68868,2,0,B|304:0|352:24,1,96
432,72,69205,1,0
472,160,69374,1,8
464,256,69542,5,0
464,256,69627,1,0
464,256,69711,2,0,B|432:352|320:376,1,192,4|8
232,360,70216,1,0
272,272,70385,1,0
264,176,70554,1,0
200,104,70722,1,8
64,112,70891,6,0,B|80:216|184:256,1,192,4|0
272,272,71396,1,8
336,344,71565,2,0,B|384:328|400:272,1,96,4|0
424,184,71902,1,0
396,92,72070,1,8
328,24,72239,6,0,B|280:8|232:32,2,96,0|4|0
424,184,72745,2,0,B|360:272|256:272,1,192,8|0
168,256,73250,1,0
96,192,73419,1,8
64,64,73587,5,0
64,64,73672,1,0
64,64,73756,2,0,B|168:72|216:168,1,192,0|8
256,352,74430,1,0
352,344,74598,2,0,B|400:336|432:296,2,96,0|8|0
392,208,75104,5,0
384,112,75273,2,0,B|384:64|424:24,2,96,0|8|0
256,352,75947,1,0
160,344,76115,1,8
80,288,76284,6,0,B|16:208|40:104,1,192,0|0
184,24,76790,2,0,B|248:104|224:208,1,192,8|0
192,296,77295,1,0
104,336,77464,1,8
144,176,77632,6,0,B|192:88|304:80,1,192
392,112,78138,1,0
448,192,78306,2,0,B|472:232|456:288,2,96,0|8|0
392,112,78812,1,0
312,56,78981,1,0
184,40,79149,5,8
184,40,79318,1,8
184,40,79486,1,0
160,368,79823,2,0,B|240:312|248:200,1,192,0|8
224,112,80329,1,0
144,56,80497,6,0,B|96:32|48:56,1,96,4|0
0,136,80834,1,8
16,232,81003,1,0
96,288,81172,2,0,B|144:312|192:288,2,96,0|0|8
104,112,81677,6,0,B|168:32|280:48,1,192
368,72,82183,1,8
368,72,82351,1,0
440,136,82520,2,0,B|472:176|464:232,1,96
424,312,82857,1,8
424,312,83025,1,0
280,344,83194,6,0,B|224:344|192:304,1,96,4|0
144,224,83531,1,8
160,128,83700,1,0
232,64,83868,2,0,B|280:40|328:64,2,96,0|0|8
288,152,84374,5,0
288,152,84458,1,0
288,152,84542,2,0,B|304:256|232:328,1,192,0|8
144,360,85048,1,0
80,288,85216,2,0,B|56:240|80:192,1,96
184,144,85554,2,0,B|208:192|184:240,1,96,8|0
144,360,85891,5,0
144,360,86059,1,0
440,280,86396,1,0
440,280,86564,1,0
256,32,86902,1,0
256,32,87070,1,0
256,192,87155,12,0,87913
