osu file format v9

[General]
AudioFilename: HAPPY CRAZY BOX (TV Size).mp3
AudioLeadIn: 1750
PreviewTime: 55638
Countdown: 0
SampleSet: Soft
StackLeniency: 0.7
Mode: 0
LetterboxInBreaks: 0

[Editor]
DistanceSpacing: 1
BeatDivisor: 4
GridSize: 8

[Metadata]
Title:HAPPY CRAZY BOX (TV Size)
Artist:Kuribayashi Minami
Creator:wcx19911123
Version:Hard
Source:Medaka Box
Tags:opening Kurokami Medaka Toyosaki Aki

[Difficulty]
HPDrainRate:6
CircleSize:4
OverallDifficulty:5
ApproachRate:7
SliderMultiplier:1.6
SliderTickRate:1

[Events]
//Background and Video events
0,0,"BG.jpg"
Video,0,"HAPPY CRAZY BOX (TV Size).avi"
//Break Periods
//Storyboard Layer 0 (Background)
//Storyboard Layer 1 (Fail)
//Storyboard Layer 2 (Pass)
//Storyboard Layer 3 (Foreground)
//Storyboard Sound Samples
//Background Colour Transformations
3,100,163,162,255

[TimingPoints]
-401,337.078651685393,4,2,1,60,1,0
8363,-100,4,2,1,70,0,0
22688,-100,4,2,1,60,0,0
27913,-100,4,2,1,70,0,0
30778,-100,4,2,1,60,0,0
38700,-100,4,2,1,70,0,0
54879,-100,4,1,1,60,0,0
55722,-100,4,2,2,80,0,0
56228,-100,4,2,2,80,0,1
66930,-100,4,2,2,80,0,0
67014,-100,4,2,2,80,0,1
73756,-100,4,2,2,70,0,1
80497,-100,4,2,2,70,0,0
85891,-100,4,1,1,60,0,0
87155,-100,4,2,1,5,0,0

[Colours]
Combo1 : 128,105,60
Combo2 : 113,45,255
Combo3 : 236,255,66
Combo4 : 83,207,255

[HitObjects]
352,72,441,1,0
416,120,610,1,0
344,152,778,1,0
280,104,947,6,0,B|208:64|120:96,1,160,2|0
16,272,1621,2,0,B|88:312|176:280,1,160
240,240,2127,1,0
320,232,2295,6,0,B|408:232|456:304,1,160,2|0
400,360,2801,2,0,B|360:376|320:360,1,80
260,312,3138,1,0
64,240,3475,1,0
144,224,3643,6,0,B|216:192|232:96,1,160,2|0
416,24,4318,1,0
480,72,4486,1,0
408,104,4655,1,0
344,56,4823,1,2
184,24,5160,5,0
184,24,5245,1,0
184,24,5329,2,0,B|144:8|104:32,1,80
152,96,5666,2,0,B|112:104|96:152,1,80
172,172,6003,1,0
232,224,6172,6,0,B|280:288|256:376,1,160,2|0
184,344,6677,1,0
112,312,6846,2,0,B|72:312|40:344,1,80,0|0
24,32,7520,6,0,B|64:112|152:120,1,160,2|0
224,96,8025,1,0
368,24,8363,2,0,B|408:16,3,40,2|0|0|0
416,56,8700,2,0,B|456:64,3,40
448,104,9037,6,0,B|488:176|464:264,1,160,4|8
424,328,9542,1,0
360,184,9879,1,0
296,136,10048,2,0,B|224:96|136:128,1,160,4|0
72,168,10554,5,8
56,352,10891,1,0
88,280,11059,2,0,B|104:240,2,40,8|0|0
136,344,11396,1,8
208,376,11565,1,0
288,368,11733,6,0,B|376:344|408:264,1,160,4|8
432,192,12239,1,0
360,48,12576,1,0
344,128,12745,2,0,B|328:168|280:176,1,80,4|8
112,112,13250,5,0
48,64,13419,1,8
48,64,13587,1,0
40,144,13756,2,0,B|4:164,2,40,8|0|0
104,192,14093,1,8
104,192,14261,1,0
176,160,14430,6,0,B|256:128|336:168,1,160,4|8
344,88,14936,2,0,B|312:176|360:248,1,160
304,304,15441,2,0,B|344:224|432:224,1,160,8|0
480,288,15947,6,0,B|464:328,2,40,0|0|8
512,216,16284,1,0
464,152,16452,1,0
464,72,16621,2,0,B|480:32,2,40,0|0|8
340,196,17127,6,0,B|260:228|184:200,1,160,4|0
120,152,17632,1,0
128,72,17801,1,8
192,120,17969,1,0
184,200,18138,2,0,B|160:280|72:312,1,160
56,104,18812,5,0
200,40,19149,1,8
200,40,19318,1,0
264,88,19486,1,8
264,88,19655,1,0
344,96,19823,6,0,B|384:96|416:56,2,80,4|0|0
296,160,20329,2,0,B|264:232|296:320,2,160,8|0|8
344,96,21172,5,8
432,256,21509,1,8
432,256,21677,1,0
384,320,21846,2,0,B|352:352|304:344,2,80,8|0|0
408,176,22351,6,0,B|376:96|288:80,1,160,4|0
208,80,22857,1,8
136,112,23025,1,0
104,184,23194,2,0,B|88:264|136:336,1,160,0|8
208,368,23700,6,0,B|252:376|280:340,2,80
216,288,24205,2,0,B|232:200|312:168,1,160,8|0
392,160,24711,1,0
464,192,24879,1,8
380,292,25048,6,0,B|292:288|248:212,1,160
224,136,25554,1,8
192,64,25722,1,0
120,28,25891,2,0,B|80:16|40:40,2,80,0|0|8
144,128,26396,6,0,B|136:216|56:256,1,160
40,176,26902,1,8
40,176,27070,1,0
120,200,27239,2,0,B|192:240|216:328,1,160,0|8
304,296,27745,6,0,B|280:328|288:376,2,80,0|4|0
360,240,28250,1,8
440,232,28419,1,0
488,80,28756,1,0
440,16,28924,1,8
416,96,29093,5,0
416,96,29177,1,0
416,96,29261,2,0,B|392:176,1,80
368,248,29598,1,8
344,324,29767,1,0
288,268,29936,2,0,B|252:244|208:256,2,80,2|2|8
344,324,30441,1,4
176,360,30778,5,0
104,328,30947,1,8
56,264,31115,1,0
48,184,31284,2,0,B|48:96|112:40,1,160,0|8
160,104,31790,6,0,B|192:136|240:128,2,80
280,64,32295,2,0,B|328:104|320:176|264:200,1,160,8|0
192,224,32801,1,0
176,304,32969,1,8
252,276,33138,6,0,B|336:256|408:312,1,160
456,368,33643,1,8
480,292,33812,1,0
428,232,33981,2,0,B|404:196|416:152,2,80,0|0|8
488,128,34486,6,0,B|468:68|392:56|352:104,1,160
320,168,34992,1,8
248,200,35160,1,0
168,192,35329,2,0,B|124:184|104:136,2,80,0|0|8
156,80,35834,6,0,B|104:44|36:76|29:134,1,160
40,208,36340,1,8
128,344,36677,1,0
208,360,36846,1,0
280,328,37014,1,8
328,176,37351,5,0
392,128,37520,1,0
472,136,37688,2,0,B|504:160|504:208,1,80,8|0
456,272,38025,2,0,B|424:248|424:200,1,80
480,56,38363,1,8
480,56,38531,1,0
408,100,38700,6,0,B|324:132|256:84,1,160,4|8
104,100,39205,2,0,B|188:132|256:84,1,160,4|4
256,304,39879,1,4
280,160,40216,6,0,B|296:208,3,40
232,160,40554,2,0,B|216:208,3,40,4|0|0|0
212,220,40891,1,0
144,264,41059,1,0
64,256,41228,1,0
8,200,41396,6,0,B|-8:112|40:48,1,160,4|8
112,88,41902,2,0,B|120:136|168:152,2,80
192,72,42407,1,8
264,40,42576,6,0,B|352:16|416:72,1,160
472,200,43082,2,0,B|384:224|320:168,1,160,8|0
268,112,43587,1,0
268,112,43756,1,8
248,192,43924,6,0,B|232:272|144:304,1,160
64,312,44430,1,8
16,120,44767,1,0
48,48,44936,1,0
96,112,45104,1,8
168,144,45273,6,0,B|248:176|328:136,1,160
376,80,45778,1,8
504,168,46115,2,0,B|460:164|440:128,1,80
448,48,46452,2,0,B|492:52|512:88,1,80,8|0
496,248,46790,6,0,B|408:240|368:160,1,160,4|8
336,88,47295,2,0,B|296:64|256:80,2,80
288,152,47801,1,8
280,232,47969,6,0,B|280:320|352:368,1,160,4|0
216,296,48475,2,0,B|136:272|64:328,1,160,8|4
116,264,48981,1,0
128,184,49149,1,8
120,104,49318,1,0
88,32,49486,6,0,B|144:96|232:88,1,160,4|8
424,24,50160,1,0
488,72,50329,2,0,B|512:104|496:152,2,80,0|8|0
424,120,50834,6,0,B|344:128|304:216,1,160,0|8
352,280,51340,1,0
392,212,51509,2,0,B|352:132|264:124,1,160,4|8
188,136,52014,1,0
80,208,52183,6,0,B|160:240|240:200,1,160,4|8
224,64,52688,2,0,B|144:32|64:72,1,160,4|4
288,320,53363,6,0,B|368:352|448:312,1,160,4|0
488,248,53868,1,8
496,168,54037,1,0
464,96,54205,2,0,B|488:64,2,40
416,160,54542,2,0,B|376:176|336:160,1,80,8|0
272,112,54879,5,0
256,32,55048,1,0
48,128,55385,2,0,B|0:200|24:288,1,160
72,344,55891,1,0
152,360,56059,1,0
224,320,56228,6,0,B|272:248|248:160,1,160,4|8
216,96,56733,1,0
328,96,56902,2,0,B|368:88|400:120,1,80
408,200,57239,2,0,B|368:208|336:176,1,80,8|0
304,16,57576,6,0,B|392:0|456:60,1,160,0|8
488,128,58082,1,0
456,296,58419,1,0
424,368,58587,1,8
344,376,58756,1,0
376,304,58924,6,0,B|408:216|368:144,1,160,4|8
248,56,59430,2,0,B|208:48|176:80,2,80
320,88,59936,1,8
292,164,60104,6,0,B|232:232|144:216,1,160
72,192,60610,1,8
168,48,60947,1,0
248,56,61115,1,0
200,120,61284,1,8
120,112,61452,6,0,B|40:136|8:224,1,160,4|0
12,300,61958,1,8
64,360,62127,1,0
144,368,62295,2,0,B|192:368|216:336,2,80,0|0|8
184,240,62801,6,0,B|272:208|336:264,1,160
448,360,63306,2,0,B|368:384|296:336,1,160,8|0
248,272,63812,1,0
240,192,63981,1,8
256,112,64149,1,0
312,56,64318,6,0,B|384:8|472:40,1,160,4|8
464,208,64823,2,0,B|392:256|304:224,1,160,4|0
240,192,65329,1,8
104,128,65497,6,0,B|176:80|256:112,1,160,4|0
320,160,66003,1,8
352,232,66172,1,0
344,312,66340,2,0,B|384:336,2,40
280,360,66677,1,8
200,368,66846,1,0
120,360,67014,6,0,B|48:320|32:232,1,160,4|8
80,48,67688,1,0
176,176,68025,1,8
256,192,68194,1,0
320,144,68363,6,0,B|392:96|472:136,1,160,0|8
488,288,68868,2,0,B|465:325|425:333,2,80
504,208,69374,1,8
472,136,69542,1,0
392,120,69711,6,0,B|304:120|256:192,1,160,4|8
192,360,70385,1,0
272,352,70554,1,0
224,288,70722,1,8
144,296,70891,6,0,B|56:296|8:224,1,160,4|0
0,144,71396,1,8
32,72,71565,1,4
104,40,71733,2,0,B|144:24|184:48,2,80,0|0|8
168,136,72239,6,0,B|248:168|320:120,1,160,4|0
416,40,72745,2,0,B|336:8|264:56,1,160,8|0
360,192,73250,2,0,B|400:200|440:176,2,80,0|8|0
264,168,73756,6,0,B|176:160|120:224,2,160,0|8|0
360,192,74598,2,0,B|400:216|400:264,2,80,0|8|0
256,312,75273,6,0,B|232:352|184:352,2,80,0|8|0
152,192,75947,2,0,B|112:168|112:120,2,80,0|8|0
256,72,76621,6,0,B|280:32|328:32,2,80,0|8|0
324,112,77127,1,0
368,176,77295,1,0
368,256,77464,1,8
328,328,77632,6,0,B|264:384|168:360,1,160
104,328,78138,1,0
136,256,78306,2,0,B|160:216|200:208,1,80,0|8
416,128,78812,2,0,B|392:168|352:176,1,80
276,192,79149,5,8
276,192,79318,1,8
276,192,79486,1,0
184,56,79823,2,0,B|112:16|24:48,1,160,0|8
184,136,80329,6,0,B|228:136|252:100,2,80,0|4|0
112,168,80834,1,8
80,240,81003,1,0
112,312,81172,2,0,B|176:376|264:360,1,160,0|8
248,256,81677,6,0,B|272:168|352:144,1,160
480,96,82183,2,0,B|480:136|448:168,1,80,8|0
384,216,82520,1,0
384,216,82688,1,0
304,204,82857,2,0,B|264:216|248:256,1,80,8|0
224,144,83194,6,0,B|208:96|168:80,2,80,4|0|8
144,160,83700,1,0
112,232,83868,2,0,B|112:320|184:368,1,160,0|8
240,248,84374,6,0,B|288:176|384:184,1,160
480,232,84879,2,0,B|448:264|408:256,1,80,8|0
328,240,85216,1,0
328,240,85385,1,0
264,192,85554,2,0,B|240:160|252:112,1,80,8|0
316,68,85891,6,0,B|340:100|328:148,1,80
118,202,86396,2,0,B|134:165|181:151,1,80
333,305,86902,2,0,B|293:310|258:276,1,80
256,192,87155,12,0,87913
