osu file format v9

[General]
AudioFilename: HAPPY CRAZY BOX (TV Size).mp3
AudioLeadIn: 1750
PreviewTime: 55638
Countdown: 0
SampleSet: Soft
StackLeniency: 0.7
Mode: 0
LetterboxInBreaks: 0

[Editor]
DistanceSpacing: 1.3
BeatDivisor: 2
GridSize: 8

[Metadata]
Title:HAPPY CRAZY BOX (TV Size)
Artist:Kuribayashi Minami
Creator:wcx19911123
Version:Easy
Source:Medaka Box
Tags:opening Kurokami Medaka Toyosaki Aki

[Difficulty]
HPDrainRate:2
CircleSize:3
OverallDifficulty:2
ApproachRate:3
SliderMultiplier:0.64
SliderTickRate:1

[Events]
//Background and Video events
0,0,"BG.jpg"
Video,0,"HAPPY CRAZY BOX (TV Size).avi"
//Break Periods
//Storyboard Layer 0 (Background)
//Storyboard Layer 1 (Fail)
//Storyboard Layer 2 (Pass)
//Storyboard Layer 3 (Foreground)
//Storyboard Sound Samples
Sample,48475,0,"normal-slidertick.wav",70
Sample,66003,0,"normal-slidertick2.wav",80
Sample,71396,0,"normal-slidertick2.wav",80
//Background Colour Transformations
3,100,163,162,255

[TimingPoints]
-401,337.078651685393,4,2,1,60,1,0
8363,-100,4,2,1,70,0,0
9374,-100,4,1,1,70,0,0
9542,-100,4,2,1,70,0,0
12070,-100,4,1,1,70,0,0
12239,-100,4,2,1,70,0,0
14767,-100,4,1,1,70,0,0
14936,-100,4,2,1,70,0,0
16115,-100,4,1,1,70,0,0
16284,-100,4,2,1,70,0,0
17801,-100,4,1,1,70,0,0
18138,-100,4,2,1,70,0,0
22857,-100,4,2,1,60,0,0
23531,-100,4,1,1,60,0,0
23700,-100,4,2,1,60,0,0
24879,-100,4,1,1,60,0,0
25048,-100,4,2,1,60,0,0
26228,-100,4,1,1,60,0,0
26396,-100,4,2,1,60,0,0
27576,-100,4,1,1,60,0,0
27745,-100,4,2,1,60,0,0
27913,-100,4,2,1,70,0,0
30947,-100,4,2,1,60,0,0
31621,-100,4,1,1,60,0,0
31790,-100,4,2,1,60,0,0
32969,-100,4,1,1,60,0,0
33138,-100,4,2,1,60,0,0
34318,-100,4,1,1,60,0,0
34486,-100,4,2,1,60,0,0
35666,-100,4,1,1,60,0,0
35834,-100,4,2,1,60,0,0
38700,-100,4,2,1,70,0,0
39037,-100,4,1,1,70,0,0
39205,-100,4,2,1,70,0,0
41733,-100,4,1,1,70,0,0
41902,-100,4,2,1,70,0,0
47127,-100,4,1,1,70,0,0
47295,-100,4,2,1,70,0,0
50497,-100,4,1,1,70,0,0
50666,-100,4,2,1,70,0,0
52520,-100,4,1,1,70,0,0
52688,-100,4,2,1,70,0,0
54879,-100,4,1,1,60,0,0
55216,-100,4,2,1,70,0,0
55385,-100,4,1,1,60,0,0
55554,-100,4,2,1,70,0,0
56228,-100,4,2,2,80,0,1
56565,-100,4,1,2,80,0,1
56902,-100,4,2,2,80,0,1
57913,-100,4,1,2,80,0,1
58082,-100,4,2,2,80,0,1
59261,-100,4,1,2,80,0,1
59430,-100,4,2,2,80,0,1
60610,-100,4,1,2,80,0,1
60947,-100,4,2,2,80,0,1
62632,-100,4,1,2,80,0,1
62801,-100,4,2,2,80,0,1
64655,-100,4,1,2,80,0,1
64823,-100,4,2,2,80,0,1
66930,-100,4,2,2,80,0,0
67014,-100,4,2,2,80,0,1
68700,-100,4,1,2,80,0,1
68868,-100,4,2,2,80,0,1
73756,-100,4,2,2,70,0,1
77464,-100,4,1,2,70,0,1
77632,-100,4,2,2,70,0,1
80160,-100,4,2,2,70,0,1
80497,-100,4,2,2,70,0,0
81509,-100,4,2,2,70,0,0
81677,-100,4,2,2,70,0,0
85891,-100,4,1,1,60,0,0
86228,-100,4,2,1,60,0,0
86565,-100,4,1,1,60,0,0

[Colours]
Combo1 : 128,105,60
Combo2 : 113,45,255
Combo3 : 236,255,66
Combo4 : 83,207,255

[HitObjects]
400,80,441,2,0,B|344:80|320:128,1,96,0|2
284,200,1284,6,0,B|256:256,2,64
368,200,2295,2,0,B|416:224|416:280,1,96,2|0
380,352,3138,2,0,B|332:328|332:272,1,96,0|2
332,192,3981,5,0
312,112,4318,2,0,B|288:64|232:64,2,96,0|2|0
236,148,5666,2,0,B|184:148|160:100,1,96,0|2
80,124,6509,6,0,B|32:148|32:204,2,96,0|0|2
56,280,8363,1,2
112,340,8700,1,0
192,360,9037,6,0,B|288:360,2,96,4|0|4
192,236,10554,2,0,B|192:184|240:156,1,96,8|8
320,144,11396,1,8
400,168,11733,6,0,B|452:168|476:120,2,96,4|0|4
332,64,13250,2,0,B|278:59|250:103,1,96,0|8
232,184,14093,1,8
192,256,14430,6,0,B|160:304|104:296,2,96,4|0|8
120,216,15778,2,0,B|72:192|72:136,2,96,0|0|8
156,140,17127,6,0,B|176:88|232:88,2,96,4|0|0
232,172,18475,2,0,B|272:184|296:236|276:280,1,128,0|8
200,248,19486,1,8
120,272,19823,6,0,B|137:322|189:330,1,96,4|8
273,330,20666,1,0
352,304,21003,2,0,B|340:252|376:216,2,96,8|0|8
432,280,22351,1,4
488,168,22857,5,8
416,128,23194,2,0,B|444:80|496:84,2,96,0|0|8
376,200,24542,2,0,B|328:172|332:120,2,96,0|0|8
372,284,25891,6,0,B|424:288|452:240,2,96,0|0|8
296,248,27239,2,0,B|276:300|308:340,2,96,0|0|8
336,176,28587,1,0
408,136,28924,1,8
272,40,29598,6,0,B|216:40|192:88,1,96,8|0
176,168,30441,1,4
208,288,30947,1,8
288,312,31284,2,0,B|264:368|216:368,2,96,0|0|8
268,232,32632,6,0,B|320:220|356:264,2,96,0|0|8
208,288,33981,2,0,B|156:300|120:256,2,96,0|0|8
188,208,35329,2,0,B|154:166|102:178,1,96
0,248,36340,5,8
24,328,36677,1,0
104,352,37014,2,0,B|168:352|208:288,1,128,8|8
232,208,38025,2,0,B|232:144,1,64,0|8
256,64,38700,6,0,B|308:80|316:132,1,96,4|4
316,216,39542,1,4
328,296,39879,2,0,B|360:360|432:360,1,128,4|4
504,320,40891,1,8
448,208,41396,6,0,B|408:168|360:184,1,96,4|0
288,224,42239,1,0
208,200,42576,2,0,B|160:176|160:120,2,96,0|8|0
244,124,43924,6,0,B|264:72|320:72,2,96,0|8|0
320,156,45273,2,0,B|372:176|372:232,1,96,0|8
360,312,46115,1,0
288,352,46452,1,8
204,352,46790,6,0,B|152:352|128:304,1,96,4|0
104,224,47632,1,0
168,172,47969,2,0,B|204:220|180:288|124:304,1,160,4|4
46,284,49149,1,8
24,204,49486,6,0,B|24:136,1,64,4|8
104,120,50160,2,0,B|88:64|32:56,2,96,0|0|8
128,200,51509,1,4
200,240,51846,1,8
284,240,52183,6,0,B|340:240|364:192,1,96,4|4
376,112,53025,1,4
336,40,53363,2,0,B|280:40|256:88,1,96,4|8
256,252,54542,1,8
224,328,54879,2,0,B|192:368|136:360,2,96,0|0|0
160,276,56228,6,0,B|112:224|128:152,1,128,4|0
160,80,57239,1,8
232,120,57576,2,0,B|280:136|328:104,2,96,0|0|8
208,200,58924,6,0,B|160:224|160:280,2,96,4|0|8
244,276,60273,2,0,B|280:336|352:336,1,128
464,288,61452,6,0,B|504:256|496:200,1,96,4|8
416,176,62295,2,0,B|368:152|368:96,2,96,0|0|8
452,100,63643,1,0
412,28,63981,1,8
328,28,64318,6,0,B|280:56|288:112,1,96,4|4
320,184,65160,1,0
296,264,65497,2,0,B|264:328|192:328,1,128,4|0
72,304,66677,1,8
32,232,67014,6,0,B|32:168,1,64,4|8
72,96,67688,2,0,B|104:112|112:144,1,64,0|8
152,216,68363,2,0,B|184:256|240:248,1,96
304,200,69205,1,0
376,160,69542,6,0,B|430:153|462:193,1,96,4|8
488,272,70385,1,0
392,352,70891,2,0,B|320:368|272:312,1,128,4|4
240,240,71902,1,0
160,216,72239,6,0,B|104:216|80:264,2,96,4|8|0
232,320,73756,1,0
312,344,74093,2,0,B|360:344|392:296,1,96,8|0
392,212,74936,6,0,B|344:212|312:260,2,96,0|8|0
464,256,76284,2,0,B|488:204|460:164,1,96,0|8
384,128,77127,2,0,B|408:80|464:80,2,96,0|0|0
360,208,78475,5,8
256,336,79149,2,0,B|224:336,1,32,8|8
104,304,79823,2,0,B|40:272|40:200,1,128,0|4
56,120,80834,1,0
136,96,81172,6,0,B|192:96|216:152,1,96,8|0
240,264,82183,1,8
312,304,82520,2,0,B|376:304,1,64,0|8
448,264,83194,6,0,B|448:224,1,32,4|0
448,104,83868,1,8
344,32,84374,2,0,B|288:32|264:80,1,96,0|8
256,160,85216,1,0
280,240,85554,1,8
256,320,85891,6,0,B|216:376|144:368,1,128
64,344,86902,2,0,B|32:336,1,32
