osu file format v9

[General]
AudioFilename: Beloved Tomboyish Girl.mp3
AudioLeadIn: 2000
PreviewTime: 142887
Countdown: 0
SampleSet: Normal
StackLeniency: 0.7
Mode: 1
LetterboxInBreaks: 0

[Editor]
Bookmarks: 27601,54387,85887,113315,144172,171601
DistanceSpacing: 1
BeatDivisor: 4
GridSize: 8

[Metadata]
Title:Beloved Tomboyish Girl
Artist:Kurenainagi Tabibito
Creator:Glass
Version:Taiko
Source:Touhou
Tags:Cirno Liverne impossiblexu Numbers 596108 0989596108 Roddie pokedigi

[Difficulty]
HPDrainRate:7
CircleSize:5
OverallDifficulty:7
ApproachRate:5
SliderMultiplier:1.4
SliderTickRate:1

[Events]
//Background and Video events
0,0,"Taiko.jpg"
//Break Periods
//Storyboard Layer 0 (Background)
//Storyboard Layer 1 (Fail)
//Storyboard Layer 2 (Pass)
//Storyboard Layer 3 (Foreground)
//Storyboard Sound Samples
//Background Colour Transformations
3,100,0,0,0

[TimingPoints]
225,428.571428571429,4,1,2,50,1,0
225,-200,4,1,1,60,0,0
26796,-200,4,1,1,60,0,0
27010,-100,4,1,1,60,0,0
85940,-200,4,1,1,60,0,0
137046,-100,4,1,1,60,0,0
144225,-100,4,1,1,60,0,1
202510,-100,4,1,1,60,0,0

[Colours]
Combo1 : 255,255,255
Combo2 : 0,0,128

[HitObjects]
256,192,225,1,2
256,192,439,1,0
256,192,653,1,0
256,192,867,1,2
256,192,1296,1,0
256,192,1939,5,2
256,192,2153,1,0
256,192,2367,1,2
256,192,2582,1,2
256,192,3010,1,0
256,192,3653,5,2
256,192,3867,1,0
256,192,4082,1,0
256,192,4296,1,2
256,192,4510,1,0
256,192,4939,1,2
256,192,5153,1,0
256,192,5582,1,0
256,192,6010,1,0
256,192,6439,1,0
256,192,6653,1,2
256,192,7082,5,2
256,192,7296,1,0
256,192,7510,1,0
256,192,7724,1,2
256,192,8153,1,0
256,192,8796,5,2
256,192,9010,1,0
256,192,9224,1,2
256,192,9439,1,2
256,192,9867,1,0
256,192,10510,5,2
256,192,10724,1,0
256,192,10939,1,0
256,192,11153,1,2
256,192,11367,1,0
256,192,11796,1,2
256,192,12010,1,2
256,192,13939,5,2
256,192,14153,1,0
256,192,14367,1,2
256,192,14582,1,2
256,192,14796,1,0
256,192,15010,1,0
256,192,15224,1,2
256,192,15439,1,0
256,192,15653,5,2
256,192,15867,1,0
256,192,16082,1,2
256,192,16296,1,2
256,192,16510,1,0
256,192,16724,1,2
256,192,16939,1,2
256,192,17367,5,2
256,192,17796,1,0
256,192,18010,1,2
256,192,18225,1,0
256,192,18439,1,0
256,192,18653,1,2
256,192,18867,1,2
256,192,19296,1,0
256,192,19725,1,2
256,192,19939,1,0
256,192,20153,1,0
256,192,20367,1,2
256,192,20796,5,2
256,192,21010,1,0
256,192,21225,1,0
256,192,21439,1,2
256,192,21653,1,0
256,192,21867,1,0
256,192,22082,1,2
256,192,22296,1,2
256,192,22510,5,2
256,192,22725,1,0
256,192,22939,1,2
256,192,23153,1,2
256,192,23367,1,0
256,192,23796,1,2
256,192,24225,5,2
256,192,24439,1,0
256,192,24653,1,0
256,192,24867,1,2
256,192,25082,1,0
256,192,25296,1,0
256,192,25510,1,2
256,192,25725,1,2
256,192,26153,1,0
256,192,26582,1,2
256,192,27010,5,0
256,192,27225,1,2
256,192,27439,1,0
256,192,27653,1,4
256,192,27975,5,0
256,192,28082,1,8
256,192,28296,1,0
256,192,28725,1,2
256,192,28939,1,0
256,192,29046,1,0
256,192,29153,1,2
256,192,29367,1,2
256,192,29796,5,8
256,192,30010,1,2
256,192,30225,1,0
256,192,30653,1,2
256,192,30867,1,2
256,192,31082,5,0
256,192,31510,1,8
256,192,31939,1,0
256,192,32153,1,0
256,192,32367,1,8
256,192,32475,1,0
256,192,32582,1,0
256,192,32796,1,2
256,192,33117,1,0
256,192,33225,1,8
256,192,33439,1,2
256,192,33653,1,0
256,192,34082,5,8
256,192,34189,1,0
256,192,34296,1,2
256,192,34510,1,4
256,192,34832,1,0
256,192,34939,1,8
256,192,35153,1,0
256,192,35582,5,0
256,192,35796,1,8
256,192,35903,1,0
256,192,36010,1,0
256,192,36225,1,4
256,192,36653,1,0
256,192,36867,1,2
256,192,37296,5,0
256,192,37510,1,8
256,192,37725,1,2
256,192,37939,1,0
256,192,38367,5,0
256,192,38582,1,2
256,192,38796,1,0
256,192,39010,1,2
256,192,39332,1,2
256,192,39653,1,0
256,192,39975,1,2
256,192,40296,1,2
256,192,40510,1,0
256,192,40939,5,8
256,192,41046,1,0
256,192,41153,1,2
256,192,41367,1,4
256,192,41689,1,0
256,192,41796,1,8
256,192,42010,1,0
256,192,42439,1,0
256,192,42653,1,8
256,192,42760,1,0
256,192,42867,1,0
256,192,43082,5,4
256,192,43403,1,0
256,192,43510,1,8
256,192,43725,1,2
256,192,44153,5,0
256,192,44367,1,8
256,192,44582,1,2
256,192,44796,1,0
256,192,45010,1,0
256,192,45117,1,0
256,192,45224,1,2
256,192,45439,1,2
256,192,45653,1,0
256,192,45867,1,0
256,192,46082,1,8
256,192,46296,1,2
256,192,46510,5,0
256,192,46724,1,0
256,192,46939,1,0
256,192,47046,1,2
256,192,47260,1,0
256,192,47367,1,2
256,192,47582,1,0
256,192,47689,1,2
256,192,47903,1,0
256,192,48010,1,2
256,192,48224,5,4
256,192,48546,1,0
256,192,48653,1,8
256,192,48867,1,2
256,192,49296,1,0
256,192,49510,1,8
256,192,49724,1,2
256,192,49939,1,0
256,192,50153,1,2
256,192,50367,1,0
256,192,50474,1,2
256,192,50689,1,0
256,192,50796,1,2
256,192,51224,5,8
256,192,51332,1,0
256,192,51439,1,0
256,192,51653,1,4
256,192,51974,1,0
256,192,52082,1,8
256,192,52296,1,2
256,192,52510,1,0
256,192,52939,5,8
256,192,53153,1,0
256,192,53367,1,4
256,192,53689,1,0
256,192,53796,1,8
256,192,54010,1,2
256,192,54224,1,0
256,192,54439,5,2
256,192,54653,1,0
256,192,54760,1,0
256,192,54867,1,2
256,192,55082,5,4
256,192,55296,1,0
256,192,55403,1,0
256,192,55510,1,8
256,192,55724,1,2
256,192,55939,1,2
256,192,56153,5,0
256,192,56367,1,8
256,192,56474,1,0
256,192,56582,1,2
256,192,56796,1,2
256,192,57010,1,0
256,192,57224,1,8
256,192,57439,1,2
256,192,57653,1,0
256,192,57760,1,2
256,192,57974,1,0
256,192,58082,1,8
256,192,58296,1,2
256,192,58510,5,0
256,192,58724,1,0
256,192,58939,1,8
256,192,59153,1,2
256,192,59260,1,0
256,192,59367,1,0
256,192,59474,1,2
256,192,59689,1,0
256,192,59796,1,8
256,192,60010,1,2
256,192,60224,5,2
256,192,60332,1,0
256,192,60439,1,0
256,192,60653,1,8
256,192,60867,1,2
256,192,61082,1,2
256,192,61189,1,0
256,192,61296,1,2
256,192,61403,1,0
256,192,61510,1,8
256,192,61724,1,2
256,192,61939,5,4
256,192,62153,1,0
256,192,62260,1,0
256,192,62367,1,2
256,192,62582,1,2
256,192,62796,1,0
256,192,63010,1,2
256,192,63117,1,0
256,192,63224,1,2
256,192,63439,1,0
256,192,63653,5,4
256,192,63974,1,0
256,192,64082,1,8
256,192,64296,1,2
256,192,64510,1,0
256,192,64724,1,0
256,192,64832,1,0
256,192,64939,1,8
256,192,65153,1,2
256,192,65367,5,4
256,192,65796,1,4
256,192,66224,1,4
256,192,66439,1,0
256,192,66546,1,0
256,192,66653,1,8
256,192,66867,1,0
256,192,67082,5,2
256,192,67296,1,0
256,192,67403,1,2
256,192,67617,1,0
256,192,67724,1,2
256,192,67939,5,2
256,192,68153,1,0
256,192,68260,1,2
256,192,68474,1,0
256,192,68582,1,2
256,192,68796,1,4
256,192,69117,1,0
256,192,69224,1,8
256,192,69439,1,0
256,192,69653,1,2
256,192,70082,5,0
256,192,70296,1,2
256,192,70510,1,2
256,192,70724,1,0
256,192,70939,1,8
256,192,71153,1,2
256,192,71260,1,0
256,192,71367,1,0
256,192,71474,1,2
256,192,71689,1,0
256,192,71796,1,8
256,192,72010,1,0
256,192,72224,5,4
256,192,72439,1,2
256,192,72546,1,0
256,192,72653,1,8
256,192,72867,1,0
256,192,73082,1,2
256,192,73510,5,8
256,192,73724,1,2
256,192,73939,1,0
256,192,74153,1,0
256,192,74260,1,0
256,192,74367,1,8
256,192,74582,1,0
256,192,74796,1,2
256,192,75010,1,0
256,192,75117,1,2
256,192,75332,1,0
256,192,75439,1,2
256,192,75653,5,4
256,192,75974,1,0
256,192,76082,1,8
256,192,76296,1,2
256,192,76510,1,0
256,192,76617,1,0
256,192,76724,1,2
256,192,76939,1,8
256,192,77153,1,0
256,192,77367,1,2
256,192,77796,5,8
256,192,78010,1,2
256,192,78117,1,0
256,192,78224,1,0
256,192,78439,1,2
256,192,78653,1,8
256,192,78867,1,0
256,192,79082,5,4
256,192,79296,1,0
256,192,79403,1,0
256,192,79510,1,8
256,192,79724,1,0
256,192,79939,1,2
256,192,80260,5,0
256,192,80367,1,8
256,192,80582,1,2
256,192,80796,1,2
256,192,80903,1,0
256,192,81117,5,0
256,192,81224,1,8
256,192,81332,1,0
256,192,81439,1,2
256,192,81653,1,2
256,192,81974,1,0
256,192,82082,1,8
256,192,82296,1,2
256,192,82510,5,4
256,192,82939,1,8
256,192,83367,1,0
256,192,83582,1,2
256,192,83796,1,8
256,192,83903,1,0
256,192,84010,1,2
256,192,84224,5,2
256,192,84653,1,0
256,192,85082,1,2
256,192,85510,5,8
256,192,85617,1,8
256,192,85939,5,4
256,192,87224,1,0
256,192,87653,1,2
256,192,88082,1,0
256,192,88510,1,2
256,192,89153,1,0
256,192,89367,1,2
256,192,91082,5,0
256,192,91939,1,2
256,192,92367,1,0
256,192,92796,1,2
256,192,93653,1,0
256,192,94082,1,2
256,192,94510,1,2
256,192,94939,1,2
256,192,95367,1,2
256,192,96010,5,0
256,192,96224,1,2
256,192,96653,1,0
256,192,97082,1,2
256,192,97510,1,0
256,192,97939,1,2
256,192,98796,5,2
256,192,99224,1,0
256,192,99653,1,2
256,192,100510,1,0
256,192,100939,1,2
256,192,101367,1,2
256,192,101796,1,0
256,192,102224,1,2
256,192,102867,5,0
256,192,103082,1,2
256,192,103510,1,0
256,192,103724,1,2
256,192,103939,1,0
256,192,104367,1,2
256,192,104582,1,2
256,192,104796,1,0
256,192,105224,1,0
256,192,105653,5,2
256,192,105974,1,0
256,192,106296,1,2
256,192,106510,1,2
256,192,106939,1,2
256,192,107153,1,0
256,192,107582,1,0
256,192,107796,1,2
256,192,108224,5,2
256,192,108546,1,0
256,192,108867,1,2
256,192,109510,1,0
256,192,109939,1,2
256,192,111224,5,2
256,192,111439,1,0
256,192,111653,1,2
256,192,112082,1,0
256,192,112510,1,2
256,192,112939,1,0
256,192,113367,1,2
256,192,114224,5,0
256,192,114653,1,2
256,192,115082,1,2
256,192,115510,1,0
256,192,115939,1,2
256,192,116582,5,2
256,192,116796,1,2
256,192,117224,1,0
256,192,117653,1,0
256,192,118082,1,0
256,192,118510,1,2
256,192,118939,1,0
256,192,119367,5,2
256,192,119796,1,2
256,192,120224,1,2
256,192,121082,5,0
256,192,121510,1,2
256,192,121939,1,2
256,192,122367,1,0
256,192,122796,1,2
256,192,123439,5,0
256,192,123653,1,2
256,192,124082,1,0
256,192,124510,1,2
256,192,124939,1,0
256,192,125367,1,2
256,192,126224,5,0
256,192,126653,1,0
256,192,127082,1,2
256,192,127939,5,0
256,192,128367,1,2
256,192,128796,1,2
256,192,129224,1,0
256,192,129653,1,2
256,192,130082,1,0
256,192,130510,5,2
256,192,130939,1,0
256,192,131153,1,2
256,192,131367,1,0
256,192,131796,1,2
256,192,132010,1,2
256,192,132224,1,0
256,192,132653,1,0
256,192,133082,5,2
256,192,133510,1,0
256,192,133939,1,2
256,192,134367,1,0
256,192,134582,1,2
256,192,134796,1,0
256,192,135224,1,0
256,192,135653,1,0
256,192,136082,5,2
256,192,136510,1,2
256,192,137153,5,0
256,192,137367,1,4
256,192,137582,1,0
256,192,137689,1,2
256,192,137903,1,0
256,192,138010,1,2
256,192,138224,1,2
256,192,138439,1,0
256,192,138546,1,0
256,192,138653,1,2
256,192,138867,1,2
256,192,139082,5,6
256,192,139296,1,0
256,192,139403,1,2
256,192,139617,1,0
256,192,139724,1,2
256,192,139939,1,2
256,192,140153,1,2
256,192,140260,1,0
256,192,140367,1,2
256,192,140582,1,2
256,192,140796,5,4
256,192,141010,1,0
256,192,141117,1,0
256,192,141224,1,2
256,192,141439,1,2
256,192,141653,1,2
256,192,141760,1,0
256,192,141867,1,0
256,192,141974,1,0
256,192,142082,1,2
256,192,142296,1,2
256,192,142510,5,4
256,192,142724,1,2
256,192,142939,1,4
256,192,143153,1,2
256,192,143367,1,2
256,192,143474,1,0
256,192,143582,1,0
256,192,143689,1,0
256,192,143796,1,2
256,192,143903,1,0
256,192,144010,1,0
256,192,144117,1,0
256,192,144224,5,2
256,192,144439,1,0
256,192,144546,1,0
256,192,144653,1,8
256,192,144867,1,2
256,192,145082,1,2
256,192,145296,1,0
256,192,145510,1,8
256,192,145617,1,0
256,192,145725,1,2
256,192,145939,5,2
256,192,146153,1,0
256,192,146367,1,8
256,192,146475,1,2
256,192,146689,1,0
256,192,146796,1,2
256,192,147010,1,0
256,192,147117,1,0
256,192,147225,1,8
256,192,147439,1,2
256,192,147653,5,4
256,192,148082,1,8
256,192,148296,1,2
256,192,148403,1,0
256,192,148510,1,2
256,192,148725,1,0
256,192,148832,1,2
256,192,149046,1,0
256,192,149153,1,2
256,192,149367,5,2
256,192,149582,1,0
256,192,149796,1,8
256,192,150010,1,0
256,192,150225,1,2
256,192,150439,1,0
256,192,150653,1,8
256,192,150760,1,0
256,192,150867,1,2
256,192,151082,5,4
256,192,151296,1,0
256,192,151403,1,0
256,192,151510,1,8
256,192,151725,1,2
256,192,151939,1,2
256,192,152153,1,0
256,192,152367,5,10
256,192,152475,1,0
256,192,152582,1,2
256,192,152689,1,0
256,192,152796,1,2
256,192,153010,1,0
256,192,153225,1,8
256,192,153332,1,2
256,192,153546,1,0
256,192,153653,1,2
256,192,153867,1,0
256,192,154082,1,8
256,192,154296,5,0
256,192,154510,1,4
256,192,154725,1,0
256,192,154832,1,0
256,192,154939,1,8
256,192,155153,1,0
256,192,155367,5,4
256,192,155582,1,0
256,192,155689,1,2
256,192,155903,1,0
256,192,156010,1,2
256,192,156225,5,4
256,192,156439,1,0
256,192,156546,1,2
256,192,156760,1,0
256,192,156867,1,2
256,192,157082,5,4
256,192,157296,1,0
256,192,157403,1,0
256,192,157510,1,8
256,192,157725,1,2
256,192,157939,5,4
256,192,158153,1,0
256,192,158260,1,0
256,192,158367,1,8
256,192,158582,1,0
256,192,158796,1,2
256,192,159010,1,0
256,192,159225,1,2
256,192,159653,5,4
256,192,160082,1,8
256,192,160189,1,0
256,192,160403,1,0
256,192,160510,1,2
256,192,160725,1,0
256,192,160832,1,0
256,192,160939,1,8
256,192,161153,1,2
256,192,161367,5,4
256,192,161582,1,0
256,192,161796,1,8
256,192,161903,1,0
256,192,162010,1,2
256,192,162225,1,0
256,192,162439,1,0
256,192,162546,1,0
256,192,162653,1,8
256,192,162867,1,2
256,192,163082,1,0
256,192,163296,1,0
256,192,163510,5,8
256,192,163617,1,0
256,192,163725,1,0
256,192,163832,1,0
256,192,163939,1,2
256,192,164153,1,0
256,192,164260,1,2
256,192,164475,1,0
256,192,164582,1,2
256,192,164796,5,4
256,192,165010,1,0
256,192,165117,1,0
256,192,165225,1,8
256,192,165439,1,2
256,192,165653,1,0
256,192,165867,1,0
256,192,166082,1,8
256,192,166296,5,2
256,192,166403,1,0
256,192,166510,1,2
256,192,166725,1,0
256,192,166832,1,2
256,192,167046,1,0
256,192,167153,1,2
256,192,167367,1,2
256,192,167582,1,0
256,192,167796,1,4
256,192,168225,5,4
256,192,168546,1,0
256,192,168653,1,8
256,192,168867,1,2
256,192,169082,1,4
256,192,169510,5,8
256,192,169725,1,2
256,192,169832,1,0
256,192,169939,1,2
256,192,170153,1,0
256,192,170367,1,4
256,192,170582,1,0
256,192,170796,1,6
256,192,171010,1,0
256,192,171225,1,4
256,192,171439,1,0
256,192,171653,5,6
256,192,171867,1,0
256,192,171975,1,0
256,192,172082,1,8
256,192,172296,1,2
256,192,172510,1,2
256,192,172725,1,0
256,192,172939,1,8
256,192,173046,1,0
256,192,173153,1,2
256,192,173367,5,2
256,192,173582,1,0
256,192,173796,1,8
256,192,173903,1,2
256,192,174117,1,0
256,192,174225,1,2
256,192,174439,1,0
256,192,174546,1,0
256,192,174653,1,8
256,192,174867,1,2
256,192,175082,5,4
256,192,175296,1,0
256,192,175510,1,8
256,192,175725,1,2
256,192,175832,1,0
256,192,175939,1,2
256,192,176153,1,0
256,192,176260,1,2
256,192,176475,1,0
256,192,176582,1,2
256,192,176796,5,2
256,192,177010,1,0
256,192,177225,1,8
256,192,177439,1,0
256,192,177653,1,2
256,192,177867,1,0
256,192,178082,1,8
256,192,178189,1,0
256,192,178296,1,2
256,192,178510,5,2
256,192,178617,1,0
256,192,178725,1,0
256,192,178832,1,0
256,192,178939,1,8
256,192,179153,1,2
256,192,179367,1,2
256,192,179582,1,0
256,192,179796,5,10
256,192,179903,1,0
256,192,180010,1,2
256,192,180117,1,0
256,192,180225,1,2
256,192,180439,1,0
256,192,180653,1,8
256,192,180760,1,2
256,192,180975,1,0
256,192,181082,1,2
256,192,181296,1,0
256,192,181510,1,8
256,192,181725,5,0
256,192,181939,1,4
256,192,182153,1,0
256,192,182260,1,0
256,192,182367,1,8
256,192,182582,1,0
256,192,182796,5,2
256,192,183010,1,0
256,192,183117,1,2
256,192,183332,1,0
256,192,183439,1,2
256,192,183653,5,2
256,192,183867,1,0
256,192,183975,1,2
256,192,184189,1,0
256,192,184296,1,2
256,192,184510,5,2
256,192,184725,1,0
256,192,184832,1,0
256,192,184939,1,8
256,192,185153,1,2
256,192,185367,5,4
256,192,185582,1,0
256,192,185689,1,0
256,192,185796,1,8
256,192,186010,1,0
256,192,186225,1,2
256,192,186439,1,0
256,192,186653,1,4
256,192,187082,5,4
256,192,187510,1,8
256,192,187832,1,0
256,192,187939,1,2
256,192,188153,1,0
256,192,188260,1,0
256,192,188367,1,8
256,192,188582,1,2
256,192,188796,5,4
256,192,189010,1,0
256,192,189225,1,8
256,192,189332,1,0
256,192,189439,1,2
256,192,189653,1,0
256,192,189867,1,0
256,192,189975,1,0
256,192,190082,1,8
256,192,190296,1,2
256,192,190510,1,0
256,192,190725,1,0
256,192,190939,5,8
256,192,191046,1,0
256,192,191153,1,0
256,192,191260,1,0
256,192,191367,1,2
256,192,191582,1,0
256,192,191689,1,2
256,192,191903,1,0
256,192,192010,1,2
256,192,192225,5,4
256,192,192439,1,0
256,192,192546,1,0
256,192,192653,1,8
256,192,192867,1,2
256,192,193082,1,0
256,192,193296,1,2
256,192,193403,1,0
256,192,193510,1,8
256,192,193725,1,2
256,192,193939,5,0
256,192,194367,1,6
256,192,194796,1,4
256,192,195117,1,0
256,192,195225,1,8
256,192,195439,1,2
256,192,195653,5,4
256,192,196082,1,8
256,192,196296,1,0
256,192,196510,1,2
256,192,196725,1,0
256,192,196832,1,2
256,192,197046,1,0
256,192,197153,1,2
256,192,197367,5,2
256,192,197475,1,0
256,192,197582,1,0
256,192,197689,1,2
256,192,197903,1,0
256,192,198010,1,2
256,192,198225,1,2
256,192,198546,1,0
256,192,198867,1,2
256,192,199082,5,4
256,192,199296,1,0
256,192,199403,1,0
256,192,199510,1,8
256,192,199725,1,0
256,192,199939,1,2
256,192,200153,1,0
256,192,200260,1,2
256,192,200475,1,0
256,192,200582,1,2
256,192,200796,5,2
256,192,201117,1,0
256,192,201439,1,2
256,192,201653,1,2
256,192,201867,1,0
256,192,202082,1,8
256,192,202189,1,0
256,192,202296,1,2
256,192,202510,1,4
