osu file format v9

[General]
AudioFilename: Beloved Tomboyish Girl.mp3
AudioLeadIn: 2000
PreviewTime: 142887
Countdown: 0
SampleSet: Soft
StackLeniency: 0.5
Mode: 0
LetterboxInBreaks: 0

[Editor]
Bookmarks: 27601,54387,85887,113315,144172,171601,195708
DistanceSpacing: 0.8
BeatDivisor: 4
GridSize: 4

[Metadata]
Title:Beloved Tomboyish Girl
Artist:Kurenainagi Tabibito
Creator:Glass
Version:Roddie's Normal
Source:Touhou
Tags:Cirno Liverne impossiblexu Numbers 596108 0989596108 Roddie pokedigi

[Difficulty]
HPDrainRate:3
CircleSize:3
OverallDifficulty:3
ApproachRate:4
SliderMultiplier:1.1
SliderTickRate:1

[Events]
//Background and Video events
0,0,"BG.jpg"
//Break Periods
2,86139,97904
//Storyboard Layer 0 (Background)
//Storyboard Layer 1 (Fail)
//Storyboard Layer 2 (Pass)
//Storyboard Layer 3 (Foreground)
//Storyboard Sound Samples
//Background Colour Transformations
3,100,0,0,0

[TimingPoints]
225,428.571428571429,4,2,2,30,1,0
27546,-100,4,1,2,30,0,0
27653,-100,4,1,2,30,0,1
27760,-100,4,2,2,50,0,0
35903,-100,4,2,1,50,0,0
36117,-100,4,2,2,70,0,0
41046,-100,4,2,1,50,0,0
41260,-100,4,2,2,70,0,0
42760,-100,4,2,1,50,0,0
42975,-100,4,2,2,70,0,0
44689,-100,4,2,1,70,0,0
44903,-100,4,2,2,70,0,0
46189,-100,4,2,1,50,0,0
46617,-100,4,2,2,70,0,0
47903,-100,4,2,1,50,0,0
48117,-100,4,2,2,70,0,0
53046,-100,4,2,1,50,0,0
53260,-100,4,2,2,70,0,0
54760,-100,4,2,1,50,0,0
54975,-100,4,1,2,50,0,0
55082,-100,4,1,2,50,0,1
55189,-100,4,2,2,70,0,0
85832,-100,4,2,1,30,0,0
86046,-100,4,2,1,50,0,0
99117,-100,4,2,1,25,0,0
137260,-100,4,1,1,20,0,0
137475,-100,4,2,1,50,0,0
138332,-100,4,2,1,40,0,0
139832,-100,4,2,1,50,0,0
141546,-100,4,2,1,60,0,0
144117,-100,4,1,1,60,0,0
144117,-100,4,2,1,70,0,0
144225,-100,4,2,1,70,0,1
144332,-100,4,2,1,70,0,0
171653,-100,4,2,1,70,0,1
171760,-100,4,2,1,70,0,0

[Colours]
Combo1 : 0,255,255
Combo2 : 0,0,128
Combo3 : 255,255,255
Combo4 : 240,5,5
Combo5 : 0,0,255

[HitObjects]
128,112,225,2,0,B|64:168|80:272,2,165,2|2|0
216,112,1939,2,0,B|280:168|264:272,2,165,2|2|0
168,192,3653,5,2
168,192,3867,1,2
392,192,4939,1,2
392,192,5153,1,2
212,152,7082,6,0,B|180:224|76:248,2,165,2|2|0
300,152,8796,2,0,B|332:224|436:248,2,165,2|2|0
256,80,10510,5,2
256,80,10724,1,2
256,304,11796,1,2
256,304,12010,1,2
416,96,13939,6,0,B|344:24|248:104,2,165,2|2|0
416,184,15653,2,0,B|344:256|248:176,2,165,2|2|0
344,136,17367,6,0,B|240:48|144:136|128:264|304:296,1,385,2|2
296,208,19296,5,2
376,248,19725,1,2
420,172,20153,1,2
420,172,20367,1,2
340,136,20796,6,0,B|281:74|181:90,2,165,2|2|0
340,224,22510,2,0,B|294:295|192:296,2,165,2|2|0
428,240,24225,6,0,B|480:172|428:80,2,165,2|0|2
392,264,25725,1,2
256,40,27010,6,0,B|256:112,3,55,0|0|0|4
256,184,28082,1,8
120,296,28939,1,8
256,184,29796,1,8
392,296,30653,2,0,B|432:336,2,55,8|2|0
320,248,31510,5,8
400,212,31939,2,0,B|360:88|256:52,1,220,2|2
172,40,33225,1,8
168,128,33653,2,0,B|56:140|28:292,1,220,2|6
104,328,34939,5,8
240,216,35796,1,8
152,200,36225,2,0,B|136:104|208:48,2,165,4|2|8
240,200,37939,1,2
324,176,38367,6,0,B|352:128,2,55,8|2|2
368,252,39225,1,8
284,280,39653,2,0,B|231:305|169:275|146:214,1,165,2|2
128,92,40939,2,0,B|88:44,2,55,8|2|4
256,56,42010,6,0,B|304:104|248:160,2,110,2|2|0
212,56,43082,2,0,B|140:88|124:212,2,165,2|2|8
292,92,44796,1,2
256,172,45224,5,8
104,252,46082,1,8
256,340,46939,1,8
400,244,47796,1,8
400,244,48010,1,2
400,244,48225,6,0,B|316:220|304:112,2,165,4|2|8
344,312,49939,1,0
264,276,50367,5,8
108,192,51225,1,8
108,192,51439,1,2
108,192,51653,2,0,B|189:215|280:192,2,165,2|2|8
56,120,53367,1,2
228,80,54225,5,0
272,80,54439,2,0,B|328:80,3,55,2|8|2|4
396,136,55510,6,0,B|424:192|404:256,1,110,8|0
380,276,56153,2,0,B|340:288|320:320,1,55,2|8
300,332,56582,2,0,B|272:352|240:328,1,55,0|2
160,324,57225,2,0,B|124:264,1,55,8|2
196,160,58082,2,0,B|244:192,1,55,8|2
284,196,58510,6,0,B|372:232|384:328,1,165,0|2
300,348,59582,2,0,B|252:312,3,55,2|8|0|2
192,252,60653,1,8
252,188,61082,1,2
216,108,61510,1,8
144,56,61939,6,0,B|48:88|24:184|72:280|160:312,1,330,2|8
236,296,63653,2,0,B|320:288|376:192,2,165,2|2|8
160,248,65367,5,2
124,168,65796,1,8
184,104,66224,1,2
272,96,66653,1,8
344,144,67082,1,2
368,224,67510,1,8
344,304,67939,1,2
272,352,68367,1,8
184,352,68796,5,2
120,184,69653,2,0,B|56:184,2,55,2|2|8
208,188,70510,2,0,B|376:188,2,165,2|2|8
212,100,72224,1,2
124,84,72653,6,0,B|60:108|60:188,1,110,8|0
64,256,73510,1,8
64,256,73724,1,2
64,256,73939,1,0
148,236,74367,2,0,B|168:180,2,55,8|0|2
224,280,75224,1,8
312,272,75653,6,0,B|396:244|424:144,2,165,2|2|8
256,204,77367,1,2
256,116,77796,1,8
180,160,78224,1,2
256,320,79082,5,2
380,192,79939,1,2
256,152,80582,2,0,B|256:80,1,55,2|2
188,212,81439,2,0,B|108:212,1,55,2|2
256,264,82296,2,0,B|256:320,1,55,2|2
256,100,83582,6,0,B|256:172,3,55,0|8|0|2
256,244,84653,1,8
256,244,85082,1,0
256,244,85510,1,8
256,156,85939,5,4
256,40,99224,6,0,B|192:48|152:96,1,110,0|2
120,168,100082,2,0,B|104:240|152:280,1,110
224,304,100939,1,2
292,248,101367,1,2
352,312,101796,2,0,B|416:296|440:240,1,110,2|2
432,72,102867,1,2
432,72,103082,2,0,B|428:160|336:224,2,165,2|2|2
344,72,104796,5,0
272,120,105224,2,0,B|304:176|256:232,2,110
228,44,106510,1,2
148,80,106939,1,0
148,80,107153,2,0,B|94:153|128:261,1,165,2|0
204,272,108225,2,0,B|380:272,2,165,2|2|0
204,184,109939,5,2
440,68,111224,2,0,B|496:12,2,55,0|0|2
376,128,112082,1,0
296,164,112510,1,2
208,180,112939,1,0
124,156,113367,5,2
56,212,113796,2,0,B|40:276|120:316,1,110,0|2
176,344,114653,1,2
220,268,115082,1,2
292,316,115510,2,0,B|356:292|340:212,1,110,0|2
256,132,116582,2,0,B|232:84,1,55,0|2
156,40,117224,6,0,B|68:136|164:248,1,220
220,176,118510,2,0,B|316:88|428:184,1,220,2|2
468,248,119796,1,0
424,324,120224,5,2
348,280,120653,2,0,B|288:264|268:192,1,110
240,124,121510,1,2
192,200,121939,1,2
132,136,122367,2,0,B|68:152|52:216,2,110,0|2|0
200,192,123653,1,2
192,280,124082,6,0,B|424:280,1,220
464,212,125367,1,2
400,152,125796,2,0,B|168:152,1,220
92,156,127082,5,2
108,244,127510,2,0,B|172:224|224:280,1,110
296,256,128367,2,0,B|344:296|400:248,1,110,0|2
468,204,129224,2,0,B|508:252|460:316,1,110,0|2
392,356,130082,1,0
312,320,130510,2,0,B|224:304|176:200,2,165,2|2|0
368,252,132224,6,0,B|264:240|224:96,1,220
144,136,133510,1,0
108,216,133939,2,0,B|128:304|36:364,2,165,2|2|0
196,200,135653,1,0
128,144,136082,2,0,B|160:56|248:24|352:32|416:88|416:88,1,330,0|4
256,168,138225,5,0
300,164,138439,2,0,B|332:180|364:164,1,55,2|2
392,144,138867,2,0,B|424:128|460:148,1,55,2|4
384,308,139939,6,0,B|348:320|324:308,1,55,0|2
292,284,140367,2,0,B|252:264|228:272,1,55,2|0
196,272,140796,1,4
128,112,141653,5,4
204,160,142082,1,0
292,152,142510,1,4
256,192,142617,12,4,144225
320,104,145082,5,2
264,36,145510,2,0,B|144:28|64:132,1,220,8|8
56,208,146796,2,0,B|80:328|240:328,1,220,2|2
256,248,148082,2,0,B|236:128,2,110,8|2|8
288,332,149367,1,2
376,328,149796,1,8
452,284,150225,1,2
416,204,150653,2,0,B|424:140|360:108,1,110,8|6
288,80,151510,5,8
200,80,151939,1,0
112,80,152367,2,0,B|72:212|184:288,1,220,8|8
240,328,153653,1,2
240,192,154296,1,0
240,192,154510,1,2
132,52,155367,6,0,B|368:52,2,220,2|2|2
68,116,157510,1,8
60,204,157939,1,6
148,216,158367,6,0,B|196:176|252:216,1,110,8|0
200,288,159225,2,0,B|248:328|304:288,1,110,8|2
380,252,160082,2,0,B|420:204|380:148,2,110,8|2|8
312,196,161367,2,0,B|272:128|168:84,2,165,2|2|8
244,252,163082,5,2
168,208,163510,1,8
92,252,163939,1,2
128,332,164367,1,8
212,352,164796,6,0,B|268:352|316:288,1,110,4|8
364,236,165653,2,0,B|380:172|332:132,1,110,0|8
264,84,166510,2,0,B|144:60|72:172,1,220,2|2
40,248,167796,2,0,B|72:304|136:304,1,110,8|2
256,184,169082,1,2
256,360,169939,1,2
256,272,170367,5,8
256,184,170796,1,2
256,96,171225,1,8
176,56,171653,1,6
128,128,172082,6,0,B|136:192|200:232,1,110,8|0
256,272,172939,2,0,B|256:352,2,55,8|0|2
256,184,173796,1,8
224,104,174225,2,0,B|320:80|376:184|312:256,1,220,2|2
256,184,175510,1,8
208,256,175939,6,0,B|152:232|136:168,2,110,2|8|2
268,324,177225,1,8
352,296,177653,1,2
412,228,178082,6,0,B|436:164|372:116,1,110,8|6
304,96,178939,2,0,B|248:56|184:104,1,110,8|2
128,144,179796,2,0,B|56:208|64:328|200:368|272:304,1,330,8|2
344,208,181725,1,0
344,208,181939,1,2
208,96,182796,6,0,B|428:96,2,220,2|2|2
128,132,184939,1,8
64,72,185367,1,4
32,156,185796,6,0,B|-8:284|112:348,1,220,8|8
188,320,187082,1,2
264,272,187510,2,0,B|392:320|448:200,1,220,8|8
432,116,188796,2,0,B|344:92|264:152,2,165,2|2|8
448,204,190510,5,2
360,220,190939,1,8
284,264,191367,1,2
204,224,191796,1,8
128,176,192225,6,0,B|80:144|72:64,1,110,4|8
96,44,192867,2,0,B|176:24|260:56,1,165,2|8
320,116,193939,1,0
304,204,194367,1,8
324,288,194796,5,2
192,292,195439,1,2
192,292,195653,1,6
