osu file format v9

[General]
AudioFilename: Beloved Tomboyish Girl.mp3
AudioLeadIn: 2000
PreviewTime: 142887
Countdown: 0
SampleSet: Soft
StackLeniency: 0.7
Mode: 0
LetterboxInBreaks: 0

[Editor]
Bookmarks: 27601,54387,85887,99546,113315,144172,171601
DistanceSpacing: 1.2
BeatDivisor: 4
GridSize: 4

[Metadata]
Title:Beloved Tomboyish Girl
Artist:Kurenainagi Tabibito
Creator:Glass
Version:Insane
Source:Touhou
Tags:Cirno Liverne impossiblexu Numbers 596108 0989596108 Roddie pokedigi

[Difficulty]
HPDrainRate:7
CircleSize:4
OverallDifficulty:7
ApproachRate:8
SliderMultiplier:1.6
SliderTickRate:2

[Events]
//Background and Video events
0,0,"BG.jpg"
//Break Periods
2,5353,6332
2,12210,13189
2,86139,98474
//Storyboard Layer 0 (Background)
//Storyboard Layer 1 (Fail)
//Storyboard Layer 2 (Pass)
//Storyboard Layer 3 (Foreground)
//Storyboard Sound Samples
//Background Colour Transformations
3,100,0,0,0

[TimingPoints]
225,428.571428571429,4,2,2,40,1,0
975,-100,4,2,2,15,0,0
1189,-100,4,2,2,40,0,0
2689,-100,4,2,2,15,0,0
2903,-100,4,2,2,40,0,0
7832,-100,4,2,2,15,0,0
8046,-100,4,2,2,40,0,0
9546,-100,4,2,2,15,0,0
9760,-100,4,2,2,40,0,0
26903,-100,4,2,2,40,0,0
27653,-100,4,2,2,40,0,1
27760,-100,4,2,2,50,0,0
34189,-100,4,2,1,50,0,0
34403,-100,4,2,2,50,0,0
35903,-100,4,2,1,50,0,0
36117,-100,4,2,2,50,0,0
41046,-100,4,2,1,50,0,0
41260,-100,4,2,2,50,0,0
42760,-100,4,2,1,50,0,0
42975,-100,4,2,2,50,0,0
44689,-100,4,2,1,50,0,0
44903,-100,4,2,2,50,0,0
46189,-100,4,2,1,50,0,0
46617,-100,4,2,2,50,0,0
47903,-100,4,2,1,50,0,0
48117,-100,4,2,2,50,0,0
53046,-100,4,2,1,50,0,0
53260,-100,4,2,2,50,0,0
54760,-100,4,2,1,50,0,0
54975,-100,4,2,1,50,0,0
55082,-100,4,2,1,50,0,1
55189,-100,4,2,1,50,0,0
85832,-100,4,2,1,40,0,0
86046,-100,4,2,1,40,0,0
99546,-200,4,2,1,40,0,0
99760,-200,4,2,1,15,0,0
99975,-200,4,2,1,40,0,0
100617,-200,4,2,1,15,0,0
100832,-200,4,2,1,40,0,0
103189,-200,4,2,1,15,0,0
103617,-200,4,2,1,40,0,0
104689,-200,4,2,1,15,0,0
105117,-200,4,2,1,40,0,0
105867,-200,4,2,1,15,0,0
105975,-200,4,2,1,40,0,0
106082,-200,4,2,1,15,0,0
106189,-200,4,2,1,40,0,0
106617,-200,4,2,1,15,0,0
106832,-200,4,2,1,40,0,0
107260,-200,4,2,1,15,0,0
107689,-200,4,2,1,40,0,0
108332,-200,4,2,1,15,0,0
108546,-200,4,2,1,40,0,0
108653,-200,4,2,1,15,0,0
108760,-200,4,2,1,40,0,0
110046,-200,4,2,1,15,0,0
111117,-200,4,2,1,40,0,0
113475,-200,4,2,1,15,0,0
113689,-200,4,2,1,40,0,0
113903,-200,4,2,1,15,0,0
114117,-200,4,2,1,40,0,0
115189,-200,4,2,1,15,0,0
115403,-200,4,2,1,40,0,0
115617,-200,4,2,1,15,0,0
115832,-200,4,2,1,40,0,0
116903,-200,4,2,1,15,0,0
117117,-200,4,2,1,40,0,0
117760,-200,4,2,1,15,0,0
117975,-200,4,2,1,40,0,0
118617,-200,4,2,1,15,0,0
118832,-200,4,2,1,40,0,0
120332,-200,4,2,1,15,0,0
120546,-200,4,2,1,40,0,0
120760,-200,4,2,1,15,0,0
120975,-200,4,2,1,40,0,0
122046,-200,4,2,1,15,0,0
122260,-200,4,2,1,40,0,0
122903,-200,4,2,1,15,0,0
123332,-200,4,2,1,40,0,0
124617,-200,4,2,1,15,0,0
124832,-200,4,2,1,40,0,0
125475,-200,4,2,1,15,0,0
125689,-200,4,2,1,40,0,0
125903,-200,4,2,1,15,0,0
126117,-200,4,2,1,40,0,0
127189,-200,4,2,1,15,0,0
127403,-200,4,2,1,40,0,0
127617,-200,4,2,1,15,0,0
127832,-200,4,2,1,40,0,0
128903,-200,4,2,1,15,0,0
129117,-200,4,2,1,40,0,0
129760,-200,4,2,1,15,0,0
129975,-200,4,2,1,40,0,0
130617,-200,4,2,1,15,0,0
130832,-200,4,2,1,40,0,0
131046,-200,4,2,1,40,0,0
132117,-200,4,2,1,40,0,0
132332,-200,4,2,1,15,0,0
132546,-200,4,2,1,40,0,0
133189,-200,4,2,1,15,0,0
133403,-200,4,2,1,40,0,0
134046,-200,4,2,1,15,0,0
134260,-200,4,2,1,40,0,0
136403,-133.333333333333,4,2,1,40,0,0
137260,-100,4,2,1,40,0,0
144117,-100,4,2,1,40,0,0
144225,-100,4,2,1,50,0,1
144332,-100,4,2,1,50,0,0
152260,-100,4,2,1,45,0,0
152903,-100,4,2,1,50,0,0
163403,-100,4,2,1,45,0,0
164046,-100,4,2,1,50,0,0
171653,-100,4,2,1,50,0,1
171760,-100,4,2,1,50,0,0
179689,-100,4,2,1,45,0,0
180332,-100,4,2,1,50,0,0

[Colours]
Combo1 : 0,255,255
Combo2 : 0,0,128
Combo3 : 255,255,255
Combo4 : 240,5,5
Combo5 : 0,0,255

[HitObjects]
20,200,225,1,2
60,276,439,1,0
140,236,653,1,0
180,312,867,2,0,B|256:356|332:312,1,160,2|0
492,184,1939,5,2
452,108,2153,1,0
372,148,2367,1,2
332,72,2582,2,0,B|256:28|180:72,1,160,2|0
256,256,3653,5,2
320,192,3867,1,0
256,128,4082,1,0
192,192,4296,1,0
256,336,4939,5,2
256,336,5153,1,0
512,192,7082,5,2
492,280,7296,1,0
408,308,7510,1,0
320,284,7724,2,0,B|240:260|160:284,1,160,2|0
0,192,8796,5,2
20,104,9010,1,0
104,76,9224,1,2
192,100,9439,2,0,B|272:124|352:100,1,160,2|0
352,260,10510,5,2
300,340,10724,1,0
212,340,10939,1,0
160,260,11153,1,0
256,100,11796,5,2
256,188,12010,1,0
56,264,13939,5,2
0,196,14153,1,0
20,108,14367,1,0
104,76,14582,1,2
188,108,14796,2,0,B|200:28,1,80
272,168,15224,2,0,B|260:247,1,80
364,268,15653,5,2
419,344,15867,1,0
508,315,16082,1,0
508,220,16296,1,2
419,191,16510,1,0
363,268,16724,1,0
444,268,16939,1,2
312,192,17367,5,2
76,56,18010,1,2
76,328,18653,5,2
128,256,18867,1,2
256,316,19296,1,0
340,200,19725,1,2
424,320,20153,1,0
424,320,20367,1,2
456,120,20796,5,2
512,188,21010,1,0
492,276,21225,1,0
408,308,21439,1,2
324,276,21653,2,0,B|312:356,1,80
240,216,22082,2,0,B|251:136,1,80
148,116,22510,5,2
93,40,22725,1,0
4,69,22939,1,0
4,164,23153,1,2
93,193,23367,1,0
93,193,23796,1,2
256,132,24225,5,2
320,192,24439,1,0
256,252,24653,1,0
192,192,24867,1,2
160,276,25082,1,0
212,348,25296,1,0
300,348,25510,1,0
352,276,25725,5,2
256,132,26153,1,0
160,276,26582,1,2
0,192,27010,6,0,B|-8:152|0:112,1,80,0|2
76,64,27439,1,0
152,112,27653,2,0,B|176:192|152:272,1,160,4|8
72,316,28296,2,0,B|152:292|232:316,1,160,0|2
316,348,28939,5,8
344,264,29153,1,0
256,232,29367,2,0,B|212:156|256:80,1,160,2|8
336,64,30010,2,0,B|256:80|256:80|176:64,1,160,2|0
84,64,30653,1,8
20,136,30867,2,0,B|-4:220|44:296,1,160,2|0
160,364,31510,6,0,B|204:294|180:210,1,160,8|2
204,116,32153,1,0
296,144,32367,2,0,B|376:136,1,80,8|2
460,184,32796,2,0,B|472:244|460:304,2,120,2|2|2
460,184,33653,1,2
372,32,34082,6,0,B|411:24|451:31,1,80,8|8
336,108,34510,2,0,B|256:132|176:108,1,160,4|8
160,16,35153,2,0,B|160:88|96:88|96:160,1,160,2|2
80,252,35796,2,0,B|0:244,1,80,8|8
48,356,36225,6,0,B|207:371,1,160,2|8
180,280,36867,2,0,B|256:236|256:148,1,160,2|0
292,60,37510,1,8
356,132,37725,2,0,B|431:175|507:131,1,160,2|0
432,68,38367,2,0,B|452:228,1,160,8|0
360,204,39010,5,2
272,276,39332,1,2
208,108,39653,1,2
144,324,39975,1,2
80,60,40296,1,2
80,60,40510,1,2
376,56,40939,6,0,B|388:136,1,80,8|8
480,168,41367,2,0,B|523:243|479:319,1,160,4|8
392,360,42010,2,0,B|307:337|284:252,1,160,2|2
316,164,42653,1,8
228,132,42867,1,8
196,220,43082,6,0,B|121:263|45:219,1,160,2|8
0,104,43725,2,0,B|80:76|80:128|160:104,1,160,2|0
164,8,44367,1,8
258,24,44582,1,2
352,41,44796,2,0,B|376:121|352:201,1,160,8|8
336,292,45439,1,0
428,260,45653,6,0,B|507:252,1,80,2|2
464,368,46082,2,0,B|384:376,1,80,8|8
292,344,46510,2,0,B|284:304|292:264,1,80,8|0
196,260,46939,1,8
168,244,47046,2,0,B|88:236,1,80
60,220,47367,2,0,B|28:272|18:332,2,120,2|2|10
60,220,48224,5,6
57,58,48867,1,2
198,136,49510,1,8
198,136,49724,2,0,B|283:113|306:28,1,160,2|2
412,32,50367,1,8
420,64,50474,1,0
376,156,50689,1,0
408,164,50796,2,0,B|487:160,1,80
444,300,51224,6,0,B|364:303,1,80,8|0
280,252,51653,2,0,B|212:292|164:360,1,160,4|8
72,324,52296,2,0,B|64:244,1,80,2|0
140,184,52725,1,0
52,148,52939,1,8
140,104,53153,1,8
228,148,53367,2,0,B|348:164,2,120,2|2|2
140,104,54224,6,0,B|128:64|140:24,1,80,2|0
228,148,54653,2,0,B|240:188|228:228,1,80,8|8
148,280,55082,6,0,B|228:256|308:280,1,160,4|8
344,192,55724,2,0,B|429:169|452:84,1,160,2|0
452,84,56367,5,8
492,172,56582,1,2
452,260,56796,2,0,B|380:260|380:324|308:324,1,160,2|8
220,292,57439,2,0,B|144:248|68:292,1,160,2|0
84,196,58082,2,0,B|0:208,1,80,8|2
48,64,58510,6,0,B|127:52,1,80,2|0
216,16,58939,1,8
304,52,59153,2,0,B|328:132|304:212,1,160,2|0
396,176,59796,1,8
488,208,60010,1,2
424,344,60224,6,0,B|384:356|344:344,1,80,2|0
236,252,60653,2,0,B|276:240|316:252,1,80,8|0
204,152,61082,2,0,B|164:164|124:152,1,80,2|0
28,112,61510,2,0,B|16:192,1,80,8|2
0,296,61939,6,0,B|40:284|80:296,1,80,4|0
176,336,62367,2,0,B|188:256,1,80,8|0
196,160,62796,1,2
290,176,63010,1,0
385,193,63224,1,8
479,210,63439,1,0
500,116,63653,6,0,B|424:160|348:116,1,160,2|8
412,52,64296,2,0,B|456:128|412:204,1,160,2|0
348,116,64939,2,0,B|324:82|321:40,1,80,8|2
228,28,65367,2,0,B|68:44,2,160,0|8|8
316,68,66439,1,2
244,132,66653,2,0,B|164:140,1,80,8|0
68,144,67082,6,0,B|56:204|68:264,1,120,2|2
80,292,67510,2,0,B|0:304,1,80,8|2
160,348,67939,2,8,B|240:372|320:348,1,160,2|8
432,368,68582,1,2
432,368,68796,6,0,B|448:288,1,80,4|0
488,196,69224,2,0,B|448:184|408:196,1,80,8|0
332,264,69653,2,0,B|256:220|256:132,1,160,2|8
220,44,70296,1,8
156,116,70510,2,0,B|81:159|5:115,1,160,2|8
12,212,71153,5,2
12,212,71367,2,0,B|52:208|92:220,1,80,0|0
168,280,71796,2,0,B|208:284|248:272,1,80,8|0
345,279,72225,5,4
453,307,72439,1,0
481,199,72653,1,8
373,171,72867,2,0,B|349:91|373:11,1,160,2|0
276,24,73510,1,8
180,44,73725,2,0,B|139:45|100:40,1,80,2|0
20,92,74153,1,0
12,188,74367,1,8
104,220,74582,1,0
180,160,74796,2,0,B|244:172|292:204,2,120,2|2|2
232,80,75653,6,0,B|264:88|264:88|308:76,1,80,4|0
352,160,76082,1,8
444,132,76296,1,2
472,224,76510,2,0,B|484:312|420:368,2,160,0|8|4
380,88,77796,5,8
448,20,78010,1,2
484,252,78439,1,2
416,320,78653,2,8,B|336:296|256:320,2,160,8|2|8
508,192,79939,5,2
220,72,80582,1,2
128,40,80796,1,2
296,192,81439,1,2
388,160,81653,1,2
220,312,82296,1,2
128,280,82510,1,2
0,136,82939,6,8,B|80:160|160:136,1,160,8|0
224,192,83582,1,2
304,168,83796,1,8
368,216,84010,1,2
448,192,84224,1,4
304,312,84653,5,2
136,240,85082,1,2
208,72,85510,1,2
376,144,85939,1,6
0,80,99224,5,0
76,136,99653,2,0,B|84:176|76:216,1,80,2|0
172,288,100510,2,0,B|164:248|172:208,1,80,0|2
268,192,101367,1,2
364,208,101796,1,0
380,112,102224,1,2
512,192,102867,5,0
512,192,103082,2,0,B|532:252|512:312,1,120,2|2
348,309,104367,1,2
348,309,104582,2,0,B|328:249|347:191,1,120,2|0
232,168,105653,6,0,B|220:140|224:108,2,60,2|0|0
164,192,106510,2,0,B|124:184|84:192,1,80,2|0
20,156,107153,2,0,B|39:215|20:273,1,120,2|0
120,348,108224,2,0,B|180:340,2,60,2|0|0
36,192,109510,5,0
36,192,109939,2,0,B|92:214|163:183|194:112|171:56,1,240,2|0
240,28,111439,1,0
308,56,111653,5,2
414,20,112082,1,0
480,112,112510,1,2
414,203,112939,1,0
307,169,113367,6,0,B|222:191|199:276,1,160,2|0
256,356,114653,1,0
312,276,115082,2,0,B|289:191|205:169,1,160,2|0
148,16,116582,1,0
216,48,116796,6,0,B|256:40|296:48,1,80,2|0
404,148,117653,2,0,B|364:156|324:148,1,80,2|2
432,256,118510,2,0,B|472:248|512:256,1,80,2|0
468,360,119367,5,2
380,320,119796,1,0
292,360,120224,2,0,B|216:316|140:360,1,160,2|0
48,332,121510,1,0
80,240,121939,6,0,B|0:224,1,80,2|2
48,120,122796,2,0,B|107:139|165:120,1,120,2|0
196,52,123653,1,2
284,88,124082,1,0
372,52,124510,2,0,B|400:128,1,80,2|2
496,116,125367,2,0,B|540:192|496:268,1,160,2|0
404,300,126653,5,2
312,268,127082,2,0,B|268:192|312:116,1,160,2|0
220,84,128367,1,0
220,84,128796,6,0,B|186:61|163:27,1,80,2|0
112,108,129653,2,0,B|72:100|31:108,1,80,2|0
56,200,130510,2,0,B|37:259|56:317,1,120,2|2
200,317,131796,5,2
200,317,132010,2,0,B|219:258|200:200,1,120,2|0
244,116,133082,2,0,B|284:124|324:116,1,80,2|2
192,36,133939,2,0,B|152:28|112:36,1,80,2|0
112,36,134582,1,2
0,280,135224,5,0
68,192,135653,1,2
136,280,136082,1,0
204,192,136510,2,0,B|294:147|288:46,1,179.999994635582,2|0
208,100,137367,6,0,B|288:72|288:124|368:100,1,160,4|8
456,76,138010,1,0
480,168,138224,2,0,B|468:208|480:248,1,80,8|0
360,300,138653,2,0,B|372:260|360:220,1,80,8|2
268,192,139082,6,0,B|192:148|116:192,1,160,4|8
36,244,139724,1,0
16,152,139939,2,0,B|28:112|16:72,1,80,8|0
100,28,140367,1,8
156,108,140582,1,2
239,62,140796,6,0,B|323:84|346:169,1,160,4|8
432,216,141439,1,0
432,216,141653,2,0,B|512:208,1,80,4|0
472,336,142082,2,0,B|392:343,1,80,8|2
328,232,142510,6,0,B|340:192|328:152,1,80,4|0
184,152,142939,2,0,B|172:192|184:232,1,80,8|0
151,359,143367,5,12
174,342,143474,1,8
200,330,143582,1,8
227,323,143689,1,8
256,320,143796,1,10
284,323,143903,1,8
312,330,144010,1,8
338,342,144117,1,8
361,359,144224,6,0,B|440:348,1,80,4|0
488,220,144653,2,0,B|408:231,1,80,8|2
312,192,145082,2,0,B|288:112|312:32,1,160,2|8
284,16,145617,1,2
256,32,145725,1,2
180,92,145939,2,0,B|100:84,1,80,2|0
20,132,146367,2,0,B|8:192|20:252,1,120,8|2
0,276,146796,5,2
108,192,147010,1,0
216,276,147225,2,0,B|296:268,1,80,8|2
384,308,147653,2,0,B|408:228|384:148,1,160,4|8
336,52,148296,5,2
364,60,148403,1,2
392,52,148510,2,0,B|512:44,2,120,2|2|2
388,156,149367,5,2
220,60,149796,1,8
124,228,150225,1,2
292,324,150653,2,0,B|316:320|336:324,2,40,8|2|2
200,300,151082,5,4
237,209,151296,1,0
200,118,151510,1,8
109,81,151725,1,2
18,118,151939,1,2
0,312,152367,5,10
20,316,152475,1,8
40,320,152582,1,8
60,324,152689,1,8
80,328,152796,2,0,B|160:304|240:328,1,160,8|8
380,356,153546,1,2
395,330,153653,2,0,B|387:249,1,80,2|0
292,232,154082,2,0,B|280:192|292:152,1,80,8|2
184,192,154510,2,0,B|104:216|24:192,1,160,4|8
17,57,155367,5,2
92,84,155689,1,2
167,111,156010,1,2
181,165,156225,5,2
256,192,156546,1,2
331,219,156867,1,2
345,273,157082,5,2
420,300,157403,1,2
495,327,157725,1,2
500,236,157939,6,0,B|512:196|500:156,1,80,4|0
372,104,158367,2,0,B|360:144|372:184,1,80,8|0
348,280,158796,1,8
256,252,159010,1,0
164,280,159225,2,0,B|84:272,1,80,8|0
8,332,159653,6,0,B|52:256|8:180,1,160,2|8
92,64,160403,1,2
116,84,160510,2,0,B|234:76,2,120,2|2|2
48,152,161367,6,0,B|40:192|48:232,1,80,2|0
196,311,161796,2,0,B|204:272|196:232,1,80,8|2
116,352,162225,2,0,B|196:324|196:376|276:352,1,160,0|8
312,264,162867,1,2
400,228,163082,2,0,B|440:220|480:228,1,80,8|0
352,128,163510,5,8
325,135,163617,1,8
296,138,163725,1,8
268,135,163832,1,8
240,128,163939,2,0,B|122:136,2,120,8|2|2
256,40,164796,6,0,B|176:16|96:40,1,160,4|8
24,112,165439,2,0,B|0:192|24:272,1,160,2|0
96,344,166082,1,8
184,308,166296,1,0
220,316,166403,1,0
256,324,166510,2,0,B|376:316,2,120,2|2|2
256,220,167367,6,0,B|244:180|256:140,1,80,2|0
124,76,167796,2,0,B|136:116|124:156,1,80,8|0
12,192,168225,2,0,B|-32:268|12:344,1,160,4|8
100,376,168867,1,2
188,344,169082,2,0,B|232:268|188:192,1,160,2|8
256,124,169725,2,0,B|252:104|256:84,2,40,2|2|2
256,124,170367,5,8
416,92,170796,1,4
448,252,171225,1,8
288,284,171653,6,0,B|314:319|301:362,1,80,4|0
156,320,172082,2,0,B|129:284|142:241,1,80,8|2
184,152,172510,2,0,B|108:196|32:152,1,160,2|8
44,120,173046,1,2
32,88,173153,1,2
112,36,173367,6,0,B|152:48|192:36,1,80,2|0
256,124,173796,2,0,B|316:104|376:124,1,120,8|2
404,132,174225,2,0,B|420:52,1,80,2|0
508,168,174653,2,0,B|492:248,1,80,8|2
512,340,175082,2,0,B|436:296|360:340,1,160,4|8
272,300,175725,5,2
244,308,175832,1,2
216,300,175939,2,0,B|96:292,2,120,2|2|2
216,300,176796,5,2
364,232,177225,1,8
296,84,177653,1,2
148,152,178082,1,8
116,148,178189,1,0
84,144,178296,1,0
0,192,178510,6,0,B|-12:232|0:272,1,80,4|0
52,360,178939,1,8
148,316,179153,1,2
244,360,179367,2,0,B|284:352|284:352|316:328,1,80,2|0
380,240,179796,5,8
388,216,179903,1,8
396,192,180010,1,8
404,168,180117,1,8
412,144,180225,2,0,B|404:64,1,80,10|0
296,120,180653,2,0,B|240:84|184:120,1,120,8|2
160,128,181082,2,0,B|172:88|160:48,1,80,2|0
32,116,181510,2,0,B|20:156|32:196,1,80,8|2
24,308,181939,2,0,B|67:324|108:314|135:285|142:239,1,160,4|8
232,296,182582,1,0
232,296,182796,5,2
316,252,183117,1,2
400,296,183439,1,2
456,244,183653,5,2
316,176,183975,1,2
176,244,184296,1,2
120,192,184510,5,2
316,100,184832,1,2
512,192,185153,1,2
512,68,185367,5,4
416,80,185582,1,0
320,68,185796,1,8
224,80,186010,1,0
224,80,186225,2,0,B|144:72,1,80,2|0
52,52,186653,2,0,B|8:128|52:204,1,160,8|2
16,360,187510,5,8
156,324,187832,1,2
184,316,187939,2,0,B|304:328,2,120,2|2|2
148,228,188796,2,0,B|102:233|65:213|46:177|51:131,1,160,2|8
148,136,189439,2,0,B|228:108|228:160|308:136,1,160,2|0
400,160,190082,2,0,B|412:120|400:80,1,80,8|2
488,192,190510,2,0,B|464:272|488:352,1,160,0|8
392,328,191153,5,0
356,336,191260,1,0
320,344,191367,2,0,B|200:336,2,120,2|2|2
280,256,192225,1,4
184,256,192439,1,2
156,252,192546,1,0
128,236,192653,1,8
40,268,192867,2,0,B|-4:192|40:116,1,160,2|2
124,68,193510,1,8
208,116,193725,6,0,B|192:80|192:32|256:-20|320:32|320:80|304:116,1,240,2|8
304,268,194796,2,0,B|320:304|320:352|256:404|192:352|192:304|208:268,1,240,2|2
256,192,195653,1,4
