osu file format v9

[General]
AudioFilename: Beloved Tomboyish Girl.mp3
AudioLeadIn: 2000
PreviewTime: 142887
Countdown: 0
SampleSet: Soft
StackLeniency: 0.7
Mode: 0
LetterboxInBreaks: 0

[Editor]
Bookmarks: 27601,54387,85887,99546,113315,144172,171601,195546,202403,228117,256403,284689,315546,342975,366975,374796,401260
DistanceSpacing: 1.2
BeatDivisor: 4
GridSize: 4

[Metadata]
Title:Beloved Tomboyish Girl
Artist:Kurenainagi Tabibito
Creator:Glass
Version:Extended
Source:Touhou
Tags:Cirno Liverne impossiblexu Numbers 596108 0989596108 Roddie pokedigi

[Difficulty]
HPDrainRate:7
CircleSize:4
OverallDifficulty:7
ApproachRate:8
SliderMultiplier:1.6
SliderTickRate:2

[Events]
//Background and Video events
0,0,"BG.jpg"
//Break Periods
2,5353,6332
2,12210,13189
2,86139,98903
2,202710,227475
2,248996,249546
2,392996,393546
2,396210,396760
//Storyboard Layer 0 (Background)
//Storyboard Layer 1 (Fail)
//Storyboard Layer 2 (Pass)
//Storyboard Layer 3 (Foreground)
//Storyboard Sound Samples
//Background Colour Transformations
3,100,0,0,0

[TimingPoints]
225,428.571428571429,4,2,2,40,1,0
975,-100,4,2,2,15,0,0
1189,-100,4,2,2,40,0,0
2689,-100,4,2,2,15,0,0
2903,-100,4,2,2,40,0,0
7832,-100,4,2,2,15,0,0
8046,-100,4,2,2,40,0,0
9546,-100,4,2,2,15,0,0
9760,-100,4,2,2,40,0,0
14689,-100,4,2,2,15,0,0
14903,-100,4,2,2,40,0,0
17475,-100,4,2,2,15,0,0
17689,-100,4,2,2,40,0,0
18975,-100,4,2,2,15,0,0
19189,-100,4,2,2,40,0,0
19832,-100,4,2,2,15,0,0
20046,-100,4,2,2,40,0,0
21546,-100,4,2,2,15,0,0
21760,-100,4,2,2,40,0,0
26046,-100,4,2,2,30,0,0
26260,-100,4,2,2,40,0,0
26475,-100,4,2,2,20,0,0
26903,-100,4,2,2,40,0,0
27653,-100,4,2,2,40,0,1
27760,-100,4,2,2,50,0,0
34189,-100,4,2,1,50,0,0
34403,-100,4,2,2,50,0,0
35903,-100,4,2,1,50,0,0
36117,-100,4,2,2,50,0,0
37832,-100,4,2,1,50,0,0
38046,-100,4,2,2,50,0,0
41046,-100,4,2,1,50,0,0
41260,-100,4,2,2,50,0,0
42760,-100,4,2,1,50,0,0
42975,-100,4,2,2,50,0,0
44689,-100,4,2,1,50,0,0
44903,-100,4,2,2,50,0,0
46189,-100,4,2,1,50,0,0
46617,-100,4,2,2,50,0,0
47903,-100,4,2,1,50,0,0
48117,-100,4,2,2,50,0,0
49617,-100,4,2,1,50,0,0
50046,-100,4,2,2,50,0,0
53046,-100,4,2,1,50,0,0
53260,-100,4,2,2,50,0,0
54760,-100,4,2,1,50,0,0
54975,-100,4,2,1,50,0,0
55082,-100,4,2,1,50,0,1
55189,-100,4,2,1,50,0,0
84546,-100,4,2,2,40,0,0
85617,-100,4,2,1,50,0,0
85832,-100,4,2,1,40,0,0
86046,-100,4,2,1,40,0,0
99546,-200,4,2,1,40,0,0
99760,-200,4,2,1,15,0,0
100403,-200,4,2,1,40,0,0
101046,-200,4,2,1,15,0,0
101260,-200,4,2,1,40,0,0
101903,-200,4,2,1,15,0,0
102117,-200,4,2,1,40,0,0
103189,-200,4,2,1,15,0,0
103403,-200,4,2,1,40,0,0
103832,-200,4,2,1,15,0,0
104260,-200,4,2,1,40,0,0
105760,-200,4,2,1,15,0,0
105975,-200,4,2,1,40,0,0
106082,-200,4,2,1,15,0,0
106189,-200,4,2,1,40,0,0
106617,-200,4,2,1,15,0,0
106832,-200,4,2,1,40,0,0
107260,-200,4,2,1,15,0,0
107689,-200,4,2,1,40,0,0
108332,-200,4,2,1,15,0,0
108546,-200,4,2,1,40,0,0
108653,-200,4,2,1,15,0,0
108760,-200,4,2,1,40,0,0
111760,-200,4,2,1,15,0,0
111975,-200,4,2,1,40,0,0
112617,-200,4,2,1,15,0,0
112832,-200,4,2,1,40,0,0
113475,-200,4,2,1,15,0,0
113689,-200,4,2,1,40,0,0
113903,-200,4,2,1,15,0,0
114117,-200,4,2,1,40,0,0
116903,-200,4,2,1,15,0,0
117117,-200,4,2,1,40,0,0
117760,-200,4,2,1,15,0,0
117975,-200,4,2,1,40,0,0
118617,-200,4,2,1,15,0,0
118832,-200,4,2,1,40,0,0
120332,-200,4,2,1,15,0,0
120546,-200,4,2,1,40,0,0
120760,-200,4,2,1,15,0,0
120975,-200,4,2,1,40,0,0
122046,-200,4,2,1,15,0,0
122260,-200,4,2,1,40,0,0
122903,-200,4,2,1,15,0,0
123332,-200,4,2,1,40,0,0
123760,-200,4,2,1,15,0,0
123975,-200,4,2,1,40,0,0
124617,-200,4,2,1,15,0,0
124832,-200,4,2,1,40,0,0
125475,-200,4,2,1,15,0,0
125689,-200,4,2,1,40,0,0
126332,-200,4,2,1,15,0,0
126546,-200,4,2,1,40,0,0
127189,-200,4,2,1,15,0,0
127403,-200,4,2,1,40,0,0
127617,-200,4,2,1,15,0,0
127832,-200,4,2,1,40,0,0
129332,-200,4,2,1,15,0,0
129546,-200,4,2,1,40,0,0
130617,-200,4,2,1,15,0,0
130832,-200,4,2,1,40,0,0
131475,-200,4,2,1,15,0,0
131689,-200,4,2,1,40,0,0
133189,-200,4,2,1,15,0,0
133403,-200,4,2,1,40,0,0
134046,-200,4,2,1,15,0,0
134260,-200,4,2,1,40,0,0
134689,-200,4,2,1,15,0,0
135117,-200,4,2,1,40,0,0
135760,-200,4,2,1,15,0,0
135975,-200,4,2,1,40,0,0
136403,-133.333333333333,4,2,1,40,0,0
136617,-133.333333333333,4,2,1,15,0,0
137046,-100,4,2,1,40,0,0
144117,-100,4,2,1,40,0,0
144225,-100,4,2,1,50,0,1
144332,-100,4,2,1,50,0,0
152260,-100,4,2,1,45,0,0
152903,-100,4,2,1,50,0,0
163403,-100,4,2,1,45,0,0
163617,-100,4,2,1,40,0,0
163939,-100,4,2,1,45,0,0
164046,-100,4,2,1,50,0,0
171653,-100,4,2,1,50,0,1
171760,-100,4,2,1,50,0,0
179689,-100,4,2,1,45,0,0
180332,-100,4,2,1,50,0,0
256403,-100,4,2,2,50,0,0
258975,-100,4,2,1,50,0,0
259189,-100,4,2,2,50,0,0
260689,-100,4,2,1,50,0,0
260903,-100,4,2,2,50,0,0
262403,-100,4,2,1,50,0,0
262617,-100,4,2,2,50,0,0
265832,-100,4,2,1,50,0,0
266046,-100,4,2,2,50,0,0
267546,-100,4,2,1,50,0,0
267760,-100,4,2,2,50,0,0
269260,-100,4,2,1,50,0,0
269475,-100,4,2,2,50,0,0
272689,-100,4,2,1,50,0,0
272903,-100,4,2,2,50,0,0
274403,-100,4,2,1,50,0,0
274617,-100,4,2,2,50,0,0
276117,-100,4,2,1,50,0,0
276332,-100,4,2,2,50,0,0
279546,-100,4,2,1,50,0,0
279760,-100,4,2,2,50,0,0
281260,-100,4,2,1,50,0,0
281475,-100,4,2,2,50,0,0
282975,-100,4,2,1,50,0,0
283189,-100,4,2,2,50,0,0
284689,-100,4,2,1,50,0,0
284796,-100,4,2,1,50,0,1
284903,-100,4,2,1,50,0,0
308689,-100,4,2,2,50,0,0
310189,-100,4,2,1,50,0,0
310617,-100,4,2,2,50,0,0
314260,-100,4,2,1,50,0,0
315653,-100,4,2,1,50,0,1
315760,-100,4,2,1,50,0,0
323689,-100,4,2,1,45,0,0
324332,-100,4,2,1,50,0,0
334832,-100,4,2,1,45,0,0
335046,-100,4,2,1,40,0,0
335367,-100,4,2,1,45,0,0
335475,-100,4,2,1,50,0,0
343082,-100,4,2,1,50,0,1
343189,-100,4,2,1,50,0,0
351117,-100,4,2,1,45,0,0
351760,-100,4,2,1,50,0,0
374903,-100,4,2,1,40,0,0
401260,-100,4,2,1,30,0,0
402225,-100,4,2,1,25,0,0
403082,-100,4,2,1,20,0,0
403939,-100,4,2,1,15,0,0
404796,-100,4,2,1,10,0,0
405653,-100,4,2,1,5,0,0
406403,-100,4,2,1,5,0,0
406617,-100,4,2,1,40,0,0

[Colours]
Combo1 : 0,255,255
Combo2 : 0,0,128
Combo3 : 255,255,255
Combo4 : 240,5,5
Combo5 : 0,0,255

[HitObjects]
24,164,225,1,2
44,80,439,1,0
128,100,653,1,0
108,184,867,2,0,B|132:264|116:344,1,160,2|0
115,342,1939,5,2
199,322,2153,1,0
283,298,2367,1,2
367,278,2582,1,2
367,278,3010,1,0
504,176,3653,5,2
496,88,3867,1,0
428,32,4082,1,0
340,36,4296,1,0
272,88,4510,1,0
88,100,4939,1,2
104,184,5153,1,0
28,332,7082,5,2
112,304,7296,1,0
68,228,7510,1,0
112,304,7725,2,0,B|192:320|272:292,1,160,2|0
424,360,8796,5,2
436,272,9010,1,0
448,184,9225,1,2
460,96,9439,1,2
460,96,9867,1,0
276,24,10510,5,2
192,56,10725,1,0
168,140,10939,1,0
208,220,11153,1,2
256,356,11796,1,2
256,356,12010,1,2
492,276,13939,5,2
512,192,14153,1,0
428,172,14367,1,0
408,256,14582,2,0,B|324:256|248:280,1,160,2|0
200,352,15225,2,0,B|120:340,1,80
36,360,15653,1,2
8,276,15867,1,0
36,192,16082,1,2
120,168,16296,1,2
204,200,16510,2,0,B|284:192,2,80,0|0|2
56,100,17367,6,0,B|144:112|208:68,1,160,2|0
284,20,18010,1,2
360,64,18225,1,0
328,144,18439,2,0,B|320:188|336:224,1,80,0|2
440,196,18867,2,0,B|468:284|408:344,1,160,2|2
236,300,19725,2,0,B|164:264|80:284,1,160,2|0
8,232,20367,1,2
56,64,20796,5,2
136,28,21010,1,0
192,96,21225,1,0
272,60,21439,2,0,B|352:88|404:152,1,160,2|0
508,152,22082,2,0,B|496:240,1,80,2|0
508,328,22510,1,2
428,360,22725,1,0
348,324,22939,1,2
332,236,23153,1,2
400,180,23367,1,0
256,344,23796,1,0
112,180,24225,5,2
124,92,24439,1,0
192,148,24653,1,0
44,124,24867,5,0
204,64,25082,1,0
180,232,25296,1,0
268,224,25510,1,2
356,216,25725,5,2
104,288,26153,1,2
460,360,26582,1,2
468,144,27010,5,0
460,56,27225,1,2
368,16,27439,1,0
376,104,27653,2,0,B|312:144|220:120,1,160,4|8
124,136,28296,2,0,B|112:96|132:60,1,80
232,148,28725,5,2
236,236,28939,1,8
188,308,29153,1,2
100,324,29367,2,0,B|24:280|48:184,1,160,2|8
28,92,30010,2,0,B|108:104|108:104|184:76,1,160,2|0
256,28,30653,1,8
340,48,30867,1,2
340,48,30975,2,0,B|408:60|460:36,1,120
512,124,31510,6,0,B|500:204,1,80,8|0
500,292,31939,1,0
408,268,32153,1,2
320,308,32367,1,8
228,284,32581,1,2
228,284,32796,2,0,B|144:292,1,80,2|0
128,312,33117,2,0,B|108:256|112:192,1,120,2|2
164,112,33653,1,2
164,112,34082,6,0,B|208:120|244:100,1,80,8|8
328,56,34510,2,0,B|392:96|392:96|480:88,1,160,4|8
512,180,35153,2,0,B|431:187,1,80,2|0
340,164,35582,1,2
304,252,35796,2,0,B|296:296|312:332,1,80,8|8
444,264,36225,2,0,B|472:176|412:116,1,160,2|8
440,24,36867,2,0,B|380:8|340:64|284:32,1,160,2|0
192,60,37510,5,8
88,76,37725,1,2
88,76,37832,1,0
88,76,37939,1,8
104,180,38153,1,0
208,164,38367,1,8
216,36,38582,1,0
68,24,38796,1,2
60,152,39010,5,2
167,361,39332,1,2
203,129,39653,1,2
38,295,39975,1,2
270,259,40296,1,2
344,196,40510,2,0,B|388:200|420:172,1,80,2|0
312,104,40939,6,0,B|268:100|236:128,1,80,8|8
144,100,41367,2,0,B|108:180|160:256,1,160,4|8
256,316,42010,2,0,B|280:284|272:240,1,80,2|0
320,156,42439,1,2
416,172,42653,1,8
512,188,42867,1,8
484,292,43082,6,0,B|412:260|328:280,1,160,4|8
236,248,43725,1,2
236,248,43939,2,0,B|200:232|200:232|188:192,1,80
176,340,44367,2,0,B|100:304,1,80,8|2
0,352,44796,2,0,B|72:300|44:208,1,160,8|8
8,120,45439,5,0
8,120,45653,2,0,B|52:124|84:104,1,80,2|0
248,48,46082,2,0,B|204:44|172:64,1,80,8|10
172,64,46510,2,0,B|184:148,1,80,8|0
160,236,46939,1,8
152,244,47046,1,2
252,260,47260,1,0
244,268,47367,2,0,B|288:268|324:252,1,80,2|0
320,228,47689,2,0,B|340:348,1,120,2|8
432,296,48225,6,0,B|420:212|420:212|448:140,1,160,4|8
472,48,48867,1,2
376,60,49082,2,0,B|336:48|296:48,1,80
208,80,49510,1,8
192,176,49725,1,10
96,160,49939,1,8
112,64,50154,1,0
224,64,50367,1,8
224,64,50475,1,2
208,192,50689,1,0
208,192,50796,2,0,B|216:272,1,80,2|0
188,364,51225,6,0,B|148:364|112:336,1,80,8|2
20,360,51653,2,0,B|80:296|52:208,1,160,4|8
160,152,52296,2,0,B|140:188|140:188|148:232,2,80,2|0|0
164,56,52939,1,8
256,76,53153,1,8
348,96,53367,2,0,B|408:92|468:108,2,120,2|2|2
256,48,54225,2,0,B|244:128,1,80,2|2
128,168,54653,2,0,B|140:88,1,80,8|8
224,220,55082,6,0,B|171:292|82:265,1,160,4|8
72,360,55725,1,0
168,368,55939,2,0,B|248:352,1,80,0|2
296,240,56367,2,0,B|217:255,1,80,8|2
400,296,56796,2,0,B|436:220|424:140,1,160,4|8
404,40,57439,2,0,B|370:54|370:54|328:52,1,80,2|0
268,136,57867,1,0
364,148,58082,1,8
356,244,58296,1,2
260,232,58510,6,0,B|180:220|180:220|104:239,1,160,2|8
28,300,59153,2,0,B|100:248|72:156,1,160,2|0
92,64,59796,1,8
164,124,60010,1,2
164,124,60225,2,0,B|244:108,1,80,2|0
300,32,60653,1,8
392,64,60867,1,2
388,160,61082,2,0,B|380:204|396:240,1,80,2|0
500,300,61510,2,0,B|515:265|507:221,1,80,8|2
384,256,61939,5,4
288,264,62153,1,0
292,360,62367,1,8
388,352,62581,1,2
400,228,62796,5,2
304,236,63010,1,0
208,244,63225,1,8
112,252,63439,1,0
24,292,63653,6,0,B|-28:216|0:140,1,160,2|8
44,56,64296,1,2
44,56,64510,2,0,B|80:76|80:76|120:68,1,80
112,172,64939,1,8
204,148,65153,1,2
296,188,65367,2,0,B|336:276|276:340,2,160,2|8|8
316,96,66439,1,2
408,120,66653,2,0,B|448:128|488:108,1,80,8|0
508,228,67082,5,2
416,204,67296,1,0
420,208,67403,1,2
320,184,67617,1,0
324,188,67725,1,2
352,328,67939,5,2
260,304,68153,1,0
264,308,68260,1,2
164,284,68474,1,0
168,288,68582,1,2
64,320,68796,6,0,B|16:264|8:172,1,160,4|8
100,140,69439,2,0,B|108:60,1,80,0|2
236,32,69867,2,0,B|208:64|208:64|204:100,1,80,0|8
192,196,70296,1,2
288,212,70510,2,0,B|372:228|432:276,1,160,2|8
500,196,71153,2,0,B|512:116,2,80,2|0|0
500,196,71796,1,8
328,80,72225,5,4
236,52,72439,1,0
144,32,72653,2,0,B|104:32|64:40,1,80,8|0
12,120,73082,2,0,B|12:160|20:200,1,80,2|0
132,192,73510,1,8
132,192,73725,2,0,B|139:278|104:352,1,160,2|0
106,348,74367,2,0,B|184:340,1,80,8|2
280,356,74796,1,2
255,214,75117,1,2
230,71,75439,1,2
230,71,75653,5,4
326,87,75867,1,0
422,87,76082,2,0,B|462:87|506:79,1,80,8|2
346,179,76510,2,0,B|262:175|186:191,2,160,0|8|2
432,132,77582,1,0
504,192,77796,6,0,B|492:272,1,80,8|2
452,360,78225,1,0
364,320,78439,1,2
268,308,78653,2,0,B|228:312|188:320,1,80,8|0
96,296,79082,2,0,B|24:244|52:152,1,160,4|8
56,60,79725,5,0
148,84,79939,2,0,B|187:87|187:87|232:76,1,80,2|0
308,28,80367,1,8
400,56,80582,1,2
492,84,80796,2,0,B|499:169|472:244,1,160,2|8
464,336,81439,5,2
372,356,81653,2,0,B|292:344,1,80,2|0
260,232,82082,2,0,B|340:244,1,80,8|2
164,252,82510,2,0,B|116:196|108:104,2,160,2|8|0
164,252,83582,5,2
316,284,83796,1,8
348,132,84010,1,0
196,100,84224,1,2
20,192,84653,5,8
256,364,85082,1,2
492,192,85510,1,8
256,20,85939,1,4
224,68,99653,6,0,B|304:80|380:112,1,160,2|0
472,152,100939,2,0,B|484:196|464:232,1,80,2|2
364,284,101796,2,0,B|345:250|357:206,1,80,0|2
208,116,102867,5,0
168,144,103082,2,0,B|132:161|84:156,1,80,2|0
44,148,103725,2,0,B|56:268,1,120,2|2
24,300,104582,1,2
24,300,104796,1,0
116,324,105225,1,0
208,348,105653,6,0,B|268:340,2,60,2|0|0
208,348,106510,1,2
228,252,106939,1,0
272,232,107153,2,0,B|332:240|392:260,1,120,2|0
484,240,108225,2,0,B|492:208|492:180,2,60,2|0|0
432,56,109510,5,0
336,36,109939,1,2
32,88,111225,5,2
24,136,111439,1,0
48,176,111653,2,0,B|88:168|128:172,1,80,2|0
224,176,112510,2,0,B|216:256,1,80,2|0
180,340,113367,6,0,B|256:372|256:308|336:340,1,160,2|0
428,368,114653,1,0
444,272,115082,1,2
460,176,115510,1,0
476,80,115939,1,2
384,60,116367,2,0,B|344:64,1,40
312,100,116796,6,0,B|272:100|232:92,1,80,2|0
164,24,117653,1,2
76,64,118082,1,2
92,160,118510,2,0,B|100:204|80:240,1,80,2|0
56,328,119367,5,2
148,304,119796,1,0
240,280,120225,2,0,B|320:288|392:336,1,160,2|0
468,280,121510,5,2
500,372,121939,1,2
468,280,122367,1,2
436,188,122796,2,0,B|420:128|440:68,1,120,2|0
452,32,123653,2,0,B|412:36|412:36|372:24,1,80,2|0
280,44,124510,5,2
184,60,124939,1,0
88,76,125367,2,0,B|60:108|72:152,1,80,2|0
144,216,126225,2,0,B|172:184|160:140,1,80,2|0
184,60,127082,6,0,B|256:60|256:124|328:124,1,160,2|0
392,56,128367,1,0
480,96,128796,1,2
448,184,129225,2,0,B|440:224|452:264,1,80,0|2
420,356,130082,1,0
328,324,130510,6,0,B|288:320|248:328,1,80,2|0
208,356,131153,2,0,B|148:364|88:348,1,120,2|2
44,328,132010,1,2
36,280,132225,1,0
44,184,132653,1,0
140,192,133082,1,2
132,288,133510,1,0
36,232,133939,6,0,B|26:192|32:152,1,80,2|0
8,112,134582,2,0,B|68:128|124:96,1,120,2|0
212,132,135653,2,0,B|252:128|292:144,1,80,0|2
400,120,136510,2,0,B|440:220|360:280,1,179.999994635582,2|0
244,344,137367,6,0,B|208:260|268:196,1,160,4|8
328,108,138010,2,0,B|248:96,1,80,0|8
160,56,138439,1,2
48,92,138653,1,0
160,56,138867,1,2
48,92,139082,2,0,B|12:172|76:244,1,160,4|8
136,320,139725,6,0,B|216:312,1,80,0|8
308,280,140153,1,2
416,312,140367,1,0
308,280,140582,1,2
416,312,140796,2,0,B|488:260|460:168,1,160,4|8
500,80,141439,5,0
400,76,141653,2,0,B|360:80|360:80|320:64,1,80,4|0
264,152,142082,2,0,B|188:124,1,80,8|0
88,176,142510,6,0,B|76:216|96:252,1,80,6|0
172,116,142939,2,0,B|184:76|164:40,1,80,6|0
176,208,143367,5,14
204,230,143475,1,8
240,238,143582,1,8
276,230,143689,1,8
304,208,143797,1,14
332,186,143903,1,8
368,178,144010,1,8
404,186,144117,1,8
432,208,144225,6,0,B|464:184|488:148,1,80,12|0
472,52,144653,1,8
380,80,144867,1,2
296,32,145082,2,0,B|220:56|164:120,1,160,2|8
148,136,145617,1,2
124,132,145725,1,2
40,180,145939,6,0,B|40:224|48:260,1,80,2|0
164,352,146367,2,0,B|180:292|176:232,1,120,8|2
204,248,146796,2,0,B|240:268|240:268|284:260,1,80,2|0
348,328,147225,1,8
440,300,147439,1,2
444,204,147653,2,0,B|472:123|432:48,1,160,4|8
328,72,148296,5,2
328,72,148403,1,0
328,72,148510,1,2
152,140,148832,1,2
408,256,149153,1,2
408,256,149367,6,0,B|400:336,1,80,2|0
296,192,149796,2,0,B|304:112,1,80,8|0
396,164,150225,6,0,B|436:164|476:180,1,80,2|0
304,288,150653,1,10
268,292,150760,1,0
232,280,150867,1,2
144,212,151082,1,4
36,200,151296,1,0
24,308,151510,1,8
132,320,151724,1,2
144,212,151939,2,0,B|184:144|168:56,1,160,2|10
200,40,152475,5,8
224,48,152582,1,8
248,56,152689,1,8
272,64,152796,2,0,B|312:56|352:56,1,80,10|0
448,64,153225,2,0,B|464:120|452:184,1,120,8|2
464,208,153653,1,2
356,168,153867,1,0
356,268,154082,2,0,B|352:308|360:348,1,80,8|2
260,348,154510,2,0,B|180:368|104:324,1,160,4|8
32,264,155153,1,0
36,168,155367,5,2
8,28,155689,1,2
148,76,156010,1,2
148,76,156225,5,2
176,216,156547,1,2
288,124,156868,1,2
288,124,157082,5,2
428,172,157404,1,2
316,264,157725,1,2
408,292,157939,6,0,B|448:288|488:300,1,80,4|0
336,356,158367,2,0,B|296:360|256:348,1,80,8|0
160,360,158796,1,2
144,264,159010,1,0
128,168,159225,2,0,B|136:132|136:88,1,80,8|0
12,172,159653,6,0,B|12:216|20:252,1,80,2|0
196,196,160082,2,0,B|212:136|208:72,1,120,8|2
200,48,160510,1,2
320,148,160832,1,2
472,112,161153,1,2
500,204,161367,6,0,B|488:284,1,80,10|0
408,340,161796,1,8
348,264,162010,1,2
256,296,162225,2,0,B|168:276|112:228,1,160,0|8
12,256,162867,2,0,B|4:176,1,80,2|0
16,80,163296,1,0
108,108,163510,5,8
142,117,163617,1,8
178,114,163724,1,8
211,98,163832,1,8
237,73,163939,1,10
412,32,164260,1,2
468,192,164582,1,2
412,272,164796,6,0,B|328:256|256:288,1,160,4|8
168,248,165439,1,2
252,200,165653,2,0,B|288:188|332:184,1,80
168,248,166082,2,0,B|125:244|89:232,1,80,8|2
68,236,166403,1,2
44,240,166510,2,0,B|32:120,2,120,2|2|2
60,336,167367,1,2
152,308,167581,1,0
248,300,167796,2,0,B|328:308|404:344,1,160,8|2
488,304,168439,6,0,B|496:224,1,80,0|8
468,132,168867,1,2
376,164,169082,2,0,B|292:196|216:140,1,160,2|8
116,128,169725,1,2
116,128,169832,1,0
116,128,169939,6,0,B|36:136,1,80,2|0
132,260,170367,2,0,B|212:252,1,80,8|0
208,160,170796,2,0,B|216:116|201:81,1,80,6|0
44,224,171225,2,0,B|36:268|51:303,1,80,8|0
280,192,171653,6,0,B|295:107|263:35,1,160,4|8
368,32,172296,1,2
432,104,172510,2,0,B|468:124|468:124|508:120,1,80,2|0
508,216,172939,1,8
500,240,173046,1,0
492,264,173153,1,2
416,320,173367,6,0,B|336:308,1,80,2|0
244,340,173796,2,0,B|224:284|228:220,1,120,8|2
200,208,174225,1,2
212,100,174439,1,0
104,88,174653,1,8
92,196,174867,1,2
200,208,175082,2,0,B|284:212|360:196,1,160,4|8
440,120,175725,5,2
440,120,175832,1,0
440,120,175939,1,2
372,296,176261,1,2
256,40,176582,1,2
256,40,176796,2,0,B|176:56,1,80,2|0
72,56,177225,6,0,B|72:96|80:136,1,80,8|0
184,164,177653,2,0,B|191:250|160:324,1,160,2|8
184,320,178189,1,0
208,316,178296,1,2
304,300,178510,2,0,B|384:312,1,80,4|0
336,204,178939,2,0,B|256:192,1,80,8|2
424,232,179367,2,0,B|496:180|468:88,1,160,2|10
456,56,179903,5,8
432,60,180010,1,8
408,64,180117,1,8
384,68,180225,2,0,B|344:68|304:60,1,80,10|0
216,24,180653,2,0,B|168:60|132:116,1,120,8|2
104,104,181082,2,0,B|112:184,1,80,2|0
80,276,181510,1,8
164,324,181725,1,2
248,276,181939,2,0,B|324:300|380:364,1,160,2|8
476,344,182582,1,0
480,248,182796,5,2
512,108,183117,1,2
480,248,183439,1,2
332,292,183653,5,2
364,152,183974,1,2
332,292,184296,1,2
184,336,184510,5,2
216,196,184831,1,2
184,336,185153,1,2
112,272,185367,6,0,B|120:229|120:192,1,80,4|0
0,136,185796,2,0,B|0:173|8:216,1,80,8|0
24,312,186225,1,2
148,124,186653,1,8
324,236,187082,6,0,B|400:213,1,80,2|0
492,248,187510,2,0,B|508:188|504:128,1,120,8|2
512,104,187939,1,2
352,152,188260,1,2
236,32,188582,1,2
140,16,188796,6,0,B|60:32,1,80,2|0
0,112,189225,1,8
8,208,189439,1,2
104,232,189653,2,0,B|189:225|260:254,1,160,0|8
352,228,190296,1,2
280,164,190510,2,0,B|240:152|200:144,1,80,2|0
352,228,190939,2,0,B|389:220|429:208,1,80,8|2
436,232,191260,1,0
444,256,191367,1,2
316,364,191689,1,2
148,340,192010,1,2
52,356,192225,5,4
28,264,192439,1,2
20,240,192546,1,0
24,216,192653,1,8
116,192,192867,2,0,B|140:160|132:116,1,80,2|0
244,72,193296,2,0,B|220:104|228:148,1,80,2|8
264,236,193725,1,2
356,204,193939,6,0,B|426:240|470:313,2,160,0|8|2
344,108,195010,2,0,B|384:116|384:116|416:96,1,80,0|8
476,172,195439,1,2
356,204,195653,2,0,B|276:224|200:180,1,160,4|8
140,104,196296,1,0
48,128,196510,5,2
40,224,196725,1,0
44,232,196832,1,2
136,260,197046,1,0
140,268,197153,2,0,B|180:260|220:260,1,80,2|2
356,308,197689,1,2
296,136,198010,1,2
392,152,198225,2,0,B|456:156|536:136,2,120,2|2|2
296,136,199082,6,0,B|320:172|304:216,1,80,2|0
244,348,199510,2,0,B|220:312|236:268,1,80,8|0
204,192,199939,5,2
116,160,200153,1,0
116,160,200260,1,2
148,68,200475,1,0
148,68,200582,1,2
236,100,200796,2,0,B|300:104|356:84,2,120,2|2|2
236,100,201653,5,2
260,176,201867,1,0
340,168,202082,1,8
420,160,202296,1,2
444,236,202510,1,4
300,360,228225,5,2
141,291,228653,1,0
411,222,229082,1,2
61,153,229510,1,0
256,84,229939,5,2
350,61,230153,1,0
375,64,230260,1,0
397,52,230367,1,0
443,134,230582,2,0,B|435:214,1,80
451,310,231010,1,2
355,298,231225,1,0
267,338,231439,1,2
171,326,231653,6,0,B|131:254|119:174,1,160,2|0
211,154,232296,2,0,B|219:70,1,80,2|0
316,64,232725,1,0
412,52,232939,1,2
420,148,233153,2,0,B|416:192|428:228,1,80,2|0
416,324,233582,5,0
320,312,233796,1,0
324,320,233903,1,0
224,300,234117,1,0
228,308,234224,1,0
132,308,234439,2,0,B|92:324|56:348,2,80,2|2|0
132,308,235082,1,2
100,172,235403,1,0
240,140,235725,1,2
240,140,235939,1,2
412,28,236367,6,0,B|420:112,1,80,2|0
512,152,236795,2,0,B|480:232|412:276,1,160,2|0
356,352,237439,2,0,B|316:352|276:344,1,80,2|0
196,292,237867,2,0,B|156:292|116:300,1,80,2|0
24,280,238296,1,0
24,280,238510,6,0,B|12:120,1,160,2|0
88,60,239153,2,0,B|154:115|238:75,1,160,2|0
332,52,239796,1,2
364,144,240010,1,2
272,172,240225,2,0,B|268:252,1,80
168,312,240653,2,0,B|164:232,2,80
168,312,241296,1,2
28,292,241617,1,2
16,148,241939,6,0,B|0:28,2,120,2|2|2
116,148,242796,2,0,B|100:268,2,120,2|0|2
156,60,243653,5,2
248,88,243868,2,0,B|288:88|328:80,1,80,0|0
416,40,244296,2,0,B|420:124|464:192,1,160,2|2
468,288,244939,2,0,B|384:280,1,80
308,336,245367,6,0,B|254:277|237:193,1,160,2|0
176,84,246010,2,0,B|159:167|105:226,1,160,2|0
80,328,246653,2,0,B|160:320,1,80,2|2
244,364,247082,5,0
314,309,247296,1,0
341,224,247510,1,0
314,140,247725,1,0
253,204,247939,5,2
340,224,248154,1,0
422,189,248368,1,0
471,115,248582,1,2
471,115,248796,1,2
256,36,250296,5,2
164,56,250510,2,0,B|84:44,2,80,2|0|0
184,148,251153,2,0,B|152:228|84:272,1,160,2|0
128,356,251796,2,0,B|208:344,1,80,2|2
292,300,252225,5,0
376,339,252439,1,0
419,251,252653,1,0
419,251,252760,1,0
334,212,252974,1,0
334,212,253082,2,0,B|328:172|344:132,1,80
360,40,253510,5,2
268,64,253725,1,2
176,92,253939,2,0,B|132:92|96:84,1,80,2|0
28,148,254367,1,0
28,148,254582,2,0,B|21:233|50:303,1,160,2|0
144,288,255225,1,2
309,335,255653,1,2
338,165,256510,5,2
364,60,256725,1,0
469,85,256939,1,2
443,191,257153,1,2
338,165,257368,2,0,B|256:152|176:168,1,160,4|8
88,136,258010,1,0
164,80,258225,2,0,B|204:72|244:72,1,80,2|0
88,136,258653,2,0,B|48:136|8:128,1,80,8|2
8,128,259082,6,0,B|20:208,1,80,8|0
12,304,259510,1,8
108,320,259725,2,0,B|188:296|252:252,1,160,2|0
288,164,260367,1,8
380,188,260582,1,2
472,216,260796,6,0,B|492:184|496:140,1,80,8|0
428,72,261225,1,8
336,44,261439,1,2
240,36,261654,2,0,B|160:44|84:80,1,160,2|8
8,132,262296,1,2
64,212,262510,6,0,B|72:292,1,80,8|0
176,356,262939,2,0,B|184:276,1,80,8|0
288,212,263367,2,0,B|296:292,1,80,2|0
376,344,263796,1,8
376,344,263903,1,0
376,344,264010,1,2
468,320,264225,6,0,B|540:268|512:176,1,160,4|8
504,84,264867,1,0
412,112,265082,2,0,B|372:116|332:100,1,80,2|0
192,28,265510,2,0,B|232:24|272:40,1,80,8|0
248,120,265939,6,0,B|175:170|100:119,1,160,8|8
40,44,266582,2,0,B|72:116|72:116|44:192,1,160,2|0
52,288,267225,1,8
148,276,267439,1,2
232,232,267653,6,0,B|299:274|336:351,1,160,8|8
432,364,268296,1,0
480,280,268510,2,0,B|500:244|492:200,1,80,2|2
392,132,268939,2,0,B|372:168|380:212,1,80,10|0
484,108,269367,5,8
392,132,269581,1,0
396,128,269688,1,2
296,152,269902,1,0
300,148,270010,1,2
312,32,270224,5,2
220,56,270438,1,0
224,52,270545,1,2
124,76,270759,1,0
128,72,270867,1,2
28,48,271082,6,0,B|0:124|36:208,1,160,4|8
52,300,271725,2,0,B|92:300|132:292,1,80,0|2
212,240,272153,2,0,B|252:240|292:248,1,80,0|8
384,296,272582,1,2
392,204,272796,6,0,B|412:168|404:124,1,80,8|0
472,56,273225,1,8
472,56,273439,2,0,B|416:116|324:84,1,160,2|0
240,36,274082,2,0,B|160:52,1,80,8|0
68,28,274510,6,0,B|25:111|87:175,1,160,8|8
160,244,275153,1,0
184,152,275367,1,2
184,152,275796,5,8
280,168,276010,1,2
376,180,276225,2,0,B|416:186|456:186,1,80,8|0
512,108,276653,2,0,B|510:68|502:28,1,80,8|2
396,84,277082,6,0,B|392:163|408:243,1,160,2|8
428,264,277617,1,0
424,288,277725,1,0
364,356,277939,2,0,B|324:356|284:364,1,80,4|0
220,296,278367,2,0,B|212:256|212:216,1,80,8|0
332,148,278796,2,0,B|332:188|324:228,1,80,2|0
220,296,279225,1,8
148,232,279439,1,0
56,264,279653,6,0,B|52:308|64:344,2,80,10|0|8
148,232,280296,2,0,B|176:151|136:76,1,160,2|0
220,28,280939,2,0,B|256:48|256:48|296:44,1,80,8|0
388,60,281367,1,8
372,156,281582,1,0
278,140,281796,1,8
294,44,282010,5,2
388,60,282225,2,0,B|441:117|457:201,1,160,2|8
440,296,282867,1,2
440,296,282975,1,0
440,296,283082,2,0,B|400:296|360:288,1,80,10|0
232,200,283510,2,0,B|272:200|312:208,1,80,10|0
311,207,283939,6,0,B|336:132,1,80,4|0
128,176,284367,2,0,B|152:251,1,80,12|0
216,96,284796,6,0,B|160:36|68:68,1,160,4|8
4,140,285439,1,2
40,228,285653,2,0,B|96:288|188:256,1,160,2|8
280,232,286296,1,2
356,288,286510,2,0,B|396:288|436:292,1,80,2|0
512,176,286939,2,8,B|472:176|432:180,1,80,8|2
336,172,287367,6,0,B|274:108|317:22,1,160,0|8
316,24,288010,2,0,B|236:28,1,80,2|0
184,108,288439,1,0
93,140,288653,1,8
3,173,288867,1,2
40,260,289082,2,0,B|116:288|116:288|192:260,1,160,2|8
156,172,289725,1,2
156,172,289939,6,0,B|144:132|164:96,1,80,2|0
296,168,290367,2,0,B|308:208|288:244,1,80,8|2
271,341,290796,1,2
177,325,291010,1,0
193,229,291224,1,8
193,229,291332,1,0
193,229,291439,1,2
287,245,291653,6,0,B|367:257|443:221,1,160,4|8
480,132,292296,1,0
480,132,292510,2,0,B|492:52,1,80,2|0
364,108,292939,2,0,B|376:188,1,80,8|0
468,228,293367,6,0,B|487:319|411:365,1,160,2|8
324,328,294010,2,0,B|284:328|244:336,1,80,2|0
152,316,294439,1,0
172,224,294653,1,8
264,243,294867,1,2
152,316,295082,6,0,B|65:299|48:210,1,160,0|8
32,116,295725,1,2
124,96,295939,2,0,B|160:112|160:112|200:108,1,80,2|2
292,136,296367,2,0,B|320:108|332:64,1,80,8|0
423,44,296796,5,2
447,135,297010,1,0
455,128,297117,1,2
472,228,297332,1,0
480,221,297439,1,2
344,168,297653,5,2
368,259,297867,1,0
376,252,297974,1,2
393,352,298189,1,0
401,345,298296,1,2
300,328,298510,6,0,B|220:304|156:260,1,160,4|8
76,344,299153,1,2
76,344,299367,2,0,B|32:276|40:188,1,160,2|8
8,100,300010,1,2
104,112,300225,2,0,B|144:116|144:116|184:100,1,80,2|0
268,60,300653,1,8
300,152,300867,1,2
394,135,301082,1,0
488,118,301296,1,0
504,212,301510,6,0,B|512:252|500:292,1,80,8|0
404,356,301939,2,0,B|388:316|396:276,1,80,4|0
304,248,302367,1,8
236,316,302582,1,0
140,308,302796,2,0,B|100:312|56:320,1,80,2|0
184,204,303225,1,8
184,204,303439,2,0,B|268:208|344:192,1,160,2|0
448,216,304082,2,0,B|464:180|468:140,1,80,8|2
409,63,304510,5,2
208,132,304832,1,2
278,332,305153,1,2
278,332,305367,2,0,B|320:336|356:324,1,80,4|0
200,272,305796,2,0,B|158:268|122:280,1,80,8|2
32,240,306225,2,0,B|16:80,2,160,0|8|2
32,240,307510,5,8
44,336,307725,1,2
140,324,307939,2,0,B|180:328|220:312,1,80,0|2
360,240,308367,2,0,B|320:236|280:252,1,80,8|0
304,332,308796,2,0,B|377:382|452:331,1,160,4|8
512,252,309439,6,0,B|504:172,1,80,0|2
376,116,309867,2,0,B|384:196,1,80,0|8
472,72,310296,1,10
472,72,310510,2,0,B|396:100|396:100|316:88,1,160,10|8
232,132,311153,5,2
316,180,311367,2,0,B|414:195,1,80,2|0
232,132,311796,2,0,B|133:147,1,80,8|2
60,128,312225,2,0,B|32:212|76:284,1,160,4|8
168,308,312867,1,0
267,282,313082,1,4
365,313,313296,1,0
426,230,313510,1,8
365,146,313725,1,0
267,178,313939,2,0,B|228:180|228:180|188:168,1,80,4|0
80,92,314367,5,6
67,122,314475,1,0
62,156,314582,1,0
67,189,314689,1,0
100,212,314796,5,6
105,245,314903,1,0
100,279,315010,1,0
87,309,315118,1,0
124,324,315225,5,6
156,320,315332,1,0
188,316,315439,1,0
220,312,315546,1,0
252,336,315653,6,0,B|328:312|384:248,1,160,4|8
480,264,316296,1,2
492,168,316510,2,0,B|508:128|496:88,1,80,2|0
420,32,316939,1,8
420,32,317046,1,0
420,32,317153,1,2
344,88,317367,2,0,B|300:92|264:76,1,80,2|0
72,24,317796,2,0,B|136:12|192:40,1,120,8|2
196,36,318225,2,0,B|184:116,1,80,2|0
116,192,318653,1,8
12,172,318867,1,2
24,280,319082,2,0,B|104:268|180:304,1,160,4|8
256,360,319725,5,2
256,360,319832,1,0
256,360,319939,2,0,B|336:352,1,80,2|0
356,364,320260,2,0,B|384:316|384:244,1,120,2|2
476,224,320796,2,0,B|468:144,1,80,2|0
360,72,321225,6,0,B|376:112|376:112|372:148,1,80,8|0
384,248,321653,2,0,B|304:239,1,80,2|0
212,260,322082,1,8
212,260,322189,1,0
212,260,322296,1,2
128,204,322510,2,0,B|112:164|120:124,1,80,4|0
232,84,322939,2,0,B|248:124|240:164,1,80,8|2
212,260,323367,2,0,B|123:299|62:245,1,160,2|8
24,248,323903,5,8
28,224,324010,1,8
32,200,324117,1,8
36,176,324225,2,0,B|32:96,1,80,10|0
120,48,324653,2,0,B|176:68|240:60,1,120,8|2
272,52,325082,1,2
288,148,325296,1,0
384,128,325510,2,0,B|424:128|464:136,1,80,8|2
384,256,325939,2,0,B|304:268|228:232,2,160,4|8|2
256,324,327117,5,2
128,260,327439,1,2
128,260,327653,5,2
128,124,327975,1,2
256,192,328297,1,2
256,192,328510,5,2
384,260,328832,1,2
384,124,329154,1,2
384,124,329367,6,0,B|340:128|304:104,1,80,4|0
432,36,329796,2,0,B|476:32|512:56,1,80,8|0
512,152,330225,2,0,B|488:312,1,160,2|8
408,364,330867,1,0
324,316,331082,6,0,B|280:308|252:284,1,80,2|0
160,340,331510,2,0,B|136:284|140:220,1,120,8|2
104,224,331939,1,2
49,61,332260,1,2
216,96,332582,1,2
217,95,332796,6,0,B|296:84,1,80,2|0
376,28,333225,1,8
460,76,333439,1,2
452,172,333653,2,0,B|416:248|444:328,1,160,0|8
348,356,334296,1,2
256,328,334510,1,0
164,356,334725,1,0
72,328,334939,5,10
47,302,335046,1,8
31,269,335154,1,8
28,233,335261,1,8
37,199,335368,1,10
16,56,335689,1,2
160,36,336010,1,2
256,68,336225,6,0,B|335:106|324:202,1,160,4|8
228,192,336867,1,2
228,192,337082,2,0,B|185:196|149:208,1,80,0|0
300,284,337510,2,0,B|343:280|379:268,1,80,8|2
400,272,337831,1,2
424,276,337938,2,0,B|436:156,2,120,2|2|2
396,364,338796,6,0,B|316:348,1,80,2|0
284,228,339225,2,0,B|362:243,1,80,8|0
220,312,339653,2,0,B|123:326|78:258,1,160,2|8
64,164,340296,1,2
132,96,340510,2,0,B|228:81|273:149,1,160,2|8
368,168,341153,1,2
392,164,341260,1,0
412,160,341367,6,0,B|492:168,1,80,2|0
396,292,341796,2,0,B|316:284,1,80,8|0
324,196,342225,2,0,B|309:161|317:117,1,80,6|0
484,256,342653,2,0,B|492:300|477:335,1,80,8|0
260,244,343082,6,0,B|228:172|244:84,1,160,4|8
336,60,343725,1,2
428,88,343939,2,0,B|432:132|420:172,1,80,2|0
472,248,344367,1,8
472,248,344475,1,0
472,248,344582,1,2
436,336,344796,6,0,B|356:328,1,80,2|0
268,292,345225,2,0,B|212:320|172:368,1,120,8|2
144,360,345653,2,0,B|136:280,1,80,2|0
24,228,346082,2,0,B|32:308,1,80,8|2
116,180,346510,2,0,B|84:100|16:56,1,160,4|8
136,28,347153,5,2
136,28,347260,1,0
136,28,347367,2,0,B|216:36,1,80,2|0
224,68,347689,2,0,B|284:72|344:52,1,120,2|2
412,120,348225,2,0,B|420:204,1,80,2|0
512,244,348653,6,0,B|480:324|412:368,2,160,8|2|8
508,220,349617,1,0
504,196,349725,1,2
432,136,349939,2,0,B|388:140|352:124,1,80,4|0
232,36,350367,2,0,B|276:32|312:48,1,80,8|2
216,164,350796,2,0,B|132:180|60:148,1,160,2|8
16,160,351332,5,8
20,184,351439,1,8
24,208,351546,1,8
28,232,351654,2,0,B|24:312,1,80,10|0
108,360,352082,2,0,B|164:336|208:292,1,120,8|2
204,264,352510,1,2
300,256,352725,1,0
292,160,352939,1,8
196,168,353153,1,2
300,256,353367,6,0,B|384:296|450:241,2,160,2|8|2
178,198,354546,1,2
289,121,354867,1,2
364,180,355082,5,2
212,291,355403,1,2
191,104,355725,1,2
96,92,355939,5,2
256,192,356260,1,2
416,92,356582,1,2
444,176,356796,6,0,B|452:216|440:256,1,80,4|0
344,320,357225,2,0,B|328:280|336:240,1,80,8|0
256,192,357653,1,10
180,252,357867,1,0
84,248,358082,2,0,B|44:248|0:260,1,80,8|0
84,144,358510,6,0,B|123:154|163:154,1,80,2|0
256,192,358939,2,0,B|292:136|264:72,1,120,8|2
248,48,359367,1,2
352,192,359689,1,2
504,148,360010,1,2
512,244,360225,2,0,B|500:324,1,80,2|0
408,348,360653,6,0,B|364:340|336:316,1,80,8|2
232,368,361082,2,0,B|184:300|204:212,1,160,2|8
216,120,361725,1,2
124,144,361939,2,0,B|88:164|88:164|44:164,2,80,0|0|8
136,48,362582,5,2
136,48,362689,1,0
136,48,362796,2,0,B|216:36,1,80,2|0
232,20,363117,2,0,B|280:55|313:109,1,120,2|2
420,72,363653,5,4
412,168,363867,1,2
412,168,363975,1,0
412,168,364082,1,8
404,264,364296,2,0,B|419:299|411:343,1,80,2|0
296,288,364725,2,0,B|281:253|289:209,1,80,2|8
344,132,365153,2,0,B|268:160|268:160|192:132,1,160,2|0
184,36,365796,2,0,B|270:67,1,80,8|0
108,92,366225,6,0,B|40:136|8:216,1,160,2|8
24,308,366867,1,2
120,288,367082,6,0,B|193:338|268:287,1,160,4|8
372,280,367725,1,0
464,256,367939,5,2
472,160,368154,1,0
468,152,368261,1,2
376,124,368475,1,0
372,116,368582,2,0,B|332:124|292:124,1,80,2|2
156,76,369118,1,2
216,248,369439,1,2
120,232,369654,2,0,B|56:228|-24:248,2,120,2|2|2
216,248,370511,6,0,B|192:212|208:168,1,80,2|0
268,36,370939,2,0,B|292:72|276:116,1,80,8|0
308,192,371368,5,2
396,224,371582,1,0
396,224,371689,1,2
364,316,371904,1,0
364,316,372011,1,2
276,284,372225,2,0,B|212:280|156:300,2,120,2|2|2
276,284,373082,5,2
252,208,373296,1,0
172,216,373511,1,8
92,224,373725,1,2
68,148,373939,1,4
208,64,375010,5,2
288,52,375225,1,0
368,44,375439,1,2
448,36,375653,1,2
496,228,376296,1,2
308,264,376939,1,2
296,344,377153,1,2
232,296,377367,1,0
12,192,378225,6,0,B|0:112,1,80,2|0
80,64,378653,2,0,B|92:144,1,80,0|2
132,212,379082,2,0,B|192:216|256:196,2,120,2|0|0
132,212,379939,1,2
268,120,380367,5,2
256,40,380582,1,0
336,28,380796,2,0,B|412:64|496:48,1,160,2|0
492,48,381439,1,2
472,208,381867,1,2
256,352,382510,5,2
256,352,383153,1,2
92,224,383582,5,0
80,304,383796,1,2
16,256,384010,1,2
28,176,384225,1,0
104,144,384439,1,0
168,192,384653,1,0
156,272,384868,1,0
220,320,385082,6,0,B|260:312|300:308,1,80,0|2
425,267,385617,1,2
425,135,385939,1,2
299,94,386260,1,2
222,201,386582,1,2
0,96,387225,6,0,B|8:180,1,80,2|0
100,220,387653,2,0,B|68:300|0:344,1,160,2|0
1,342,388296,1,2
160,324,388725,1,2
420,328,389367,6,0,B|500:344,2,80,2|0|0
372,264,390010,1,2
480,48,390653,1,2
408,84,390867,1,2
328,72,391082,2,0,B|288:72|248:80,1,80
160,60,391510,2,0,B|160:100|168:140,1,80
236,180,391939,5,2
212,256,392153,1,0
132,248,392368,1,0
52,240,392582,1,2
28,316,392796,1,2
352,352,394296,5,2
424,312,394510,2,0,B|464:312|504:320,2,80,2|0|0
368,252,395153,2,0,B|295:284|211:268,1,160,2|0
132,280,395796,1,2
120,200,396010,1,2
240,40,397510,5,2
272,112,397724,1,0
352,92,397939,2,0,B|392:92|432:100,1,80,2|0
508,84,398367,1,0
508,84,398582,2,0,B|500:244,1,160,2|0
460,316,399225,1,2
300,360,399653,5,2
141,291,400081,1,0
411,222,400510,1,2
61,153,400938,1,0
256,28,401367,5,4
256,192,401582,12,0,406510
