osu file format v14

[General]
AudioFilename: rhythm tengoku - WISH Can't wait for you.mp3
AudioLeadIn: 0
PreviewTime: 62741
Countdown: 1
SampleSet: Normal
StackLeniency: 0.7
Mode: 0
LetterboxInBreaks: 1
WidescreenStoryboard: 1

[Editor]
DistanceSpacing: 1.2
BeatDivisor: 4
GridSize: 8
TimelineZoom: 1

[Metadata]
Title:WISH Kimi wo Matenakute
TitleUnicode:WISH 君を待てなくて
Artist:Kurei Soshi
ArtistUnicode:久礼 聡史
Creator:Reecer6
Version:Turbo Tap Hard
Source:Rhythm Tengoku
Tags:rhythm heaven silver couldn't wait for you
BeatmapID:740943
BeatmapSetID:334732

[Difficulty]
HPDrainRate:7
CircleSize:5
OverallDifficulty:6
ApproachRate:8
SliderMultiplier:2.4
SliderTickRate:2

[Events]
//Background and Video events
0,0,"Tumblr 537.png",0,0
//Break Periods
2,50955,55961
2,120294,131402
//Storyboard Layer 0 (Background)
//Storyboard Layer 1 (Fail)
//Storyboard Layer 2 (Pass)
//Storyboard Layer 3 (Foreground)
//Storyboard Sound Samples

[TimingPoints]
4800.00445650257,588.235294117647,4,1,0,100,1,0

[Colours]
Combo1 : 239,190,116
Combo2 : 32,39,104
Combo3 : 139,186,214
Combo4 : 235,137,235

[HitObjects]
168,104,5094,5,0,0:0:0:0:
240,104,5388,1,0,0:0:0:0:
312,104,5682,1,0,0:0:0:0:
296,176,5976,2,0,L|176:176,1,120
248,240,6564,1,0,0:0:0:0:
248,240,6711,1,0,0:0:0:0:
320,312,7447,5,0,0:0:0:0:
256,312,7741,1,0,0:0:0:0:
192,312,8035,1,0,0:0:0:0:
224,256,8329,1,0,0:0:0:0:
288,256,8623,2,0,L|288:128,2,120
120,72,9800,5,0,0:0:0:0:
120,136,10094,1,0,0:0:0:0:
176,104,10388,1,0,0:0:0:0:
176,168,10682,1,0,0:0:0:0:
176,232,10976,1,0,0:0:0:0:
240,232,11270,2,0,L|240:96,1,120
240,56,11858,1,0,0:0:0:0:
304,56,12152,1,0,0:0:0:0:
304,88,12300,1,0,0:0:0:0:
368,72,12594,2,0,L|368:208,1,120
256,152,13770,5,0,0:0:0:0:
256,200,13917,1,0,0:0:0:0:
256,248,14064,1,0,0:0:0:0:
320,248,14211,2,0,L|424:176,5,120
416,184,15976,1,0,0:0:0:0:
416,184,16270,1,0,0:0:0:0:
368,144,16564,5,0,0:0:0:0:
312,144,16858,1,0,0:0:0:0:
312,144,17005,1,0,0:0:0:0:
248,144,17300,1,0,0:0:0:0:
184,144,17594,1,0,0:0:0:0:
184,256,18476,5,0,0:0:0:0:
232,256,18623,1,0,0:0:0:0:
280,256,18770,1,0,0:0:0:0:
328,256,18917,2,0,L|328:128,5,120
384,144,20682,5,0,0:0:0:0:
384,208,20976,1,0,0:0:0:0:
320,208,21270,5,8,0:0:0:0:
320,208,21417,1,8,0:0:0:0:
320,208,21564,1,8,0:0:0:0:
320,208,21711,1,8,0:0:0:0:
208,136,22152,5,8,0:0:0:0:
208,136,22300,1,8,0:0:0:0:
208,136,22447,1,8,0:0:0:0:
208,136,22594,1,8,0:0:0:0:
208,224,23035,1,8,0:0:0:0:
208,320,23329,1,4,0:0:0:0:
320,320,23623,5,8,0:0:0:0:
352,208,23917,1,0,0:0:0:0:
288,208,24064,1,8,0:0:0:0:
352,128,24358,1,0,0:0:0:0:
288,128,24505,1,8,0:0:0:0:
224,144,24800,2,2,B|200:224|88:272|64:240,2,180,0|0|0,0:0|0:0|0:0,0:0:0:0:
336,136,25976,5,0,0:0:0:0:
416,104,26270,1,0,0:0:0:0:
416,168,26417,1,8,0:0:0:0:
496,104,26711,1,0,0:0:0:0:
496,168,26858,1,8,0:0:0:0:
480,288,27152,2,2,P|296:328|216:192,1,360
144,232,28329,5,8,0:0:0:0:
112,144,28623,1,0,0:0:0:0:
176,144,28770,1,8,0:0:0:0:
112,64,29064,1,0,0:0:0:0:
176,64,29211,1,8,0:0:0:0:
264,104,29505,2,2,P|344:136|344:176,4,120,2|2|2|2|8,0:0|0:0|0:0|0:0|0:0,0:0:0:0:
264,104,30976,5,0,0:0:0:0:
264,104,31123,1,8,0:0:0:0:
272,264,31417,1,0,0:0:0:0:
272,264,31564,2,8,L|320:152,4,120
184,104,33329,5,0,0:0:0:0:
184,104,33476,1,0,0:0:0:0:
184,104,33623,1,0,0:0:0:0:
184,104,33770,1,0,0:0:0:0:
184,104,33917,1,0,0:0:0:0:
184,104,34064,1,0,0:0:0:0:
184,104,34211,2,8,B|240:56|296:104|296:104|352:64|408:104,2,240
288,272,35682,5,0,0:0:0:0:
288,272,35829,1,0,0:0:0:0:
288,272,35976,1,0,0:0:0:0:
288,272,36123,1,0,0:0:0:0:
288,272,36270,1,0,0:0:0:0:
288,272,36417,1,0,0:0:0:0:
288,272,36564,2,8,B|232:304|168:256|168:256|208:200|168:144|168:144|232:112|296:144,1,360
120,160,38035,5,0,0:0:0:0:
120,160,38182,1,0,0:0:0:0:
120,160,38329,1,0,0:0:0:0:
224,144,38623,1,0,0:0:0:0:
248,144,38770,1,0,0:0:0:0:
272,144,38917,1,0,0:0:0:0:
376,160,39211,2,8,L|376:248,1,60
368,296,40388,5,0,0:0:0:0:
368,296,40535,1,0,0:0:0:0:
368,296,40682,1,0,0:0:0:0:
368,296,40829,1,0,0:0:0:0:
368,296,40976,2,0,L|192:288,1,120
208,240,41417,2,4,L|144:128,1,120
272,104,42741,5,0,0:0:0:0:
304,128,42888,1,0,0:0:0:0:
272,144,43035,1,0,0:0:0:0:
304,168,43182,1,0,0:0:0:0:
272,184,43329,1,0,0:0:0:0:
304,208,43476,1,0,0:0:0:0:
272,240,43623,2,2,L|144:240,1,120,0|0,0:0|0:0,0:0:0:0:
152,240,44064,1,2,0:0:0:0:
144,128,45094,5,0,0:0:0:0:
168,88,45241,1,0,0:0:0:0:
192,128,45388,1,0,0:0:0:0:
216,88,45535,2,8,L|336:88,1,120
336,96,45976,1,2,0:0:0:0:
336,208,46270,2,2,L|336:280,1,60
144,304,47447,6,8,L|144:224,5,60
224,200,48329,1,8,0:0:0:0:
416,176,48623,2,2,L|416:112,1,60
328,240,49358,5,0,0:0:0:0:
288,240,49505,2,8,P|288:152|328:128,1,120
304,64,50094,1,0,0:0:0:0:
208,64,50314,1,0,0:0:0:0:
112,152,50535,1,0,0:0:0:0:
144,272,50755,1,0,0:0:0:0:
136,128,56711,5,0,0:0:0:0:
136,248,56858,1,8,0:0:0:0:
376,128,57300,1,0,0:0:0:0:
376,248,57447,1,8,0:0:0:0:
136,128,57888,5,0,0:0:0:0:
256,128,58035,1,8,0:0:0:0:
376,128,58182,1,0,0:0:0:0:
136,248,58476,1,0,0:0:0:0:
256,248,58623,1,8,0:0:0:0:
376,248,58770,1,0,0:0:0:0:
224,192,59064,6,0,L|320:192,6,60
336,144,60094,5,2,0:0:0:0:
256,240,60388,1,2,0:0:0:0:
176,152,60682,1,2,0:0:0:0:
256,64,60976,1,2,0:0:0:0:
256,144,61270,5,2,0:0:0:0:
288,96,61417,1,2,0:0:0:0:
312,144,61564,1,2,0:0:0:0:
288,192,61711,1,2,0:0:0:0:
232,192,61858,1,2,0:0:0:0:
200,144,62005,1,2,0:0:0:0:
232,96,62152,1,2,0:0:0:0:
256,144,62300,1,6,0:0:0:0:
192,288,62741,6,0,L|328:288,3,120
336,152,63917,1,8,0:0:0:0:
288,96,64064,1,8,0:0:0:0:
216,96,64211,1,8,0:0:0:0:
168,152,64358,1,8,0:0:0:0:
216,272,65094,5,0,0:0:0:0:
280,272,65241,1,0,0:0:0:0:
400,272,65682,1,0,0:0:0:0:
400,208,65829,1,0,0:0:0:0:
400,144,65976,2,2,P|352:96|296:144,4,120,2|2|2|2|4,0:0|0:0|0:0|0:0|0:0,0:0:0:0:
256,136,67447,5,8,0:0:0:0:
256,280,67741,1,8,0:0:0:0:
200,136,68035,2,8,L|336:136,2,120
320,48,68917,2,8,L|192:48,2,120
320,184,69800,1,8,0:0:0:0:
216,184,69947,1,2,0:0:0:0:
211,71,70241,2,2,P|291:39|355:79,1,120
344,48,70976,5,8,0:0:0:0:
344,104,71123,1,8,0:0:0:0:
344,160,71270,1,8,0:0:0:0:
344,216,71417,1,8,0:0:0:0:
344,272,71564,1,8,0:0:0:0:
344,328,71711,1,0,0:0:0:0:
272,328,71858,6,12,P|168:280|208:176,3,240,8|12|8|12,0:0|0:0|0:0|0:0,0:0:0:0:
256,56,73917,1,8,0:0:0:0:
376,136,74211,1,0,0:0:0:0:
384,288,74505,1,8,0:0:0:0:
256,352,74800,1,0,0:0:0:0:
120,296,75094,1,8,0:0:0:0:
120,128,75388,1,0,0:0:0:0:
256,56,75682,1,8,0:0:0:0:
256,208,75976,1,12,0:0:0:0:
224,136,76123,6,2,L|320:136,3,60
256,240,76858,1,0,0:0:0:0:
256,336,77152,1,0,0:0:0:0:
160,296,77447,2,0,L|160:168,1,120
104,112,78035,1,0,0:0:0:0:
208,48,78329,2,10,P|256:72|288:144,2,120
256,192,79211,12,0,80094,0:0:0:0:
256,104,81270,5,8,0:0:0:0:
208,200,81564,1,0,0:0:0:0:
208,200,81711,1,8,0:0:0:0:
304,200,82005,1,0,0:0:0:0:
304,200,82152,1,8,0:0:0:0:
424,304,82447,2,8,P|424:208|400:200,3,120
384,112,83623,5,8,0:0:0:0:
264,72,83917,1,0,0:0:0:0:
264,72,84064,1,8,0:0:0:0:
160,72,84358,1,0,0:0:0:0:
160,72,84505,1,8,0:0:0:0:
96,144,84800,2,8,P|104:240|160:256,3,120
216,296,85976,5,8,0:0:0:0:
280,208,86270,1,0,0:0:0:0:
280,208,86417,1,8,0:0:0:0:
336,120,86711,1,0,0:0:0:0:
336,120,86858,1,8,0:0:0:0:
240,80,87152,2,8,P|160:96|160:144,3,120
160,240,88329,5,8,0:0:0:0:
248,320,88623,1,0,0:0:0:0:
248,320,88770,1,8,0:0:0:0:
336,240,89064,1,0,0:0:0:0:
336,240,89211,2,8,P|336:104|144:160,1,360,12|8,0:0|0:0,0:0:0:0:
184,96,90976,5,0,0:0:0:0:
184,160,91123,1,0,0:0:0:0:
248,160,91270,1,0,0:0:0:0:
248,96,91417,1,0,0:0:0:0:
312,96,91564,1,0,0:0:0:0:
312,160,91711,1,0,0:0:0:0:
304,224,91858,2,8,L|192:224|224:224,2,120
408,80,93329,5,0,0:0:0:0:
408,144,93476,1,0,0:0:0:0:
344,144,93623,1,0,0:0:0:0:
344,80,93770,1,0,0:0:0:0:
280,80,93917,1,0,0:0:0:0:
280,144,94064,1,0,0:0:0:0:
280,208,94211,1,0,0:0:0:0:
144,208,94505,2,8,L|144:112,1,60
224,56,95682,5,0,0:0:0:0:
264,104,95829,1,0,0:0:0:0:
304,152,95976,1,0,0:0:0:0:
344,192,96123,1,0,0:0:0:0:
304,232,96270,1,0,0:0:0:0:
264,272,96417,1,0,0:0:0:0:
224,232,96564,2,8,L|144:120,1,120
154,134,97005,1,8,0:0:0:0:
112,328,98035,5,0,0:0:0:0:
184,328,98182,1,0,0:0:0:0:
184,256,98329,1,0,0:0:0:0:
256,256,98476,1,0,0:0:0:0:
256,184,98623,1,0,0:0:0:0:
400,184,98917,2,8,L|464:88,1,60
208,224,100388,5,0,0:0:0:0:
272,224,100535,1,0,0:0:0:0:
272,160,100682,1,0,0:0:0:0:
208,160,100829,1,0,0:0:0:0:
208,96,100976,1,0,0:0:0:0:
272,96,101123,1,0,0:0:0:0:
336,96,101270,2,8,L|336:216|336:192,1,120
336,272,101711,1,0,0:0:0:0:
376,320,102741,5,0,0:0:0:0:
312,320,102888,1,0,0:0:0:0:
248,320,103035,1,0,0:0:0:0:
184,320,103182,2,8,L|184:192,1,120
248,200,103623,1,0,0:0:0:0:
248,80,103917,1,0,0:0:0:0:
248,80,104064,1,8,0:0:0:0:
344,128,104947,5,0,0:0:0:0:
392,176,105094,1,0,0:0:0:0:
344,224,105241,1,0,0:0:0:0:
296,176,105388,1,0,0:0:0:0:
248,128,105535,1,0,0:0:0:0:
296,80,105682,1,0,0:0:0:0:
344,32,105829,1,0,0:0:0:0:
392,72,105976,2,8,L|488:168,1,120
476,156,106417,1,8,0:0:0:0:
368,232,107005,6,0,L|304:240,1,60
280,176,107447,1,0,0:0:0:0:
248,96,107741,1,8,0:0:0:0:
80,96,107961,1,8,0:0:0:0:
80,272,108182,1,8,0:0:0:0:
248,272,108402,1,8,0:0:0:0:
184,104,109800,5,8,0:0:0:0:
184,232,110094,1,0,0:0:0:0:
184,232,110241,1,0,0:0:0:0:
184,232,110388,1,0,0:0:0:0:
344,240,110682,2,8,P|344:160|288:152,1,120
256,136,111123,1,8,0:0:0:0:
344,320,112152,5,8,0:0:0:0:
240,280,112447,1,0,0:0:0:0:
240,280,112594,1,0,0:0:0:0:
240,280,112741,1,0,0:0:0:0:
240,184,113035,2,8,P|328:192|368:248,1,120
424,280,113476,1,0,0:0:0:0:
144,72,114358,6,8,L|224:72,1,60
360,72,114947,2,8,L|272:72,1,60
160,224,115535,2,8,L|160:304,2,60
344,224,116123,2,8,L|344:312,2,60
192,88,116711,5,0,0:0:0:0:
256,88,116858,1,0,0:0:0:0:
320,88,117005,1,0,0:0:0:0:
288,144,117153,1,0,0:0:0:0:
224,144,117300,1,0,0:0:0:0:
256,200,117447,1,0,0:0:0:0:
256,264,117594,1,0,0:0:0:0:
328,256,117741,2,2,P|256:336|184:256,1,240
400,160,118917,6,2,L|312:56,1,120
200,48,119505,1,2,0:0:0:0:
120,112,119652,1,2,0:0:0:0:
120,208,119799,1,2,0:0:0:0:
192,248,119947,1,2,0:0:0:0:
256,192,120094,1,4,0:0:0:0:
168,80,132152,5,8,0:0:0:0:
344,72,132741,1,8,0:0:0:0:
344,256,133329,1,8,0:0:0:0:
168,256,133917,1,8,0:0:0:0:
208,96,134211,6,2,B|368:40|488:176|392:344|192:288,1,480
176,248,135535,1,2,0:0:0:0:
176,248,135682,1,2,0:0:0:0:
176,248,135829,1,2,0:0:0:0:
208,80,136564,6,2,P|272:64|344:80,4,120
224,160,137888,1,2,0:0:0:0:
256,216,138035,2,8,B|320:360|464:328|432:96,1,360
384,72,139064,5,8,0:0:0:0:
320,72,139211,1,8,0:0:0:0:
256,72,139358,1,8,0:0:0:0:
248,208,139800,1,8,0:0:0:0:
184,208,139947,1,8,0:0:0:0:
120,208,140094,1,8,0:0:0:0:
56,208,140241,1,8,0:0:0:0:
112,104,140682,2,0,L|264:128,1,120
272,248,141270,1,4,0:0:0:0:
224,176,141564,6,8,P|160:176|128:224,2,120
200,256,142447,1,8,0:0:0:0:
112,160,142741,1,0,0:0:0:0:
120,72,142888,1,0,0:0:0:0:
216,88,143035,1,8,0:0:0:0:
200,176,143182,1,0,0:0:0:0:
288,128,143329,2,2,L|280:232,2,60
360,184,143917,5,8,0:0:0:0:
344,288,144211,1,8,0:0:0:0:
208,272,144505,1,0,0:0:0:0:
224,160,144800,1,8,0:0:0:0:
216,72,145094,2,0,L|304:88,1,60
328,96,145388,1,8,0:0:0:0:
352,232,146270,5,8,0:0:0:0:
352,232,146417,1,0,0:0:0:0:
288,232,146564,1,8,0:0:0:0:
288,232,146711,1,0,0:0:0:0:
224,200,146858,1,8,0:0:0:0:
224,200,147005,1,0,0:0:0:0:
176,152,147152,1,8,0:0:0:0:
176,152,147300,1,0,0:0:0:0:
160,88,147447,1,8,0:0:0:0:
160,88,147594,1,0,0:0:0:0:
216,40,147741,2,0,L|328:96,2,120
120,80,148623,1,0,0:0:0:0:
120,80,148770,1,8,0:0:0:0:
152,192,149064,1,0,0:0:0:0:
224,264,149358,1,8,0:0:0:0:
432,128,150241,5,0,0:0:0:0:
432,128,150388,1,0,0:0:0:0:
432,128,150535,1,0,0:0:0:0:
448,56,150682,2,8,P|296:48|200:96,3,240
280,136,152741,1,0,0:0:0:0:
216,176,153035,5,0,0:0:0:0:
352,176,153329,1,8,0:0:0:0:
264,256,153623,1,0,0:0:0:0:
352,176,153917,1,8,0:0:0:0:
336,304,154211,1,0,0:0:0:0:
352,176,154505,1,8,0:0:0:0:
432,288,154800,1,0,0:0:0:0:
352,176,155094,1,8,0:0:0:0:
288,96,155388,5,0,0:0:0:0:
184,96,155682,1,0,0:0:0:0:
184,216,155976,1,0,0:0:0:0:
288,216,156270,1,0,0:0:0:0:
328,272,156564,2,0,L|216:320,3,120,0|0|0|4,0:0|0:0|0:0|0:0,0:0:0:0:
160,256,157741,5,0,0:0:0:0:
128,168,158035,1,0,0:0:0:0:
192,168,158182,1,0,0:0:0:0:
128,64,158476,1,0,0:0:0:0:
192,64,158623,1,0,0:0:0:0:
288,64,158917,2,2,B|352:88|376:120|384:152,4,120,0|0|0|0|2,0:0|0:0|0:0|0:0|0:0,0:0:0:0:
328,176,160388,5,8,0:0:0:0:
256,288,160682,1,8,0:0:0:0:
192,176,160976,1,8,0:0:0:0:
248,216,161270,2,0,L|328:112,1,120,8|0,0:0|0:0,0:0:0:0:
321,120,161711,1,0,0:0:0:0:
321,120,161858,1,8,0:0:0:0:
321,120,162005,1,8,0:0:0:0:
360,232,162741,6,0,L|224:272,1,120
208,184,163329,2,0,L|160:72,1,120
304,64,163917,2,8,L|336:136,2,60
360,208,165094,6,0,L|296:344,1,120
312,320,165682,1,0,0:0:0:0:
232,288,165976,2,0,P|184:240|208:160,3,120
184,112,167152,5,8,0:0:0:0:
288,80,167447,1,0,0:0:0:0:
288,80,167594,1,8,0:0:0:0:
296,184,167888,1,8,0:0:0:0:
256,280,168182,1,8,0:0:0:0:
152,64,169064,5,0,0:0:0:0:
248,64,169211,1,0,0:0:0:0:
344,64,169358,1,0,0:0:0:0:
304,144,169505,2,8,L|184:144,3,120
184,224,170682,2,8,B|184:280|200:312|264:328,3,120
336,296,171858,6,0,L|200:296,1,120,0|4,0:0|0:0,0:0:0:0:
216,192,172447,2,0,L|352:192,1,120,0|4,0:0|0:0,0:0:0:0:
336,64,173035,2,0,L|192:64,1,120,0|4,0:0|0:0,0:0:0:0:
128,128,173623,2,0,P|104:184|136:248,2,120,0|4|0,0:0|0:0|0:0,0:0:0:0:
216,160,174505,5,8,0:0:0:0:
296,160,174800,1,8,0:0:0:0:
296,304,175094,1,8,0:0:0:0:
216,312,175388,1,8,0:0:0:0:
152,240,175682,1,8,0:0:0:0:
152,120,175976,1,2,0:0:0:0:
152,120,176270,1,2,0:0:0:0:
256,192,176564,12,0,178917,0:0:0:0:
