osu file format v14

[General]
AudioFilename: rhythm tengoku - WISH Can't wait for you.mp3
AudioLeadIn: 0
PreviewTime: 62741
Countdown: 1
SampleSet: None
StackLeniency: 0.7
Mode: 0
LetterboxInBreaks: 1
WidescreenStoryboard: 1

[Editor]
DistanceSpacing: 0.6
BeatDivisor: 4
GridSize: 8
TimelineZoom: 1

[Metadata]
Title:WISH Kimi wo Matenakute
TitleUnicode:WISH 君を待てなくて
Artist:Kurei Soshi
ArtistUnicode:久礼 聡史
Creator:Reecer6
Version:Hard
Source:Rhythm Tengoku
Tags:rhythm heaven silver couldn't wait for you
BeatmapID:740942
BeatmapSetID:334732

[Difficulty]
HPDrainRate:6
CircleSize:4
OverallDifficulty:6
ApproachRate:6
SliderMultiplier:1.9
SliderTickRate:1

[Events]
//Background and Video events
0,0,"Tumblr 537.png",0,0
//Break Periods
2,41470,46397
2,119999,140514
//Storyboard Layer 0 (Background)
//Storyboard Layer 1 (Fail)
//Storyboard Layer 2 (Pass)
//Storyboard Layer 3 (Foreground)
//Storyboard Sound Samples

[TimingPoints]
4800.00445650257,588.235294117647,4,1,0,100,1,0

[Colours]
Combo1 : 239,190,116
Combo2 : 32,39,104
Combo3 : 139,186,214
Combo4 : 235,137,235

[HitObjects]
144,80,4800,5,0,0:0:0:0:
224,80,5388,1,0,0:0:0:0:
304,80,5976,1,0,0:0:0:0:
384,80,6564,1,8,0:0:0:0:
384,160,7152,1,0,0:0:0:0:
304,160,7741,1,0,0:0:0:0:
224,160,8329,1,0,0:0:0:0:
144,160,8917,1,8,0:0:0:0:
144,240,9505,5,0,0:0:0:0:
224,240,10094,1,0,0:0:0:0:
304,240,10682,1,0,0:0:0:0:
384,240,11270,1,8,0:0:0:0:
384,240,11564,1,0,0:0:0:0:
384,240,11858,1,0,0:0:0:0:
384,160,12447,1,0,0:0:0:0:
336,160,13035,1,0,0:0:0:0:
144,80,14211,5,0,0:0:0:0:
192,80,14505,1,0,0:0:0:0:
192,128,14800,1,0,0:0:0:0:
144,128,15094,1,0,0:0:0:0:
144,176,15388,1,0,0:0:0:0:
192,176,15682,1,0,0:0:0:0:
192,224,15976,1,0,0:0:0:0:
144,224,16270,1,0,0:0:0:0:
144,304,16858,5,8,0:0:0:0:
224,304,17447,1,8,0:0:0:0:
304,304,18035,1,8,0:0:0:0:
384,304,18623,1,4,0:0:0:0:
384,256,18917,5,0,0:0:0:0:
336,256,19211,1,0,0:0:0:0:
288,256,19506,1,0,0:0:0:0:
240,256,19800,1,0,0:0:0:0:
192,256,20094,1,0,0:0:0:0:
144,256,20388,1,0,0:0:0:0:
160,304,20682,1,2,0:0:0:0:
208,304,20976,1,0,0:0:0:0:
256,304,21270,6,0,L|304:304,3,47.5
368,304,22152,6,0,L|416:304,3,47.5
368,240,23035,5,2,0:0:0:0:
320,240,23329,1,2,0:0:0:0:
320,160,23623,5,12,0:0:0:0:
320,96,23917,1,0,0:0:0:0:
320,64,24064,1,0,0:0:0:0:
256,64,24358,1,0,0:0:0:0:
256,96,24505,1,0,0:0:0:0:
256,160,24800,5,8,0:0:0:0:
256,224,25094,1,0,0:0:0:0:
256,256,25241,1,0,0:0:0:0:
320,256,25535,1,0,0:0:0:0:
320,224,25682,1,0,0:0:0:0:
320,160,25976,5,8,0:0:0:0:
384,160,26270,1,0,0:0:0:0:
416,160,26417,1,0,0:0:0:0:
416,96,26711,1,0,0:0:0:0:
384,96,26858,1,0,0:0:0:0:
320,96,27152,5,8,0:0:0:0:
256,96,27447,1,0,0:0:0:0:
192,96,27741,1,0,0:0:0:0:
256,192,28329,12,0,30094,0:0:0:0:
256,144,30682,5,0,0:0:0:0:
256,224,31270,1,0,0:0:0:0:
256,304,31858,1,4,0:0:0:0:
160,144,33329,5,0,0:0:0:0:
160,144,33476,1,0,0:0:0:0:
160,144,33623,1,0,0:0:0:0:
272,144,34211,1,0,0:0:0:0:
384,144,34800,1,0,0:0:0:0:
384,272,35682,5,0,0:0:0:0:
384,272,35829,1,0,0:0:0:0:
384,272,35976,1,0,0:0:0:0:
272,272,36564,1,0,0:0:0:0:
160,272,37152,1,0,0:0:0:0:
160,144,38035,5,0,0:0:0:0:
160,144,38182,1,0,0:0:0:0:
160,144,38329,1,0,0:0:0:0:
272,144,38917,1,0,0:0:0:0:
384,144,39505,1,0,0:0:0:0:
384,272,40388,5,8,0:0:0:0:
336,272,40682,1,8,0:0:0:0:
288,272,40976,1,8,0:0:0:0:
240,272,41270,1,8,0:0:0:0:
192,80,47447,5,0,0:0:0:0:
192,80,47594,1,0,0:0:0:0:
192,80,47741,1,0,0:0:0:0:
304,80,48329,1,0,0:0:0:0:
304,144,48623,1,0,0:0:0:0:
304,208,48917,1,0,0:0:0:0:
304,320,49505,6,0,B|176:320|176:304|176:192,3,190,2|0|2|0,0:0|0:0|0:0|0:0,0:0:0:0:
176,112,51858,5,4,0:0:0:0:
256,112,52152,1,0,0:0:0:0:
256,112,52300,1,0,0:0:0:0:
256,112,52447,1,0,0:0:0:0:
368,112,53035,1,8,0:0:0:0:
368,176,53329,1,0,0:0:0:0:
368,208,53476,1,8,0:0:0:0:
368,304,54211,5,0,0:0:0:0:
288,304,54505,1,0,0:0:0:0:
288,304,54652,1,0,0:0:0:0:
288,304,54800,1,0,0:0:0:0:
176,304,55388,1,8,0:0:0:0:
176,240,55682,1,0,0:0:0:0:
176,208,55829,1,8,0:0:0:0:
176,80,56711,5,0,0:0:0:0:
208,80,56858,1,8,0:0:0:0:
296,80,57300,1,0,0:0:0:0:
328,80,57447,1,8,0:0:0:0:
328,168,57888,5,0,0:0:0:0:
296,168,58035,1,8,0:0:0:0:
264,168,58182,1,0,0:0:0:0:
200,168,58476,1,0,0:0:0:0:
168,168,58623,1,8,0:0:0:0:
136,168,58770,1,0,0:0:0:0:
152,80,60094,6,2,P|248:32|296:112,2,190
152,136,61564,1,2,0:0:0:0:
208,136,61858,1,2,0:0:0:0:
264,136,62152,1,6,0:0:0:0:
264,248,62741,5,0,0:0:0:0:
320,248,63035,1,0,0:0:0:0:
376,248,63329,1,0,0:0:0:0:
432,248,63623,1,0,0:0:0:0:
488,248,63917,1,8,0:0:0:0:
488,216,64064,1,8,0:0:0:0:
488,184,64211,1,8,0:0:0:0:
488,152,64358,1,8,0:0:0:0:
344,144,65094,5,0,0:0:0:0:
288,144,65388,1,0,0:0:0:0:
232,144,65682,1,0,0:0:0:0:
176,144,65976,1,0,0:0:0:0:
120,144,66270,1,8,0:0:0:0:
120,176,66417,1,8,0:0:0:0:
120,208,66564,1,2,0:0:0:0:
288,224,67447,6,0,B|288:120|304:120|408:120,3,190
400,64,69505,1,2,0:0:0:0:
344,64,69800,1,2,0:0:0:0:
344,64,69947,1,8,0:0:0:0:
288,64,70241,1,2,0:0:0:0:
232,64,70535,1,2,0:0:0:0:
224,264,71564,5,0,0:0:0:0:
224,264,71711,1,0,0:0:0:0:
224,264,71858,2,0,L|432:264,3,190
414,264,73917,1,0,0:0:0:0:
416,152,74505,5,8,0:0:0:0:
304,152,75094,1,8,0:0:0:0:
192,152,75682,1,8,0:0:0:0:
80,152,76270,1,8,0:0:0:0:
80,152,76564,1,0,0:0:0:0:
80,152,76858,1,0,0:0:0:0:
80,152,77152,1,0,0:0:0:0:
80,264,77741,5,0,0:0:0:0:
136,264,78035,1,0,0:0:0:0:
192,264,78329,1,0,0:0:0:0:
248,264,78623,1,0,0:0:0:0:
304,264,78917,2,2,B|304:200|272:112|176:88,2,190
152,96,81270,5,12,0:0:0:0:
208,96,81564,1,0,0:0:0:0:
240,96,81711,1,8,0:0:0:0:
240,152,82005,1,0,0:0:0:0:
208,152,82152,1,8,0:0:0:0:
152,152,82447,5,8,0:0:0:0:
152,208,82741,1,0,0:0:0:0:
184,208,82888,1,8,0:0:0:0:
240,208,83182,1,0,0:0:0:0:
272,208,83329,1,8,0:0:0:0:
328,208,83623,5,8,0:0:0:0:
328,152,83917,1,0,0:0:0:0:
328,120,84064,1,8,0:0:0:0:
384,120,84358,1,0,0:0:0:0:
384,152,84505,1,8,0:0:0:0:
384,208,84800,5,8,0:0:0:0:
384,264,85094,1,8,0:0:0:0:
384,320,85388,1,8,0:0:0:0:
272,328,85976,5,8,0:0:0:0:
216,328,86270,1,0,0:0:0:0:
184,328,86417,1,8,0:0:0:0:
184,272,86711,1,0,0:0:0:0:
216,272,86858,1,0,0:0:0:0:
216,216,87152,5,0,0:0:0:0:
216,104,87741,1,0,0:0:0:0:
328,104,88329,1,8,0:0:0:0:
328,160,88623,1,0,0:0:0:0:
328,192,88770,1,8,0:0:0:0:
384,192,89064,1,0,0:0:0:0:
384,160,89211,1,12,0:0:0:0:
192,120,90976,5,0,0:0:0:0:
224,120,91123,1,0,0:0:0:0:
256,120,91270,1,0,0:0:0:0:
288,120,91417,1,0,0:0:0:0:
376,120,91858,2,2,L|376:320,1,190,0|0,0:0|0:0,0:0:0:0:
288,312,93329,5,0,0:0:0:0:
256,312,93476,1,0,0:0:0:0:
224,312,93623,1,0,0:0:0:0:
192,312,93770,1,0,0:0:0:0:
192,224,94211,1,2,0:0:0:0:
192,168,94505,1,0,0:0:0:0:
192,136,94652,1,2,0:0:0:0:
392,104,95682,5,0,0:0:0:0:
392,136,95829,1,0,0:0:0:0:
392,168,95976,1,0,0:0:0:0:
392,200,96123,1,0,0:0:0:0:
392,232,96270,1,0,0:0:0:0:
392,264,96417,1,0,0:0:0:0:
392,296,96564,1,0,0:0:0:0:
336,296,96858,1,0,0:0:0:0:
304,296,97005,1,0,0:0:0:0:
104,296,98035,6,2,P|96:184|136:112,3,190
248,128,100388,5,0,0:0:0:0:
248,128,100535,1,0,0:0:0:0:
248,128,100682,1,0,0:0:0:0:
248,128,100829,1,0,0:0:0:0:
248,128,100976,1,0,0:0:0:0:
248,128,101123,1,0,0:0:0:0:
248,128,101270,2,2,P|328:264|376:96,1,380
352,128,102741,5,0,0:0:0:0:
296,128,103035,1,0,0:0:0:0:
240,128,103329,1,0,0:0:0:0:
184,128,103623,1,0,0:0:0:0:
72,128,104211,1,0,0:0:0:0:
72,296,105094,6,2,B|296:280|360:208|400:88|176:72,2,475
64,272,108182,1,2,0:0:0:0:
64,240,108329,1,2,0:0:0:0:
352,104,109800,5,0,0:0:0:0:
328,152,110094,1,0,0:0:0:0:
304,200,110388,1,0,0:0:0:0:
272,248,110682,1,0,0:0:0:0:
216,248,110976,1,8,0:0:0:0:
216,248,111123,1,8,0:0:0:0:
112,80,112152,5,0,0:0:0:0:
152,120,112447,1,0,0:0:0:0:
192,160,112741,1,0,0:0:0:0:
232,200,113035,1,0,0:0:0:0:
288,200,113329,1,8,0:0:0:0:
288,200,113476,1,8,0:0:0:0:
208,160,114358,5,0,0:0:0:0:
208,160,114505,1,4,0:0:0:0:
296,168,114947,5,0,0:0:0:0:
296,168,115094,1,4,0:0:0:0:
296,256,115535,5,0,0:0:0:0:
296,256,115682,1,4,0:0:0:0:
296,256,115829,1,0,0:0:0:0:
240,256,116123,5,0,0:0:0:0:
240,256,116270,1,4,0:0:0:0:
240,256,116417,1,0,0:0:0:0:
208,120,116858,5,0,0:0:0:0:
320,120,117447,1,0,0:0:0:0:
320,176,117741,6,2,B|320:280|288:280|192:280,1,190
144,184,118917,2,0,L|144:88,3,95,0|0|2|0,0:0|0:0|0:0|0:0,0:0:0:0:
184,112,141564,5,8,0:0:0:0:
240,112,141858,1,8,0:0:0:0:
296,112,142152,1,8,0:0:0:0:
352,112,142447,1,8,0:0:0:0:
352,168,142741,1,0,0:0:0:0:
352,200,142888,1,0,0:0:0:0:
352,232,143035,1,8,0:0:0:0:
352,264,143182,1,0,0:0:0:0:
208,272,143917,5,8,0:0:0:0:
208,216,144211,1,8,0:0:0:0:
208,160,144505,1,8,0:0:0:0:
208,104,144800,1,8,0:0:0:0:
264,104,145094,1,0,0:0:0:0:
296,104,145241,1,8,0:0:0:0:
328,104,145388,1,0,0:0:0:0:
352,272,146270,5,0,0:0:0:0:
296,272,146564,1,0,0:0:0:0:
240,272,146858,1,0,0:0:0:0:
184,272,147152,1,0,0:0:0:0:
208,216,147447,1,0,0:0:0:0:
264,216,147741,1,0,0:0:0:0:
320,216,148035,1,0,0:0:0:0:
376,216,148329,5,8,0:0:0:0:
376,160,148623,1,0,0:0:0:0:
376,128,148770,1,8,0:0:0:0:
320,128,149064,1,0,0:0:0:0:
264,128,149358,1,12,0:0:0:0:
64,128,150241,5,0,0:0:0:0:
64,160,150388,1,0,0:0:0:0:
64,192,150535,1,0,0:0:0:0:
64,224,150682,2,2,B|56:336|280:336|416:272,1,380
400,224,152152,1,2,0:0:0:0:
376,176,152447,1,2,0:0:0:0:
320,176,152741,2,2,P|320:88|232:48,4,190,0|0|0|2|2,0:0|0:0|0:0|0:0|0:0,0:0:0:0:
288,224,155388,5,8,0:0:0:0:
232,224,155682,1,8,0:0:0:0:
176,224,155976,1,8,0:0:0:0:
120,224,156270,1,8,0:0:0:0:
64,224,156564,1,8,0:0:0:0:
64,168,156858,1,8,0:0:0:0:
64,112,157152,2,8,L|176:112,1,95,12|8,0:0|0:0,0:0:0:0:
448,120,158917,6,2,P|360:288|176:248,1,380
168,216,160388,1,0,0:0:0:0:
168,160,160682,1,0,0:0:0:0:
168,104,160976,1,0,0:0:0:0:
256,192,161270,12,0,162152,0:0:0:0:
328,96,162741,5,0,0:0:0:0:
328,152,163035,1,0,0:0:0:0:
328,208,163329,1,0,0:0:0:0:
272,208,163623,2,0,B|248:168|232:48|280:8,2,190
248,264,165094,5,0,0:0:0:0:
288,304,165388,1,0,0:0:0:0:
328,264,165682,1,0,0:0:0:0:
368,304,165976,1,0,0:0:0:0:
408,264,166270,1,0,0:0:0:0:
408,208,166564,1,0,0:0:0:0:
408,152,166858,1,0,0:0:0:0:
352,152,167152,5,8,0:0:0:0:
296,152,167447,1,0,0:0:0:0:
296,184,167594,1,8,0:0:0:0:
240,184,167888,1,0,0:0:0:0:
184,184,168182,1,8,0:0:0:0:
184,64,169064,5,0,0:0:0:0:
184,64,169211,1,0,0:0:0:0:
184,64,169358,1,0,0:0:0:0:
184,64,169505,2,2,L|408:64,3,190,0|0|2|0,0:0|0:0|0:0|0:0,0:0:0:0:
360,120,171564,6,0,P|256:120|160:168,4,190,8|0|0|0|0,0:0|0:0|0:0|0:0|0:0,0:0:0:0:
352,176,174211,1,0,0:0:0:0:
352,232,174505,1,0,0:0:0:0:
296,232,174800,1,0,0:0:0:0:
296,176,175094,1,0,0:0:0:0:
240,176,175388,1,0,0:0:0:0:
240,232,175682,1,0,0:0:0:0:
256,192,175976,12,0,178917,0:0:0:0:
