osu file format v12

[General]
AudioFilename: Your Best Friend.mp3
AudioLeadIn: 0
PreviewTime: 68483
Countdown: 0
SampleSet: Soft
StackLeniency: 0.7
Mode: 0
LetterboxInBreaks: 0

[Editor]
Bookmarks: 1137,10932,30524,50116,89300,108892,118688,128483,148075,167667,187259,206851,226443,246034,258279,268075,287667,307259,326851,336647,346749
DistanceSpacing: 0.9
BeatDivisor: 4
GridSize: 4

[Metadata]
Title:Your Best Friend
TitleUnicode:Your Best Friend
Artist:Kuraki Mai
ArtistUnicode:倉木 麻衣
Creator:Hinsvar
Version:Together
Source:Detective Conan
Tags:40th ending ed40 Xinely collab collaboration 37th single Northern Music J-Pop JPop Giorgio Cancemi 13 Case Closed Meitantei 名探偵コナン 倉木麻衣
BeatmapID:189923
BeatmapSetID:64564

[Difficulty]
HPDrainRate:6
CircleSize:4
OverallDifficulty:6
ApproachRate:7
SliderMultiplier:2
SliderTickRate:2

[Events]
//Background and Video events
0,0,"together.jpg",0,0
//Break Periods
2,118888,126665
2,248486,256461
//Storyboard Layer 0 (Background)
//Storyboard Layer 1 (Fail)
//Storyboard Layer 2 (Pass)
//Storyboard Layer 3 (Foreground)
Sprite,Foreground,Centre,"Hinsvar.png",197,119 S,0,9688,,0.8 F,0,9688,10912,0,1 F,0,28055,29280,1,0 F,0,48872,50096,0,1 F,0,67239,68463,1,0 F,0,88055,89280,0,1 F,0,106423,107647,1,0 F,0,127239,128463,0,1 F,0,145606,146831,1,0 F,0,166423,167647,0,1 F,0,184790,186014,1,0 F,0,205606,206831,0,1 F,0,223974,225198,1,0 F,0,257035,258259,0,1 F,0,265606,266831,1,0 F,0,286423,287647,0,1 F,0,304790,306014,1,0 F,0,325606,326831,0,1 F,0,334178,335402,1,0
Sprite,Foreground,Centre,"Xinely.png",467,401 S,0,9688,,0.8 F,0,29280,30504,0,1 F,0,47647,48872,1,0 F,0,68463,69688,0,1 F,0,86831,88055,1,0 F,0,107647,108872,0,1 F,0,117443,118668,1,0 F,0,146831,148055,0,1 F,0,165198,166423,1,0 F,0,186014,187239,0,1 F,0,204382,205606,1,0 F,0,225198,226423,0,1 F,0,242341,243565,1,0 F,0,266831,268055,0,1 F,0,282749,284586,1,0 F,0,306014,307239,0,1 F,0,324382,325606,1,0 F,0,335402,336627,0,1 F,0,343974,345198,1,0
//Storyboard Sound Samples
//Background Colour Transformations
3,100,255,255,255
3,100,255,255,255

[TimingPoints]
1137,612.244897959184,4,2,1,30,1,0
43381,-100,4,2,2,30,0,0
43534,-100,4,2,1,30,0,0
48279,-100,4,2,2,30,0,0
48432,-100,4,2,1,30,0,0
68483,-100,4,2,1,50,0,0
69708,-100,4,2,1,60,0,1
88381,-100,4,2,1,60,0,0
89300,-100,4,2,1,60,0,1
108892,-100,4,2,1,45,0,0
109504,-100,4,2,2,45,0,0
109657,-100,4,2,1,45,0,0
113177,-100,4,2,2,45,0,0
113330,-100,4,2,1,45,0,0
160932,-100,4,2,2,45,0,0
161085,-100,4,2,1,45,0,0
163381,-100,4,2,2,45,0,0
163534,-100,4,2,1,45,0,0
187259,-100,4,2,1,60,0,1
205932,-100,4,2,1,60,0,0
206851,-100,4,2,1,60,0,1
226443,-100,4,2,1,45,0,0
246034,-100,4,2,1,5,0,0
257361,-100,4,2,1,55,0,0
265014,-100,4,2,2,55,0,0
265167,-100,4,2,1,55,0,0
286749,-133.333333333333,4,2,1,45,0,0
287667,-100,4,2,1,70,0,1
307259,-100,4,2,1,55,0,0
317667,-100,4,2,2,55,0,0
317820,-100,4,2,1,55,0,0
326851,-133.333333333333,4,2,1,30,0,0
346749,-133.333333333333,4,2,1,30,0,1
346902,-133.333333333333,4,2,1,30,0,0

[Colours]
Combo1 : 255,206,206
Combo2 : 255,74,165
Combo3 : 255,255,130
Combo4 : 199,115,22

[HitObjects]
76,312,10014,1,0,0:0:0:0:
76,312,10320,2,0,P|168:324|196:236,1,200,2|2,0:0|0:0,0:0:0:0:
152,148,11239,1,0,0:0:0:0:
192,56,11545,1,0,0:0:0:0:
292,40,11851,1,2,0:0:0:0:
368,104,12157,6,0,B|376:176|320:224|320:224|296:300,1,200,2|0,0:0|0:0,0:0:0:0:
212,332,13075,1,0,0:0:0:0:
188,340,13228,1,0,0:0:0:0:
164,340,13381,2,0,B|128:304|144:204|104:144,1,200,2|0,0:0|0:0,0:0:0:0:
64,60,14300,1,0,0:0:0:0:
64,60,14606,2,0,P|112:40|168:48,1,100,2|0,0:0|0:0,0:0:0:0:
352,124,15218,2,0,P|304:144|248:136,1,100,2|2,0:0|0:0,0:0:0:0:
236,128,15677,1,0,0:0:0:0:
216,116,15830,6,0,B|208:168|208:168|152:224|184:304,1,200,2|0,0:0|0:0,0:0:0:0:
276,344,16749,1,2,0:0:0:0:
300,340,16902,1,0,0:0:0:0:
324,336,17055,2,0,B|360:276|436:268|436:268|428:204,1,200,2|0,0:0|0:0,0:0:0:0:
400,108,17973,2,0,L|360:76,1,50
340,64,18279,6,0,B|316:160|316:160|216:184,1,200,2|0,0:0|0:0,0:0:0:0:
64,184,19198,2,0,L|84:80,1,100,2|2,0:0|0:0,0:0:0:0:
144,236,19810,2,0,L|124:340,1,100,0|2,0:0|0:0,0:0:0:0:
224,348,20422,1,2,0:0:0:0:
224,348,20575,1,0,0:0:0:0:
224,348,20728,6,0,P|308:308|300:212,1,200,2|0,0:0|0:0,0:0:0:0:
204,184,21647,2,0,P|156:196|112:176,1,100,0|2,0:0|0:0,0:0:0:0:
288,116,22259,2,0,P|336:128|380:108,1,100,0|0,0:0|0:0,0:0:0:0:
456,36,22871,1,0,0:0:0:0:
464,60,23024,1,0,0:0:0:0:
464,84,23177,6,0,L|424:280,1,200,2|0,0:0|0:0,0:0:0:0:
336,332,24096,1,2,0:0:0:0:
248,284,24402,1,2,0:0:0:0:
248,284,24708,2,0,L|144:264,1,100,0|2,0:0|0:0,0:0:0:0:
304,200,25320,2,0,L|408:220,1,100,2|2,0:0|0:0,0:0:0:0:
402,218,26239,5,0,0:0:0:0:
488,168,26545,1,2,0:0:0:0:
402,218,26851,2,0,B|376:160|296:168|296:168|248:104,1,200,2|0,0:0|0:0,0:0:0:0:
160,80,27769,1,0,0:0:0:0:
136,88,27922,1,0,0:0:0:0:
112,96,28075,6,0,B|56:180|56:180|104:272,1,200,2|0,0:0|0:0,0:0:0:0:
160,348,28994,1,2,0:0:0:0:
199,251,29300,2,0,L|192:152,1,100
320,120,29912,2,0,L|312:224,1,100,8|0,0:0|0:0,0:0:0:0:
284,316,30524,6,0,P|356:320|396:264,1,100,6|0,0:0|0:0,0:0:0:0:
456,244,31137,1,8,0:0:0:0:
400,164,31443,1,0,0:0:0:0:
348,80,31749,2,0,L|236:80,1,100,2|0,0:0|0:0,0:0:0:0:
148,96,32361,1,8,0:0:0:0:
68,156,32667,1,0,0:0:0:0:
148,216,32973,6,0,P|118:279|214:287,1,200,2|8,0:0|0:0,0:0:0:0:
308,264,33892,1,0,0:0:0:0:
328,276,34045,1,0,0:0:0:0:
352,288,34198,1,2,0:0:0:0:
452,276,34504,2,0,L|452:168,1,100,8|8,0:0|0:0,0:0:0:0:
452,152,34963,1,0,0:0:0:0:
452,128,35116,1,0,0:0:0:0:
368,180,35422,5,0,0:0:0:0:
340,84,35728,2,0,P|337:79|252:56,1,100,2|8,0:0|0:0,0:0:0:0:
156,40,36341,1,0,0:0:0:0:
64,80,36647,1,2,0:0:0:0:
96,176,36953,2,0,P|44:184|-4:156,2,100,0|8|0,0:0|0:0|0:0,0:0:0:0:
192,148,37871,5,2,0:0:0:0:
252,228,38177,1,0,0:0:0:0:
332,168,38483,2,0,P|376:169|420:137,1,100,8|0,0:0|0:0,0:0:0:0:
424,112,38943,2,0,L|408:48,1,50,0|0,0:0|0:0,0:0:0:0:
316,40,39402,1,0,0:0:0:0:
216,40,39708,1,8,0:0:0:0:
128,84,40014,2,0,P|128:136|160:184,1,100,8|2,0:0|0:0,0:0:0:0:
212,256,40626,5,0,0:0:0:0:
308,236,40932,1,8,0:0:0:0:
364,152,41239,2,0,P|440:112|452:216,1,200,2|0,0:0|0:0,0:0:0:0:
448,296,42157,2,0,P|404:328|340:324,1,100,8|2,0:0|0:0,0:0:0:0:
304,248,42769,5,0,0:0:0:0:
240,320,43075,2,0,P|128:328|80:264,1,200
160,160,43994,1,2,0:0:0:0:
235,225,44300,1,2,0:0:0:0:
140,261,44606,1,8,0:0:0:0:
48,80,45218,6,0,P|168:124|152:172,1,200,2|8,0:0|0:0,0:0:0:0:
140,260,46137,1,0,0:0:0:0:
140,260,46443,2,0,L|260:308,1,100,2|0,0:0|0:0,0:0:0:0:
328,324,47055,1,8,0:0:0:0:
412,268,47361,1,0,0:0:0:0:
412,268,47514,1,0,0:0:0:0:
412,268,47667,6,0,P|428:172|264:84,1,300,2|2,0:0|0:0,0:0:0:0:
306,203,48892,1,2,0:0:0:0:
180,202,49198,2,0,L|80:204,2,100,0|8|2,0:0|0:0|0:0,0:0:0:0:
252,276,50116,6,0,B|160:352|60:292,1,200,2|8,0:0|0:0,0:0:0:0:
40,200,51034,1,0,0:0:0:0:
68,104,51341,1,2,0:0:0:0:
132,180,51647,1,0,0:0:0:0:
132,180,51953,2,0,L|240:192,1,100,8|0,0:0|0:0,0:0:0:0:
432,304,52565,6,0,L|228:284,1,200,2|8,0:0|0:0,0:0:0:0:
288,200,53483,1,2,0:0:0:0:
260,104,53790,2,0,L|464:124,1,200,2|8,0:0|0:0,0:0:0:0:
412,212,54708,1,2,0:0:0:0:
400,240,54861,1,0,0:0:0:0:
388,268,55014,6,0,P|312:312|280:224,2,200,2|8|2,0:0|0:0|0:0,0:0:0:0:
372,164,56545,1,0,0:0:0:0:
284,120,56851,1,8,0:0:0:0:
188,152,57157,2,0,L|136:168,1,50
116,172,57463,6,0,B|124:224|124:224|168:252,1,100,2|0,0:0|0:0,0:0:0:0:
188,260,57922,1,0,0:0:0:0:
212,272,58075,1,8,0:0:0:0:
364,268,58381,5,2,0:0:0:0:
384,224,58534,1,0,0:0:0:0:
404,180,58688,1,2,0:0:0:0:
424,136,58841,1,0,0:0:0:0:
444,92,58994,2,0,L|392:92,1,50,0|0,0:0|0:0,0:0:0:0:
368,48,59300,6,0,L|264:48,2,100,8|0|2,0:0|0:0|0:0,0:0:0:0:
296,120,60218,2,0,L|196:120,1,100,0|8,0:0|0:0,0:0:0:0:
376,120,60830,2,0,L|476:120,1,100,0|2,0:0|0:0,0:0:0:0:
488,220,61443,2,0,L|460:268,1,50
424,300,61749,6,0,B|364:312|364:312|368:232|296:200,1,200,8|2,0:0|0:0,0:0:0:0:
256,304,62667,1,0,0:0:0:0:
88,300,62973,2,0,B|148:312|148:312|144:232|216:200,1,200,8|2,0:0|0:0,0:0:0:0:
256,172,63739,2,0,L|256:120,1,50
344,76,64198,1,8,0:0:0:0:
168,76,64504,1,2,0:0:0:0:
344,76,64810,5,2,0:0:0:0:
344,76,65422,2,0,L|344:176,1,100,8|0,0:0|0:0,0:0:0:0:
336,200,65881,1,0,0:0:0:0:
324,224,66034,2,0,B|256:300|256:300|172:244,1,200,2|8,0:0|0:0,0:0:0:0:
148,204,66800,2,0,L|128:152,2,50
196,204,67259,6,0,P|244:204|264:160,1,100,2|0,0:0|0:0,0:0:0:0:
264,161,67718,2,0,P|300:224|364:204,1,150,2|0,0:0|0:0,0:0:0:0:
396,168,68330,1,0,3:0:0:0:
444,172,68483,5,8,0:0:0:0:
488,196,68637,1,0,0:0:0:0:
504,244,68790,1,8,0:0:0:0:
492,292,68943,1,0,0:0:0:0:
452,324,69096,2,0,P|428:336|400:328,1,50,8|0,0:0|0:0,0:0:0:0:
356,328,69402,2,0,P|332:340|304:332,1,50,8|0,0:0|0:0,0:0:0:0:
260,344,69708,5,4,0:0:0:0:
184,280,70014,1,0,0:0:0:0:
36,268,70320,1,8,0:0:0:0:
164,192,70626,1,2,0:0:0:0:
104,336,70932,1,2,0:0:0:0:
72,184,71239,1,0,0:0:0:0:
92,92,71545,2,0,P|132:68|188:76,1,100,8|0,0:0|0:0,0:0:0:0:
204,84,72004,1,0,0:0:0:0:
224,96,72157,5,6,0:0:0:0:
304,152,72463,1,0,0:0:0:0:
316,172,72616,1,0,0:0:0:0:
328,192,72769,1,8,0:0:0:0:
316,212,72922,1,0,0:0:0:0:
304,232,73075,2,0,L|248:232,2,50,2|0|2,0:0|0:0|0:0,0:0:0:0:
248,316,73688,1,0,0:0:0:0:
176,161,73994,6,0,B|145:109|150:64|150:64|112:99|24:121,2,200,8|6|8,0:0|0:0|0:0,0:0:0:0:
155,258,75524,1,0,0:0:0:0:
176,272,75677,1,0,0:0:0:0:
196,284,75830,1,2,0:0:0:0:
292,316,76137,1,0,0:0:0:0:
392,332,76443,2,0,P|408:280|392:220,1,100,8|0,0:0|0:0,0:0:0:0:
352,148,77055,6,0,P|312:165|256:161,1,100,6|0,0:0|0:0,0:0:0:0:
164,116,77667,1,8,0:0:0:0:
144,132,77820,1,0,0:0:0:0:
124,148,77973,1,2,0:0:0:0:
104,164,78126,1,0,0:0:0:0:
84,180,78279,1,2,0:0:0:0:
48,272,78585,2,0,L|-8:288,2,50,0|0|8,0:0|0:0|0:0,0:0:0:0:
144,308,79198,2,0,P|188:292|264:292,1,100,0|6,0:0|0:0,0:0:0:0:
328,336,79810,6,0,P|372:344|428:332,1,100,0|8,0:0|0:0,0:0:0:0:
468,244,80422,2,0,P|472:196|440:136,1,100,0|2,0:0|0:0,0:0:0:0:
384,72,81034,1,0,0:0:0:0:
360,80,81188,1,0,0:0:0:0:
336,72,81341,1,8,0:0:0:0:
236,60,81647,1,0,0:0:0:0:
136,60,81953,6,0,P|88:84|92:148,1,100,6|0,0:0|0:0,0:0:0:0:
180,140,82565,2,0,P|187:182|235:206,1,100,8|0,0:0|0:0,0:0:0:0:
236,304,83177,1,2,0:0:0:0:
64,312,83483,2,0,P|112:328|176:304,1,100,0|8,0:0|0:0,0:0:0:0:
360,328,84096,2,0,P|356:280|316:224,1,100,0|6,0:0|0:0,0:0:0:0:
384,152,84708,5,0,0:0:0:0:
360,152,84861,1,0,0:0:0:0:
336,152,85014,1,8,0:0:0:0:
256,92,85320,1,0,0:0:0:0:
176,152,85626,2,0,P|102:76|193:42,2,200,2|8|6,0:0|0:0|0:0,0:3:0:0:
168,252,87157,5,0,0:0:0:0:
168,252,87310,1,0,0:0:0:0:
168,252,87463,1,8,0:0:0:0:
232,328,87769,2,0,L|336:272,1,100,2|2,0:0|0:0,0:0:0:0:
368,192,88381,2,0,L|496:192,2,100,0|8|2,0:0|0:0|0:0,0:0:0:0:
296,120,89300,6,0,P|248:124|228:168,1,100,6|0,0:0|0:0,0:0:0:0:
232,192,89759,1,0,0:0:0:0:
240,216,89912,1,8,0:0:0:0:
140,232,90218,6,0,P|92:232|56:272,1,100,0|2,0:0|0:0,0:0:0:0:
192,332,90830,2,0,P|240:332|276:292,1,100,0|8,0:0|0:0,0:0:0:0:
388,352,91443,1,0,0:0:0:0:
364,360,91596,1,0,0:0:0:0:
340,364,91749,6,0,P|272:300|312:216,1,200,6|8,0:0|0:0,0:0:0:0:
408,180,92667,1,2,0:0:0:0:
404,156,92820,1,0,0:0:0:0:
400,132,92973,2,0,L|304:100,1,100,2|0,0:0|0:0,0:0:0:0:
112,132,93585,2,0,L|208:100,1,100,8|0,0:0|0:0,0:0:0:0:
232,92,94045,1,0,0:0:0:0:
256,88,94198,6,0,B|272:136|272:136|256:184,2,100,6|0|8,0:0|0:0|0:0,0:0:0:0:
172,32,95116,1,0,0:0:0:0:
92,92,95422,2,0,P|72:188|152:248,1,200,2|8,0:0|0:0,0:0:0:0:
224,308,96341,1,0,0:0:0:0:
224,308,96494,1,0,0:0:0:0:
224,308,96647,6,0,P|244:212|164:152,1,200,6|8,0:0|0:0,0:0:0:0:
76,136,97565,1,2,0:0:0:0:
76,136,97718,1,0,0:0:0:0:
76,136,97871,1,2,0:0:0:0:
196,144,98177,5,0,0:0:0:0:
76,136,98483,1,8,0:0:0:0:
256,228,98790,1,0,0:0:0:0:
256,228,98943,1,0,0:0:0:0:
256,228,99096,6,0,P|300:204|352:208,1,100,6|0,0:0|0:0,0:0:0:0:
324,304,99708,2,0,P|280:328|228:324,1,100,8|0,0:0|0:0,0:0:0:0:
212,312,100167,1,0,0:0:0:0:
196,296,100320,2,0,B|124:320|124:320|136:252|84:208,1,200,2|8,0:0|0:0,0:0:0:0:
24,48,101239,1,0,0:0:0:0:
192,60,101545,5,6,0:0:0:0:
192,60,101851,2,0,B|212:108|212:108|188:152,1,100,0|8,0:0|0:0,0:0:0:0:
320,324,102463,2,0,B|300:276|300:276|324:232,1,100,0|2,0:0|0:0,0:0:0:0:
336,212,102922,1,0,0:0:0:0:
348,192,103075,2,0,L|312:96,2,100,0|10|0,0:0|0:0|0:0,0:0:0:0:
132,252,103994,5,6,0:0:0:0:
120,264,104300,1,0,0:0:0:0:
112,272,104606,2,0,L|212:272,1,100,8|0,0:0|0:0,0:0:0:0:
380,252,105218,5,6,0:0:0:0:
392,264,105524,1,0,0:0:0:0:
400,272,105830,2,0,L|300:272,1,100,8|0,0:0|0:0,0:0:0:0:
180,112,106443,6,2,P|256:168|332:112,1,200,6|10,0:0|0:0,0:0:0:0:
256,44,107361,1,0,0:0:0:0:
256,44,107514,1,0,0:0:0:0:
256,44,107667,1,2,0:0:0:0:
256,44,107820,1,0,0:0:0:0:
256,44,107973,1,0,0:0:0:0:
256,144,108279,6,0,L|256:200,1,50,8|0,0:0|0:0,0:0:0:0:
184,224,108585,2,0,L|184:174,1,50,0|0,0:0|0:0,0:0:0:0:
112,168,108892,5,2,0:0:0:0:
128,68,109198,2,0,P|220:68|164:288,1,400
84,272,110728,1,8,0:0:0:0:
160,208,111034,1,0,0:0:0:0:
184,216,111188,1,0,0:0:0:0:
208,228,111341,5,2,0:0:0:0:
280,296,111647,2,0,L|324:319,2,50,0|0|8,0:0|0:0|0:0,0:0:0:0:
280,296,112106,2,0,L|236:319,2,50,0|0|0,0:0|0:0|0:0,0:0:0:0:
280,296,112565,2,0,P|332:149|208:232,1,400,2|6,0:0|0:0,0:0:0:0:
56,292,114096,5,0,0:0:0:0:
80,292,114249,1,0,0:0:0:0:
104,292,114402,1,8,0:0:0:0:
164,212,114708,1,0,0:0:0:0:
140,212,114861,1,0,0:0:0:0:
116,212,115014,1,2,0:0:0:0:
64,128,115320,1,0,0:0:0:0:
88,128,115473,1,0,0:0:0:0:
112,128,115626,1,8,0:0:0:0:
212,132,115932,2,0,L|297:183,1,100,0|2,0:0|0:0,0:0:0:0:
364,324,116545,5,0,0:0:0:0:
340,316,116698,1,0,0:0:0:0:
316,308,116851,1,8,0:0:0:0:
292,300,117004,1,0,0:0:0:0:
268,292,117157,1,0,0:0:0:0:
244,284,117310,1,0,0:0:0:0:
220,276,117463,2,0,P|168:240|164:180,1,100,0|0,0:0|0:0,0:0:0:0:
160,108,118075,1,0,0:0:0:0:
276,48,118381,1,0,0:0:0:0:
364,144,118688,5,2,2:0:0:0:
200,260,127565,5,0,0:0:0:0:
256,176,127871,1,10,0:0:0:0:
312,260,128177,1,0,0:0:0:0:
256,340,128483,6,0,B|156:352|156:352|68:304,1,200,2|8,0:0|0:0,0:0:0:0:
36,208,129402,1,0,0:0:0:0:
132,240,129708,1,2,0:0:0:0:
36,208,130014,1,0,0:0:0:0:
112,144,130320,2,0,L|144:44,2,100,8|0|2,0:0|0:0|0:0,0:0:0:0:
60,300,131239,5,0,0:0:0:0:
60,300,131392,1,2,0:0:0:0:
256,340,131698,1,0,0:0:0:0:
256,340,131851,2,0,L|256:288,1,50,0|4,0:0|0:0,0:0:0:0:
176,96,132463,5,0,0:0:0:0:
336,96,132769,1,8,0:0:0:0:
336,96,132922,2,0,L|336:148,1,50,0|2,0:0|0:0,0:0:0:0:
324,244,133381,6,0,P|256:304|188:240,1,200,2|8,0:0|0:0,0:0:0:0:
256,168,134300,1,2,0:0:0:0:
256,144,134453,1,0,0:0:0:0:
256,120,134606,2,0,B|304:112|304:112|340:72,1,100,2|0,0:0|0:0,0:0:0:0:
256,120,135218,2,0,B|208:112|208:112|172:72,1,100,8|0,0:0|0:0,0:0:0:0:
76,80,135830,6,0,B|92:176|92:176|144:200,1,150,2|2,0:0|0:0,0:0:0:0:
188,216,136443,2,0,B|224:248|224:248|232:304,2,100,0|2|2,0:0|0:0|0:0,0:0:0:0:
256,140,137361,1,0,0:0:0:0:
340,196,137667,1,8,0:0:0:0:
256,244,137973,1,2,0:0:0:0:
232,252,138126,1,0,0:0:0:0:
208,256,138279,6,0,B|160:260|160:260|116:232,2,100,2|0|8,0:0|0:0|0:0,0:0:0:0:
244,164,139198,1,0,0:0:0:0:
328,112,139504,6,0,B|392:144|408:224|408:224|464:200,1,200,2|8,0:0|0:0,0:0:0:0:
308,208,140422,1,2,0:0:0:0:
288,308,140728,2,0,B|224:276|208:196|208:196|152:220,1,200,2|8,0:0|0:0,0:0:0:0:
80,156,141647,2,0,L|24:148,2,50,0|2|0,0:0|0:0|0:0,0:0:0:0:
104,148,142106,1,0,0:0:0:0:
128,136,142259,2,0,P|152:96|136:44,2,100,0|8|2,0:0|0:0|0:0,0:0:0:0:
228,16,143177,6,0,B|276:92|232:164|232:164|248:216,2,200,2|8|2,0:0|0:0|0:0,0:0:0:0:
328,32,144708,2,0,L|428:56,1,100,0|8,0:0|0:0,0:0:0:0:
440,156,145320,2,0,L|340:132,1,100,0|2,0:0|0:0,0:0:0:0:
260,276,145932,5,0,0:0:0:0:
260,276,146085,1,0,0:0:0:0:
260,276,146239,1,2,0:0:0:0:
420,328,146545,1,0,0:0:0:0:
420,328,146698,1,2,0:0:0:0:
420,328,146851,6,0,L|420:276,1,50,8|8,0:0|0:0,0:0:0:0:
396,268,147157,2,0,L|396:216,1,50,0|8,0:0|0:0,0:0:0:0:
416,204,147463,2,0,L|416:152,1,50,8|8,0:0|0:0,0:0:0:0:
392,144,147769,2,0,L|392:92,1,50,8|8,0:0|0:0,0:0:0:0:
348,68,148075,5,0,1:2:0:0:
248,68,148381,2,0,B|204:100|204:100|124:100,1,100,0|8,0:0|0:0,0:0:0:0:
68,56,148994,1,0,0:0:0:0:
64,80,149147,1,0,0:0:0:0:
60,104,149300,1,2,0:0:0:0:
72,204,149606,2,0,P|120:212|176:264,1,100,0|8,0:0|0:0,0:0:0:0:
228,316,150218,2,0,L|208:364,2,50,0|0|2,0:0|0:0|0:0,0:0:0:0:
328,312,150830,6,0,B|320:256|320:256|272:204|272:204,1,100,0|8,0:0|0:0,0:0:0:0:
196,196,151443,1,0,0:0:0:0:
108,152,151749,1,2,0:0:0:0:
140,56,152055,2,0,L|240:104,1,100,2|8,0:0|0:0,0:0:0:0:
264,192,152667,1,0,0:0:0:0:
312,104,152973,6,0,P|344:56|480:52,1,200,2|10,0:0|0:0,0:0:0:0:
504,144,153892,1,0,0:0:0:0:
452,228,154198,1,2,0:0:0:0:
428,232,154351,1,0,0:0:0:0:
404,236,154504,1,0,0:0:0:0:
304,256,154810,2,0,B|208:280|208:280|104:256,1,200,8|2,0:0|0:0,0:0:0:0:
60,172,155728,5,0,0:0:0:0:
84,180,155881,1,0,0:0:0:0:
108,188,156034,1,8,0:0:0:0:
136,92,156341,2,0,P|180:64|248:64,1,100,0|2,0:0|0:0,0:0:0:0:
389,183,156953,2,0,P|345:211|277:211,1,100,0|8,0:0|0:0,0:0:0:0:
452,140,157565,2,0,P|464:160|464:192,1,50
460,212,157871,6,0,P|436:284|296:304,1,200,2|8,0:0|0:0,0:0:0:0:
232,280,158790,1,0,0:0:0:0:
208,276,158943,1,0,0:0:0:0:
184,272,159096,1,2,0:0:0:0:
96,224,159402,1,0,0:0:0:0:
0,196,159708,1,8,0:0:0:0:
76,132,160014,1,0,0:0:0:0:
76,131,160320,6,0,P|144:47|236:243,1,400,2|2,0:0|0:0,0:0:0:0:
415,266,161851,2,0,P|376:292|324:296,1,100,0|8,0:0|0:0,0:0:0:0:
324,296,162463,1,0,0:0:0:0:
265,219,162769,6,0,P|161:175|33:295,1,300,2|0,0:0|0:0,0:0:0:0:
132,304,163994,2,0,L|241:305,1,100,2|0,0:0|0:0,0:0:0:0:
332,304,164606,1,8,0:0:0:0:
440,216,164912,1,0,0:0:0:0:
332,128,165218,5,2,0:0:0:0:
236,104,165524,1,0,0:0:0:0:
212,108,165677,1,0,0:0:0:0:
188,112,165830,1,8,0:0:0:0:
152,208,166137,1,2,0:0:0:0:
252,216,166443,1,0,0:0:0:0:
328,152,166749,2,0,P|372:124|388:156,2,100,0|8|0,0:0|0:0|0:0,0:0:0:0:
304,248,167667,6,0,P|248:312|204:236,2,200,2|8|2,0:0|0:0|0:0,0:0:0:0:
312,148,169198,1,0,0:0:0:0:
156,120,169504,1,8,0:0:0:0:
212,272,169810,1,0,0:0:0:0:
368,300,170116,6,0,P|416:288|444:240,1,100,2|0,0:0|0:0,0:0:0:0:
452,224,170575,1,0,0:0:0:0:
448,200,170728,1,8,0:0:0:0:
384,52,171034,6,0,L|384:104,1,50,2|0,0:0|0:0,0:0:0:0:
296,64,171341,2,0,L|296:12,1,50,2|0,0:0|0:0,0:0:0:0:
208,52,171647,2,0,L|208:152,1,100,0|8,0:0|0:0,0:0:0:0:
208,200,172106,2,0,L|208:256,2,50,0|2|0,0:0|0:0|0:0,0:0:0:0:
160,180,172565,6,0,B|104:224|104:224|96:296|168:324,2,200,2|8|2,0:0|0:0|0:0,0:0:0:0:
180,168,173943,1,0,0:0:0:0:
204,156,174096,2,0,P|252:140|304:160,2,100,0|8|0,0:0|0:0|0:0,0:0:0:0:
160,308,175014,6,0,P|112:324|60:304,1,100,2|0,0:0|0:0,0:0:0:0:
52,288,175473,1,0,0:0:0:0:
64,264,175626,2,0,L|64:212,1,50,8|0,0:0|0:0,0:0:0:0:
52,192,175932,2,0,L|52:140,1,50,2|0,0:0|0:0,0:0:0:0:
64,120,176239,2,0,L|64:68,1,50,2|0,0:0|0:0,0:0:0:0:
72,48,176545,2,0,P|121:35|173:57,2,100,0|8|2,0:0|0:0|0:0,0:0:0:0:
88,224,177463,5,2,0:0:0:0:
192,124,177769,1,0,0:0:0:0:
192,124,178075,6,0,L|204:180,1,50,8|0,0:0|0:0,0:0:0:0:
288,240,178381,2,0,L|277:191,1,50,2|0,0:0|0:0,0:0:0:0:
368,252,178688,6,0,P|452:272|400:336,1,200,10|8,0:0|0:0,0:0:0:0:
376,340,179453,2,0,L|320:348,1,50,2|0,0:0|0:0,0:0:0:0:
185,347,179912,6,0,B|228:312|228:312|192:240|256:172,2,200,2|8|2,0:0|0:0|0:0,0:0:0:0:
96,304,181443,1,0,0:0:0:0:
80,204,181749,1,8,0:0:0:0:
80,180,181902,1,0,3:0:0:0:
84,156,182055,1,2,0:0:0:0:
92,132,182208,1,0,0:0:0:0:
104,112,182361,6,0,B|160:112|192:152|192:152|296:124,1,200,2|8,0:0|0:0,0:0:0:0:
380,92,183279,1,0,0:0:0:0:
436,176,183585,2,0,L|464:224,2,50,2|0|0,0:0|0:0|0:0,0:0:0:0:
348,228,184198,1,0,0:0:0:0:
256,188,184504,2,0,L|228:236,2,50,0|0|2,0:0|0:0|0:0,0:0:0:0:
348,228,185116,5,0,0:0:0:0:
436,180,185422,1,8,0:0:0:0:
352,124,185728,2,0,P|316:92|264:88,1,100,2|2,0:0|0:0,0:0:0:0:
164,96,186341,5,0,0:0:0:0:
120,124,186494,1,0,0:0:0:0:
108,172,186647,2,0,L|132:220,1,50,8|0,0:0|0:0,0:0:0:0:
180,224,186953,2,0,L|204:272,1,50,8|0,0:0|0:0,0:0:0:0:
252,280,187259,6,0,L|360:280,1,100,4|0,0:0|0:0,0:0:0:0:
480,184,187871,2,0,L|364:184,1,100,8|0,0:0|0:0,0:0:0:0:
320,104,188483,2,0,P|288:36|176:88,1,200,2|8,0:0|0:0,0:0:0:0:
96,108,189402,2,0,L|48:128,2,50,0|0|6,0:0|0:0|0:0,0:0:0:0:
172,176,190014,5,0,0:0:0:0:
192,188,190167,1,0,0:0:0:0:
212,200,190320,1,8,0:0:0:0:
312,192,190626,1,0,0:0:0:0:
364,280,190932,1,2,0:0:0:0:
280,332,191239,2,0,B|228:320|228:320|164:332,1,100,0|8,0:0|0:0,0:0:0:0:
32,248,191851,2,0,B|77:256|77:256|129:244,1,100,0|6,0:0|0:0,0:0:0:0:
184,160,192463,5,0,0:0:0:0:
204,148,192616,1,0,0:0:0:0:
228,136,192769,1,8,0:0:0:0:
328,136,193075,2,0,L|264:228,1,100,0|2,0:0|0:0,0:0:0:0:
276,320,193688,1,0,0:0:0:0:
376,300,193994,2,0,L|428:328,2,50,8|0|2,0:0|0:0|0:0,0:0:0:0:
376,300,194606,6,0,P|340:256|204:268,1,200,6|8,0:0|0:0,0:0:0:0:
120,216,195524,1,0,0:0:0:0:
96,212,195677,1,0,0:0:0:0:
72,200,195830,1,2,0:0:0:0:
108,104,196137,2,0,L|220:88,1,100,0|8,0:0|0:0,0:0:0:0:
364,120,196749,2,0,L|252:136,1,100,0|6,0:0|0:0,0:0:0:0:
336,204,197361,5,0,0:0:0:0:
320,224,197514,1,0,0:0:0:0:
308,244,197667,2,0,B|272:316|272:316|212:288|140:290,1,200,8|2,0:0|0:0,0:0:0:0:
60,272,198585,1,0,0:0:0:0:
136,208,198892,1,8,0:0:0:0:
208,143,199198,1,0,0:0:0:0:
292,92,199504,6,0,L|394:141,1,100,6|0,0:0|0:0,0:0:0:0:
300,196,200116,2,0,L|208:236,1,100,8|0,0:0|0:0,0:0:0:0:
120,190,200728,1,2,0:0:0:0:
76,100,201034,2,0,L|16:120,3,50,0|0|8|0,0:0|0:0|0:0|0:0,0:0:0:0:
36,140,201647,1,0,0:0:0:0:
121,190,201953,6,0,B|176:208|183:268|183:268|236:242|292:269,1,200,6|8,0:0|0:0,0:0:0:0:
456,196,203177,1,2,0:0:0:0:
64,112,203790,2,0,L|172:112,1,100,8|0,0:0|0:0,0:0:0:0:
284,204,204402,2,0,L|156:204,1,100,6|0,0:0|0:0,0:0:0:0:
68,296,205014,2,0,L|176:296,1,100,8|0,0:0|0:0,0:0:0:0:
168,297,205473,1,0,0:0:0:0:
168,297,205626,1,2,0:0:0:0:
268,300,205932,5,0,0:0:0:0:
283,204,206239,2,0,L|329:223,1,50,8|0,0:0|0:0,0:0:0:0:
368,152,206545,2,0,L|292:120,1,50,8|8,0:0|0:0,0:0:0:0:
348,56,206851,6,0,P|252:32|160:64,1,200,6|8,0:0|0:0,0:0:0:0:
108,152,207769,1,0,0:0:0:0:
140,248,208075,2,0,P|184:268|236:256,1,100,2|0,0:0|0:0,0:0:0:0:
352,120,208688,2,0,P|308:100|256:112,1,100,8|0,0:0|0:0,0:0:0:0:
244,132,209147,1,0,0:0:0:0:
240,156,209300,6,0,L|284:248,1,100,6|0,0:0|0:0,0:0:0:0:
296,268,209759,1,0,0:0:0:0:
312,288,209912,2,0,P|360:300|404:276,1,100,8|0,0:0|0:0,0:0:0:0:
412,256,210371,2,0,L|416:204,1,50,0|2,0:0|0:0,0:0:0:0:
404,108,210830,5,0,0:0:0:0:
228,68,211137,1,8,0:0:0:0:
404,108,211443,1,2,0:0:0:0:
380,112,211596,1,0,0:0:0:0:
356,116,211749,6,0,P|352:168|384:200,2,100,6|0|8,0:0|0:0|0:0,0:0:0:0:
256,36,212667,1,0,0:0:0:0:
156,116,212973,1,2,0:0:0:0:
156,116,213126,1,0,0:0:0:0:
156,116,213279,5,0,0:0:0:0:
256,276,213585,1,8,0:0:0:0:
356,116,213892,1,0,0:0:0:0:
356,116,214045,1,0,0:0:0:0:
356,116,214198,6,0,B|320:196|388:252|388:252|400:300,2,200,6|8|2,0:0|0:0|0:0,0:0:0:0:
440,168,215728,1,0,0:0:0:0:
256,116,216034,1,8,0:0:0:0:
256,116,216188,1,0,0:0:0:0:
256,116,216341,1,2,0:0:0:0:
256,116,216494,1,0,0:0:0:0:
256,116,216647,6,0,L|256:216,1,100,6|0,0:0|0:0,0:0:0:0:
68,276,217259,2,0,L|68:176,1,100,8|0,0:0|0:0,0:0:0:0:
64,152,217718,1,0,0:0:0:0:
60,128,217871,2,0,B|104:140|156:124|156:124|212:104|256:116,2,200,2|8|6,0:0|0:0|0:0,0:0:0:0:
96,352,219402,5,0,0:0:0:0:
296,332,219708,1,8,0:0:0:0:
276,132,220014,1,0,0:0:0:0:
76,152,220320,1,2,0:0:0:0:
76,152,220473,1,0,0:0:0:0:
76,152,220626,1,2,0:0:0:0:
168,272,220932,1,10,0:0:0:0:
168,272,221239,1,2,0:0:0:0:
224,132,221545,5,6,0:0:0:0:
224,132,221851,1,2,0:0:0:0:
224,132,222157,1,10,0:0:0:0:
316,276,222463,1,2,0:0:0:0:
392,124,222769,5,6,0:0:0:0:
392,124,223075,1,2,0:0:0:0:
392,124,223381,1,10,0:0:0:0:
488,300,223688,1,2,0:0:0:0:
288,292,223994,6,0,B|224:312|224:312|172:272|96:296,1,200,6|8,0:0|0:0,0:0:0:0:
48,296,224759,1,0,0:0:0:0:
24,252,224912,1,2,0:0:0:0:
44,208,225065,1,0,0:0:0:0:
92,196,225218,6,0,P|144:188|168:148,1,100,2|0,0:0|0:0,0:0:0:0:
420,196,225830,1,8,0:0:0:0:
420,196,225983,1,0,0:0:0:0:
420,196,226137,2,0,P|368:188|344:148,1,100,2|6,0:0|0:0,0:0:0:0:
288,68,226749,6,0,P|232:68|180:104,1,100,0|8,0:0|0:0,0:0:0:0:
272,148,227361,2,0,P|232:187|221:249,1,100,0|2,0:0|0:0,0:0:0:0:
236,328,227973,2,0,P|276:300|352:304,1,100,0|8,0:0|0:0,0:0:0:0:
404,232,228585,1,0,0:0:0:0:
324,172,228892,5,2,0:0:0:0:
232,128,229198,2,0,P|160:88|132:108,1,100,0|8,0:0|0:0,0:0:0:0:
76,156,229810,1,2,0:0:0:0:
80,256,230116,1,2,0:0:0:0:
164,312,230422,1,0,0:0:0:0:
244,252,230728,2,0,L|296:248,2,50,8|8|0,0:0|0:0|0:0,0:0:0:0:
344,316,231341,6,0,P|288:240|372:168,1,200,2|8,0:0|0:0,0:0:0:0:
356,72,232259,2,0,P|304:68|256:92,1,100,0|2,0:0|0:0,0:0:0:0:
168,124,232871,2,0,P|200:164|256:188,1,100,0|8,0:0|0:0,0:0:0:0:
340,156,233483,2,0,P|368:160|400:148,2,50,0|0|8,0:0|0:0|0:0,0:0:0:0:
416,264,234096,6,0,P|380:268|320:248,1,100,0|8,0:0|0:0,0:0:0:0:
296,244,234555,2,0,L|245:261,1,50,0|8,0:0|0:0,0:0:0:0:
224,264,234861,2,0,L|164:232,1,50,0|2,0:0|0:0,0:0:0:0:
160,228,235167,1,8,0:0:0:0:
136,216,235320,1,0,0:0:0:0:
36,104,235626,2,0,L|140:132,1,100,8|2,0:0|0:0,0:0:0:0:
224,88,236239,5,2,0:0:0:0:
324,88,236545,1,0,0:0:0:0:
324,88,236851,1,8,0:0:0:0:
324,88,237157,1,0,0:0:0:0:
412,140,237463,2,0,B|372:196|300:192|300:192|256:300,1,200,2|8,0:0|0:0,0:0:0:0:
196,312,238381,5,0,0:0:0:0:
172,312,238534,1,0,0:0:0:0:
148,312,238688,1,2,0:0:0:0:
72,248,238994,2,0,L|152:200,1,50,0|8,0:0|0:0,0:0:0:0:
128,200,239300,2,0,L|208:224,1,50,2|0,0:0|0:0,0:0:0:0:
196,232,239606,2,0,L|292:200,1,100,0|2,0:0|0:0,0:0:0:0:
232,68,240218,6,0,P|280:88|304:132,1,100,0|8,0:0|0:0,0:0:0:0:
428,92,240830,2,0,P|423:143|389:180,1,100,0|8,0:0|0:0,0:0:0:0:
460,288,241443,2,0,P|409:300|364:278,1,100,0|8,0:0|0:0,0:0:0:0:
276,372,242055,2,0,P|248:327|255:277,1,100,0|8,0:0|0:0,0:0:0:0:
132,236,242667,2,0,P|165:196|215:187,1,100,0|8,0:0|0:0,0:0:0:0:
312,188,243279,1,0,0:0:0:0:
256,192,243585,12,0,246034,0:0:0:0:
176,80,257361,5,0,0:0:0:0:
256,140,257667,1,8,0:0:0:0:
336,80,257973,1,0,0:0:0:0:
344,104,258126,1,0,0:0:0:0:
352,128,258279,6,0,P|344:180|320:224,1,100,2|0,0:0|0:0,0:0:0:0:
256,296,258892,1,8,0:0:0:0:
190,221,259198,2,0,P|168:180|160:128,1,100,2|2,0:0|0:0,0:0:0:0:
232,60,259810,1,0,0:0:0:0:
256,68,259963,1,0,0:0:0:0:
280,60,260116,1,8,0:0:0:0:
376,84,260422,1,0,0:0:0:0:
376,84,260728,6,0,P|380:160|464:252,2,200,2|8|2,0:0|0:0|0:0,0:0:0:0:
292,28,262259,1,0,0:0:0:0:
196,64,262565,1,8,0:0:0:0:
104,28,262871,6,0,P|76:68|84:116,1,100,0|2,0:0|0:0,0:0:0:0:
148,192,263483,1,0,0:0:0:0:
104,356,263790,2,0,P|76:316|84:268,1,100,0|0,0:0|0:0,0:0:0:0:
184,264,264402,6,0,P|256:370|328:264,1,300,2|4,0:0|0:0,0:0:0:0:
183,162,265626,2,0,P|256:58|328:164,1,300,6|0,0:0|0:0,0:0:0:0:
256,232,266851,1,2,0:0:0:0:
256,60,267157,5,0,0:0:0:0:
204,144,267463,1,8,0:0:0:0:
308,144,267769,1,0,0:0:0:0:
256,232,268075,5,14,0:0:0:0:
256,232,268381,1,0,0:0:0:0:
300,248,269912,5,2,0:0:0:0:
236,328,270218,2,0,B|278:306|282:358|330:342,2,100,0|6|0,0:0|0:0|0:0,0:0:0:0:
400,272,272055,5,0,0:0:0:0:
356,184,272361,1,0,0:0:0:0:
284,116,272667,1,0,0:0:0:0:
240,204,272973,2,0,B|197:182|193:234|146:218,1,100,6|0,0:0|0:0,0:0:0:0:
148,220,274810,6,0,B|100:184|40:216,2,100,0|0|6,0:0|0:0|0:0,0:0:0:0:
92,304,275728,1,0,0:0:0:0:
92,304,276953,5,0,0:0:0:0:
188,324,277259,1,0,0:0:0:0:
280,284,277565,1,0,0:0:0:0:
292,184,277871,5,6,0:0:0:0:
236,104,278177,1,0,0:0:0:0:
141,100,278483,6,0,P|185:116|237:104,1,100,0|0,0:0|0:0,0:0:0:0:
432,172,279096,2,0,P|388:188|336:176,1,100,2|0,0:0|0:0,0:0:0:0:
140,244,279708,2,0,P|184:260|236:248,1,100,8|0,0:0|0:0,0:0:0:0:
428,320,280320,6,0,P|384:336|332:324,1,100,6|0,0:0|0:0,0:0:0:0:
136,319,280932,2,0,P|188:332|232:320,2,100,8|0|2,0:0|0:0|0:0,0:0:0:0:
160,152,281851,5,0,0:0:0:0:
248,104,282157,1,8,0:0:0:0:
336,152,282463,1,0,0:0:0:0:
380,240,282769,6,0,P|332:264|272:248,1,100,6|0,0:0|0:0,0:0:0:0:
120,236,283381,2,0,P|168:260|228:244,1,100,8|0,0:0|0:0,0:0:0:0:
248,104,283994,1,2,0:0:0:0:
256,192,284606,12,2,286443,0:0:0:0:
200,48,286749,5,0,0:0:0:0:
144,96,287055,1,0,0:0:0:0:
212,119,287361,6,0,L|220:200,1,75.0000028610231,0|4,0:0|0:0,0:0:0:0:
328,252,287973,1,0,0:0:0:0:
152,292,288279,1,8,0:0:0:0:
212,120,288585,1,0,0:0:0:0:
388,80,288892,6,0,B|376:128|336:164,2,100,2|0|8,0:0|0:0|0:0,0:0:0:0:
256,124,289810,1,0,0:0:0:0:
124,80,290116,5,6,0:0:0:0:
124,104,290269,1,0,0:0:0:0:
124,128,290422,1,0,0:0:0:0:
124,152,290575,1,0,0:0:0:0:
124,176,290728,1,8,0:0:0:0:
256,228,291034,2,0,L|256:280,2,50,0|0|2,0:0|0:0|0:0,0:0:0:0:
360,340,291647,5,0,0:0:0:0:
152,340,291953,1,8,0:0:0:0:
360,340,292259,1,0,0:0:0:0:
256,168,292565,6,0,L|256:68,1,100,6|0,0:0|0:0,0:0:0:0:
152,216,293177,2,0,L|152:316,1,100,8|0,0:0|0:0,0:0:0:0:
360,316,293790,2,0,L|360:216,1,100,2|0,0:0|0:0,0:0:0:0:
152,136,294402,1,8,0:0:0:0:
360,136,294708,1,2,0:0:0:0:
152,136,295014,6,0,P|128:184|152:220,1,100,6|0,0:0|0:0,0:0:0:0:
164,240,295473,1,2,0:0:0:0:
184,256,295626,2,0,L|236:264,1,50,8|0,0:0|0:0,0:0:0:0:
216,248,295932,2,0,L|268:240,1,50,2|0,0:0|0:0,0:0:0:0:
240,232,296239,2,0,L|288:220,1,50,2|0,0:0|0:0,0:0:0:0:
304,200,296545,2,0,B|352:212|352:212|400:188,2,100,8|8|0,0:0|0:0|0:0,0:0:0:0:
168,144,297463,6,0,B|120:132|120:132|72:156,1,100,6|0,0:0|0:0,0:0:0:0:
152,272,298075,2,0,B|200:284|200:284|248:260,1,100,8|0,0:0|0:0,0:0:0:0:
56,240,298688,6,0,L|79:338,1,100,2|0,0:0|0:0,0:0:0:0:
274,177,299300,2,0,L|252:80,1,100,8|0,0:0|0:0,0:0:0:0:
204,248,299912,5,6,0:0:0:0:
164,104,300218,1,0,0:0:0:0:
164,104,300371,1,0,0:0:0:0:
164,104,300524,1,8,0:0:0:0:
312,136,300830,1,0,0:0:0:0:
312,136,300983,2,0,L|312:188,1,50,0|2,0:0|0:0,0:0:0:0:
336,168,301290,2,0,L|336:220,1,50,0|2,0:0|0:0,0:0:0:0:
256,320,301749,5,10,0:0:0:0:
128,328,302055,1,2,0:0:0:0:
188,212,302361,1,6,0:0:0:0:
188,212,302667,1,2,0:0:0:0:
188,212,302973,5,10,0:0:0:0:
296,68,303279,1,2,0:0:0:0:
376,228,303585,1,6,0:0:0:0:
376,228,303892,1,2,0:0:0:0:
376,228,304198,5,10,0:0:0:0:
160,336,304504,1,2,0:0:0:0:
152,108,304810,6,0,L|100:120,1,50,6|0,0:0|0:0,0:0:0:0:
112,144,305116,2,0,L|60:156,1,50,2|0,0:0|0:0,0:0:0:0:
176,84,305422,6,0,L|232:72,1,50,8|0,0:0|0:0,0:0:0:0:
216,52,305728,2,0,L|272:40,1,50,2|0,0:0|0:0,0:0:0:0:
280,128,306034,6,0,B|300:184|300:184|240:236|280:312,2,200,2|8|6,0:0|0:0|0:0,0:0:0:0:
184,100,307565,6,0,P|136:124|120:184,1,100,0|8,0:0|0:0,0:0:0:0:
100,264,308177,1,0,0:0:0:0:
300,264,308483,1,2,0:0:0:0:
100,264,308790,1,0,0:0:0:0:
68,168,309096,2,0,P|96:112|252:60,1,200,8|2,0:0|0:0,0:0:0:0:
304,100,310014,5,0,0:0:0:0:
304,100,310320,1,8,0:0:0:0:
304,100,310626,1,0,0:0:0:0:
392,148,310932,2,0,P|440:152|480:220,1,100,2|0,0:0|0:0,0:0:0:0:
468,288,311545,2,0,P|424:316|360:304,1,100
280,296,312157,5,2,0:0:0:0:
188,256,312463,1,0,0:0:0:0:
104,204,312769,2,0,B|56:180|12:196|12:196|20:156|0:76,2,200,8|2|8,0:0|0:0|0:0,0:0:0:0:
192,152,314300,1,8,0:0:0:0:
192,152,314453,1,0,0:0:0:0:
192,152,314606,5,2,0:0:0:0:
244,68,314912,2,0,L|308:112,1,50,8|0,0:0|0:0,0:0:0:0:
304,112,315218,2,0,L|348:192,1,50,8|0,0:0|0:0,0:0:0:0:
336,180,315524,1,8,0:0:0:0:
426,236,315830,2,0,P|482:248|527:237,1,100,2|0,0:0|0:0,0:0:0:0:
336,180,316443,2,0,P|284:169|231:183,1,100,8|0,0:0|0:0,0:0:0:0:
144,164,317055,5,2,0:0:0:0:
48,192,317361,2,0,B|104:260|104:260|156:232|212:256,2,200,0|0|0,0:0|0:0|0:0,0:0:0:0:
88,100,318892,1,8,0:0:0:0:
108,112,319045,1,0,0:0:0:0:
128,128,319198,1,0,0:0:0:0:
220,88,319504,6,0,P|256:60|340:96,2,100,2|0|8,0:0|0:0|0:0,0:0:0:0:
248,184,320422,1,0,0:0:0:0:
440,284,320728,1,2,0:0:2:0:
416,284,320881,1,0,0:0:2:0:
392,284,321034,1,0,0:0:2:0:
360,188,321341,1,8,0:0:0:0:
384,188,321494,1,0,0:0:0:0:
408,188,321647,1,0,0:0:0:0:
448,96,321953,6,0,P|404:76|336:96,1,100,2|0,0:0|0:0,0:0:0:0:
260,116,322565,2,0,B|214:132|163:104|163:104|114:76|68:89,1,200,8|2,0:0|0:0,0:0:0:0:
44,184,323483,2,0,P|40:232|88:280,1,100,0|8,0:0|0:0,0:0:0:0:
160,316,324096,6,0,P|208:328|260:308,1,100,0|2,0:0|0:0,0:0:0:0:
436,256,324708,2,0,P|404:288|352:300,1,100,0|8,0:0|0:0,0:0:0:0:
288,220,325320,1,0,0:0:0:0:
392,116,325626,2,0,L|448:88,2,50,8|0|0,0:0|0:0|0:0,0:0:0:0:
300,152,326239,2,0,L|244:132,2,50,8|0|0,0:0|0:0|0:0,0:0:0:0:
320,164,326698,1,0,0:0:0:0:
344,176,326851,6,0,B|332:264|236:256,1,150.000005722046,2|8,0:0|0:0,0:0:0:0:
180,188,327769,1,2,0:0:0:0:
180,188,327922,1,0,0:0:0:0:
180,188,328075,6,0,P|116:164|76:224,2,150.000005722046,2|8|2,0:0|0:0|0:0,0:0:0:0:
220,268,329606,1,0,0:0:0:0:
284,332,329912,1,8,0:0:0:0:
312,248,330218,1,2,0:0:0:0:
256,176,330524,2,0,L|332:168,1,75.0000028610231,2|0,0:0|0:0,0:0:0:0:
256,176,331137,2,0,L|180:168,1,75.0000028610231,8|2,0:0|0:0,0:0:0:0:
152,164,331596,1,0,0:0:0:0:
124,160,331749,6,0,P|96:136|104:96,2,75.0000028610231,2|0|8,0:0|0:0|0:0,0:0:0:0:
184,92,332667,1,2,0:0:0:0:
212,88,332820,1,0,0:0:0:0:
240,80,332973,2,0,B|280:84|280:84|316:136|384:116,2,150.000005722046,2|8|2,0:0|0:0|0:0,0:0:0:0:
352,40,334504,5,0,0:0:0:0:
324,196,334810,1,8,0:0:0:0:
352,40,335116,1,2,0:0:0:0:
352,40,335269,1,0,0:0:0:0:
352,40,335422,2,0,L|276:40,1,75.0000028610231,2|0,0:0|0:0,0:0:0:0:
324,196,336034,2,0,L|248:188,1,75.0000028610231,8|2,0:0|0:0,0:0:0:0:
160,184,336647,6,0,L|96:184,2,37.5000014305115,0|0|2,0:0|0:0|0:0,0:0:0:0:
212,112,337259,2,0,P|268:44|308:80,2,150.000005722046,8|2|8,0:0|0:0|0:0,0:0:0:0:
392,100,339096,2,0,P|452:108|420:192,1,150.000005722046,2|8,0:0|0:0,0:0:0:0:
316,260,340320,6,0,L|353:257,2,37.5000014305115,2|0|0,0:0|0:0|0:0,0:0:0:0:
240,260,340932,2,0,L|176:256,2,37.5000014305115,8|0|8,0:0|0:0|0:0,0:0:0:0:
261,187,341545,6,0,P|231:165|195:153,1,75.0000028610231,2|0,0:0|0:0,0:0:0:0:
261,187,342157,2,0,P|365:83|389:79,1,150.000005722046,8|2,0:0|0:0,0:0:0:0:
427,118,343075,2,0,L|407:174,1,37.5000014305115
407,182,343381,1,8,0:0:0:0:
351,234,343688,2,0,P|323:266|271:294,1,75.0000028610231,0|2,0:0|0:0,0:0:0:0:
221,286,344300,6,0,P|192:288|144:272,2,75.0000028610231,0|8|0,0:0|0:0|0:0,0:0:0:0:
221,211,345218,2,0,P|161:179|213:131,1,150.000005722046,2|8,0:0|0:0,0:0:0:0:
260,92,346137,1,0,0:0:0:0:
260,292,346749,5,2,0:0:0:0:
