osu file format v12

[General]
AudioFilename: Your Best Friend.mp3
AudioLeadIn: 0
PreviewTime: 68483
Countdown: 0
SampleSet: Soft
StackLeniency: 0.7
Mode: 0
LetterboxInBreaks: 0

[Editor]
DistanceSpacing: 1.2
BeatDivisor: 4
GridSize: 4

[Metadata]
Title:Your Best Friend
TitleUnicode:Your Best Friend
Artist:Kuraki Mai
ArtistUnicode:倉木 麻衣
Creator:Hinsvar
Version:Normal
Source:Detective Conan
Tags:40th ending ed40 Xinely collab collaboration 37th single Northern Music J-Pop JPop Giorgio Cancemi 13 Case Closed Meitantei 名探偵コナン 倉木麻衣
BeatmapID:191715
BeatmapSetID:64564

[Difficulty]
HPDrainRate:4
CircleSize:3
OverallDifficulty:4
ApproachRate:5
SliderMultiplier:1.6
SliderTickRate:2

[Events]
//Background and Video events
0,0,"together.jpg",0,0
//Break Periods
2,109092,126365
2,248486,265957
//Storyboard Layer 0 (Background)
//Storyboard Layer 1 (Fail)
//Storyboard Layer 2 (Pass)
//Storyboard Layer 3 (Foreground)
//Storyboard Sound Samples
//Background Colour Transformations
3,100,255,255,255

[TimingPoints]
1137,612.244897959184,4,2,1,30,1,0
30524,-100,4,2,1,35,0,0
38483,-100,4,2,2,35,0,0
38637,-100,4,2,1,35,0,0
40932,-100,4,2,2,35,0,0
41085,-100,4,2,1,35,0,0
50116,-100,4,2,1,40,0,0
68483,-100,4,2,1,50,0,0
69708,-100,4,2,1,60,0,1
87463,-100,4,2,2,60,0,1
87616,-100,4,2,1,60,0,1
88381,-100,4,2,1,60,0,0
89300,-100,4,2,1,60,0,1
108892,-100,4,2,1,40,0,0
186034,-100,4,2,1,50,0,0
187259,-100,4,2,1,60,0,1
205932,-100,4,2,1,60,0,0
206851,-100,4,2,1,60,0,1
207463,-100,4,2,2,60,0,1
207616,-100,4,2,1,60,0,1
208688,-100,4,2,2,60,0,1
208841,-100,4,2,1,60,0,1
226443,-100,4,2,1,45,0,0
246034,-100,4,2,1,5,0,0
267157,-100,4,2,1,45,0,0
286749,-100,4,2,1,30,0,0
287667,-100,4,2,1,70,0,1
307259,-100,4,2,1,55,0,0
326851,-100,4,2,1,35,0,0
346749,-100,4,2,1,35,0,1
346902,-100,4,2,1,35,0,0

[Colours]
Combo1 : 255,206,206
Combo2 : 255,74,165
Combo3 : 255,255,130
Combo4 : 199,115,22

[HitObjects]
80,188,10014,1,0,0:0:0:0:
100,280,10320,2,0,P|172:308|244:272,1,160,2|2,0:0|0:0,0:0:0:0:
242,273,11851,1,2,0:0:0:0:
232,176,12157,2,0,P|276:112|344:148,1,160,2|0,0:0|0:0,0:0:0:0:
396,220,13075,2,0,L|404:260,2,40,0|0|2,0:0|0:0|0:0,0:0:0:0:
396,220,14300,2,0,L|420:144,1,80,2|2,0:0|0:0,0:0:0:0:
420,48,14912,2,0,P|336:84|272:64,1,160,0|2,0:0|0:0,0:0:0:0:
212,140,15830,6,0,P|220:216|156:272,1,160,2|0,0:0|0:0,0:0:0:0:
80,320,16749,2,0,L|44:352,2,40,2|0|2,0:0|0:0|0:0,0:0:0:0:
44,132,17667,2,0,P|84:68|168:32,1,160,0|2,0:0|0:0,0:0:0:0:
158,33,19198,1,2,0:0:0:0:
244,76,19504,1,2,0:0:0:0:
340,96,19810,1,0,0:0:0:0:
416,152,20116,6,0,P|452:224|416:288,1,160,2|2,0:0|0:0,0:0:0:0:
232,340,21341,2,0,L|148:360,2,80,0|0|2,0:0|0:0|0:0,0:0:0:0:
504,252,22871,1,0,0:0:0:0:
416,288,23177,2,0,P|340:284|288:208,2,160,2|0|2,0:0|0:0|0:0,0:0:0:0:
428,192,24708,2,0,P|404:116|348:56,1,160,2|2,0:0|0:0,0:0:0:0:
256,44,25626,6,0,B|224:128|128:112|128:112|88:184,1,240,2|2,0:0|0:0,0:0:0:0:
88,280,26851,2,0,P|152:328|232:316,1,160,2|0,0:0|0:0,0:0:0:0:
348,176,28075,2,0,P|320:104|248:68,1,160,2|0,0:0|0:0,0:0:0:0:
164,116,28994,1,2,0:0:0:0:
100,188,29300,2,0,P|112:264|192:272,1,160,2|8,0:0|0:0,0:0:0:0:
348,176,30524,6,0,P|336:100|256:92,1,160,2|8,0:0|0:0,0:0:0:0:
188,148,31443,1,2,0:0:0:0:
204,240,31749,2,0,P|276:276|356:264,2,160,2|2|2,0:0|0:0|0:0,0:0:0:0:
152,56,33585,2,0,L|76:88,1,80,8|2,0:0|0:0,0:0:0:0:
20,164,34198,2,0,P|32:248|92:292,1,160,2|0,0:0|0:0,0:0:0:0:
184,316,35116,1,0,0:0:0:0:
280,324,35422,6,0,B|360:328|360:328|428:272,1,160,2|8,0:0|0:0,0:0:0:0:
424,180,36341,1,2,0:0:0:0:
376,96,36647,2,0,B|296:92|296:92|228:148,1,160,2|0,0:0|0:0,0:0:0:0:
232,240,37565,1,0,0:0:0:0:
232,240,37871,2,0,B|160:248|88:140|172:64,1,240,2|2,0:0|0:0,0:0:0:0:
264,52,39096,1,2,0:0:0:0:
340,228,39708,1,0,0:0:0:0:
412,164,40014,1,2,0:0:0:0:
428,260,40320,6,0,P|344:336|220:320,1,240,2|2,0:0|0:0,0:0:0:0:
136,284,41545,2,0,P|60:184|108:92,1,240,2|2,0:0|0:0,0:0:0:0:
188,68,42769,2,0,P|224:56|256:16,2,80,2|0|10,0:0|0:0|0:0,0:0:0:0:
168,164,43688,2,0,P|232:208|316:196,2,160,2|2|0,0:0|0:0|0:0,0:0:0:0:
136,72,45218,5,2,0:0:0:0:
328,72,45830,1,8,0:0:0:0:
256,252,46443,2,0,P|336:272|408:244,2,160,2|0|2,0:0|0:0|0:0,0:0:0:0:
228,160,47973,5,2,0:0:0:0:
152,100,48279,1,8,0:0:0:0:
60,120,48585,2,0,P|40:156|44:204,1,80,2|2,0:0|0:0,0:0:0:0:
64,284,49198,2,0,P|176:316|300:296,1,240,2|2,0:0|0:0,0:0:0:0:
428,160,50728,6,0,P|448:128|448:84,2,80,8|2|2,0:0|0:0|0:0,0:0:0:0:
352,100,51647,1,0,0:0:0:0:
328,192,51953,2,0,B|340:252|300:284|300:284|240:292,1,160,2|2,0:0|0:0,0:0:0:0:
68,208,53177,2,0,B|56:148|96:116|96:116|156:108,1,160,8|2,0:0|0:0,0:0:0:0:
248,96,54096,2,0,P|288:100|308:136,2,80,0|2|2,0:0|0:0|0:0,0:0:0:0:
208,184,55014,6,0,P|196:264|140:320,2,160,2|8|2,0:0|0:0|0:0,0:0:0:0:
332,40,56851,2,0,L|412:32,2,80,0|8|2,0:0|0:0|0:0,0:0:0:0:
236,52,57769,2,0,L|156:60,2,80,0|8|2,0:0|0:0|0:0,0:0:0:0:
292,128,58688,1,0,0:0:0:0:
336,212,58994,1,0,0:0:0:0:
392,288,59300,6,0,P|344:348|268:328,1,160,2|2,0:0|0:0,0:0:0:0:
204,264,60218,1,0,0:0:0:0:
200,168,60524,2,0,P|248:108|324:128,1,160,8|2,0:0|0:0,0:0:0:0:
296,316,61749,2,0,P|220:336|144:312,1,160,8|2,0:0|0:0,0:0:0:0:
296,188,62973,2,0,P|372:168|448:192,2,160,8|2|8,0:0|0:0|0:0,0:0:0:0:
212,240,64504,1,2,0:0:0:0:
120,216,64810,5,0,0:0:0:0:
204,48,65422,2,0,L|124:60,2,80,8|0|2,0:0|0:0|0:0,0:0:0:0:
256,132,66341,1,0,0:0:0:0:
308,48,66647,2,0,L|388:60,2,80,8|0|2,0:0|0:0|0:0,0:0:0:0:
256,132,67565,1,2,0:0:0:0:
256,324,68177,1,2,0:0:0:0:
256,324,68483,6,0,P|336:316|400:272,2,160,8|8|6,0:0|0:0|0:0,0:0:0:0:
172,276,70014,2,0,L|116:216,2,80,0|8|0,0:0|0:0|0:0,0:0:0:0:
256,228,70932,2,0,P|309:177|336:92,2,160,2|8|6,0:0|0:0|0:0,0:0:0:0:
160,244,72463,5,0,0:0:0:0:
116,158,72769,2,0,P|132:124|168:104,1,80,8|2,0:0|0:0,0:0:0:0:
256,60,73381,1,2,0:0:0:0:
344,104,73688,2,0,P|380:124|396:164,1,80,0|8,0:0|0:0,0:0:0:0:
388,252,74300,1,0,0:0:0:0:
312,308,74606,6,0,B|268:320|268:320|224:272|156:296,1,160,6|8,0:0|0:0,0:0:0:0:
72,324,75524,1,0,0:0:0:0:
96,232,75830,2,0,B|108:184|108:184|156:180|208:132,2,160,2|8|6,0:0|0:0|0:0,0:0:0:0:
160,304,77361,1,0,0:0:0:0:
248,264,77667,2,0,P|324:244|400:276,2,160,8|2|8,0:0|0:0|0:0,0:0:0:0:
168,208,79198,1,0,0:0:0:0:
124,124,79504,6,0,B|200:96|200:96|280:116,1,160,6|8,0:0|0:0,0:0:0:0:
432,228,80728,2,0,B|356:256|356:256|276:236,1,160,2|8,0:0|0:0,0:0:0:0:
184,216,81647,2,0,L|104:232,2,80,0|6|0,0:0|0:0|0:0,0:0:0:0:
268,168,82565,2,0,B|308:120|372:120|372:120|392:76,2,160,8|2|8,0:0|0:0|0:0,0:0:0:0:
252,264,84096,1,0,0:0:0:0:
340,308,84402,6,0,P|420:304|468:240,2,160,6|8|2,0:0|0:0|0:0,0:0:0:0:
152,268,86239,2,0,P|132:232|148:192,1,80,8|0,0:0|0:0,0:0:0:0:
240,196,86851,2,0,P|356:132|244:60,1,320,6|2,0:0|0:0,0:0:0:0:
176,128,88381,2,0,L|92:120,2,80,0|8|2,0:0|0:0|0:0,0:0:0:0:
256,180,89300,6,0,L|340:172,1,80,6|0,0:0|0:0,0:0:0:0:
376,256,89912,2,0,L|292:264,1,80,8|0,0:0|0:0,0:0:0:0:
200,268,90524,1,2,0:0:0:0:
124,92,91137,1,8,0:0:0:0:
200,268,91749,6,0,L|280:300,2,80,6|0|8,0:0|0:0|0:0,0:0:0:0:
156,180,92667,1,2,0:0:0:0:
124,92,92973,2,0,L|44:60,2,80,2|0|8,0:0|0:0|0:0,0:0:0:0:
220,96,93892,1,0,0:0:0:0:
304,140,94198,6,0,P|336:212|292:276,1,160,6|8,0:0|0:0,0:0:0:0:
208,320,95116,1,0,0:0:0:0:
128,268,95422,2,0,P|96:196|140:132,2,160,2|8|6,0:0|0:0|0:0,0:0:0:0:
208,320,96953,2,0,P|280:352|344:308,1,160,0|0,0:0|0:0,0:0:0:0:
308,220,97871,1,2,0:0:0:0:
400,208,98177,2,0,L|472:164,2,80,0|8|0,0:0|0:0|0:0,0:0:0:0:
400,304,99096,5,6,0:0:0:0:
308,332,99402,1,0,0:0:0:0:
212,332,99708,2,0,B|160:272|160:272|184:192,1,160,8|2,0:0|0:0,0:0:0:0:
256,136,100626,1,0,0:0:0:0:
328,194,100932,2,0,B|352:272|352:272|300:332,1,160,8|6,0:0|0:0,0:0:0:0:
204,344,101851,2,0,P|168:352|120:344,2,80,0|8|0,0:0|0:0|0:0,0:0:0:0:
256,264,102769,1,2,0:0:0:0:
132,124,103381,6,0,P|92:196|124:272,1,160,8|6,0:0|0:0,0:0:0:0:
188,332,104300,1,0,0:0:0:0:
284,332,104606,2,0,P|340:280|340:196,1,160,8|2,0:0|0:0,0:0:0:0:
248,32,105830,1,8,0:0:0:0:
256,192,106443,12,4,108892,0:0:0:0:
136,84,127565,5,2,0:0:0:0:
136,84,127871,2,0,P|212:80|288:36,2,160,8|6|8,0:0|0:0|0:0,0:0:0:0:
84,164,129402,2,0,L|68:252,2,80,0|2|0,0:0|0:0|0:0,0:0:0:0:
180,176,130320,2,0,P|216:248|176:316,2,160,8|2|8,0:0|0:0|0:0,0:0:0:0:
148,84,131851,1,2,0:0:0:0:
240,112,132157,2,0,P|280:116|320:100,1,80,2|0,0:0|0:0,0:0:0:0:
412,96,132769,1,0,0:0:0:0:
496,144,133075,1,2,0:0:0:0:
492,240,133381,6,0,B|449:316|365:328,1,160,2|8,0:0|0:0,0:0:0:0:
272,336,134300,1,2,0:0:0:0:
176,328,134606,2,0,B|92:316|48:236,1,160,2|8,0:0|0:0,0:0:0:0:
68,144,135524,1,0,0:0:0:0:
88,48,135830,5,2,0:0:0:0:
256,144,136443,1,8,0:0:0:0:
332,204,136749,1,2,0:0:0:0:
256,264,137055,1,2,0:0:0:0:
180,204,137361,1,0,0:0:0:0:
256,144,137667,6,0,B|296:108|296:108|352:128|400:96,2,160,8|2|8,0:0|0:0|0:0,0:0:0:0:
180,204,139198,1,0,0:0:0:0:
208,296,139504,2,0,B|280:348|368:316,1,160,2|8,0:0|0:0,0:0:0:0:
444,276,140422,1,0,0:0:0:0:
464,184,140728,2,0,P|460:104|416:40,2,160,2|8|2,0:0|0:0|0:0,0:0:0:0:
368,176,142259,2,0,P|364:132|336:100,2,80,0|8|2,0:0|0:0|0:0,0:0:0:0:
372,272,143177,6,0,B|288:324|216:288,1,160,2|8,0:0|0:0,0:0:0:0:
188,200,144096,1,0,0:0:0:0:
176,104,144402,2,0,P|240:120|284:208,2,160,2|8|2,0:0|0:0|0:0,0:0:0:0:
100,164,145932,2,0,L|128:244,2,80,0|8|2,0:0|0:0|0:0,0:0:0:0:
196,176,146851,2,0,L|224:256,1,80,8|2,0:0|0:0,0:0:0:0:
292,184,147463,2,0,L|265:104,1,80,8|2,0:0|0:0,0:0:0:0:
232,20,148075,6,0,P|312:16|388:40,2,160,6|8|2,0:0|0:0|0:0,0:0:0:0:
148,64,149606,1,0,0:0:0:0:
100,148,149912,2,0,P|96:188|120:224,2,80,8|2|2,0:0|0:0|0:0,0:0:0:0:
192,172,150830,1,0,0:0:0:0:
192,172,151137,2,0,P|200:252|140:308,2,160,8|2|8,0:0|0:0|0:0,0:0:0:0:
256,100,152667,1,2,0:0:0:0:
320,172,152973,6,0,P|312:252|372:308,1,160,2|8,0:0|0:0,0:0:0:0:
448,256,153892,1,2,0:0:0:0:
448,160,154198,2,0,P|396:104|312:80,1,160,2|8,0:0|0:0,0:0:0:0:
256,156,155116,1,2,0:0:0:0:
194,80,155422,2,0,P|116:104|64:160,2,160,2|8|2,0:0|0:0|0:0,0:0:0:0:
256,264,157259,1,8,0:0:0:0:
420,168,157871,6,0,P|436:96|364:64,1,160,2|8,0:0|0:0,0:0:0:0:
308,140,158790,1,0,0:0:0:0:
228,88,159096,2,0,P|188:84|152:108,2,80,2|0|8,0:0|0:0|0:0,0:0:0:0:
316,256,160320,2,0,P|356:260|392:236,2,80,2|0|8,0:0|0:0|0:0,0:0:0:0:
128,208,161545,2,0,P|88:276|116:352,2,160,2|8|2,0:0|0:0|0:0,0:0:0:0:
220,188,163075,5,0,0:0:0:0:
284,116,163381,2,0,P|352:76|428:104,1,160,8|2,0:0|0:0,0:0:0:0:
424,292,164606,2,0,P|351:316|283:276,1,160,8|2,0:0|0:0,0:0:0:0:
212,212,165524,1,0,0:0:0:0:
228,116,165830,1,8,0:0:0:0:
320,140,166137,2,0,P|400:144|468:88,1,160,2|2,0:0|0:0,0:0:0:0:
396,28,167055,6,0,P|316:24|248:80,1,160,8|2,0:0|0:0,0:0:0:0:
212,260,168279,1,0,0:0:0:0:
400,300,168892,1,2,0:0:0:0:
400,300,169198,2,0,L|420:220,2,80,0|8|0,0:0|0:0|0:0,0:0:0:0:
312,344,170116,2,0,P|228:348|168:296,2,160,2|8|2,0:0|0:0|0:0,0:0:0:0:
304,148,171953,1,8,0:0:0:0:
212,176,172259,1,2,0:0:0:0:
136,120,172565,6,0,P|148:48|224:56,2,160,2|8|2,0:0|0:0|0:0,0:0:0:0:
212,176,174096,1,0,0:0:0:0:
296,220,174402,2,0,P|340:224|372:204,2,80,8|0|2,0:0|0:0|0:0,0:0:0:0:
104,232,175626,1,8,0:0:0:0:
176,52,176239,1,2,0:0:0:0:
188,148,176545,2,0,L|200:228,2,80,0|8|2,0:0|0:0|0:0,0:0:0:0:
256,80,177463,5,2,0:0:0:0:
324,148,177769,2,8,L|308:228,2,80,0|8|2,0:0|0:0|0:0,0:0:0:0:
256,80,178688,1,10,0:0:0:0:
256,80,179300,2,0,P|180:88|144:156,1,160,0|2,0:0|0:0,0:0:0:0:
300,268,180524,2,0,P|376:260|412:192,2,160,8|2|8,0:0|0:0|0:0,0:0:0:0:
212,232,182055,2,0,P|172:224|132:240,1,80,2|2,0:0|0:0,0:0:0:0:
56,68,182973,5,8,0:0:0:0:
148,96,183279,1,0,0:0:0:0:
244,80,183585,2,0,P|320:64|388:112,2,160,2|8|2,0:0|0:0|0:0,0:0:0:0:
244,80,185728,5,2,0:0:0:0:
152,52,186034,2,0,P|76:64|60:140,1,160,2|8,0:0|0:0,0:0:0:0:
100,224,186953,1,2,0:0:0:0:
156,304,187259,6,0,P|228:336|312:316,2,160,6|8|2,0:0|0:0|0:0,0:0:0:0:
144,208,188790,1,0,0:0:0:0:
152,112,189096,2,0,P|192:100|232:108,2,80,8|0|6,0:0|0:0|0:0,0:0:0:0:
68,160,190014,1,0,0:0:0:0:
56,256,190320,1,8,0:0:0:0:
136,312,190626,2,0,L|212:360,2,80,2|2|0,0:0|0:0|0:0,0:0:0:0:
160,220,191545,2,0,P|236:196|312:232,1,160,8|6,0:0|0:0,0:0:0:0:
384,284,192463,5,0,0:0:0:0:
300,332,192769,2,0,P|224:356|148:320,1,160,8|2,0:0|0:0,0:0:0:0:
140,220,193688,1,0,0:0:0:0:
132,124,193994,2,0,P|144:84|180:64,1,80,8|0,0:0|0:0,0:0:0:0:
268,92,194606,2,0,P|340:120|416:80,2,160,6|8|2,0:0|0:0|0:0,0:0:0:0:
216,172,196137,2,0,L|232:252,2,80,0|8|0,0:0|0:0|0:0,0:0:0:0:
172,88,197055,6,0,P|104:128|72:208,1,160,6|8,0:0|0:0,0:0:0:0:
200,344,198279,2,0,P|268:304|300:224,2,160,2|8|6,0:0|0:0|0:0,0:0:0:0:
200,344,200116,2,0,L|144:284,2,80,8|0|2,0:0|0:0|0:0,0:0:0:0:
296,348,201034,1,0,0:0:0:0:
376,292,201341,1,8,0:0:0:0:
396,196,201647,1,0,0:0:0:0:
372,104,201953,6,0,P|352:64|312:48,2,80,6|0|8,0:0|0:0|0:0,0:0:0:0:
268,264,203177,2,0,P|196:296|116:272,1,160,2|8,0:0|0:0,0:0:0:0:
80,188,204096,1,0,0:0:0:0:
140,112,204402,2,0,P|220:120|276:180,2,160,6|8|2,0:0|0:0|0:0,0:0:0:0:
80,188,205932,2,0,L|64:272,2,80,0|8|0,0:0|0:0|0:0,0:0:0:0:
112,96,206851,6,0,B|184:102|256:160|256:160|328:102|400:96,2,320,6|2|6,0:0|0:0|0:0,0:0:0:0:
52,172,209606,2,0,L|72:252,1,80,0|8,0:0|0:0,0:0:0:0:
164,280,210218,2,0,L|144:200,1,80,2|2,0:0|0:0,0:0:0:0:
176,112,210830,1,2,0:0:0:0:
256,60,211137,1,8,0:0:0:0:
336,112,211443,1,2,0:0:0:0:
360,204,211749,6,0,B|340:240|340:240|352:304|296:348,1,160,6|8,0:0|0:0,0:0:0:0:
256,264,212667,1,0,0:0:0:0:
212,345,212973,2,0,B|160:304|172:240|172:240|152:204,1,160,2|8,0:0|0:0,0:0:0:0:
100,124,213892,1,0,0:0:0:0:
184,80,214198,2,0,B|248:24|336:40,2,160,6|8|2,0:0|0:0|0:0,0:0:0:0:
236,160,215728,2,0,L|308:208,2,80,0|8|2,0:0|0:0|0:0,0:0:0:0:
140,144,216647,6,0,P|96:204|152:260,1,160,6|8,0:0|0:0,0:0:0:0:
332,220,217871,2,0,P|376:160|320:104,1,160,2|8,0:0|0:0,0:0:0:0:
144,52,219096,2,0,L|64:68,1,80,6|0,0:0|0:0,0:0:0:0:
108,152,219708,2,0,L|188:136,2,80,8|0|2,0:0|0:0|0:0,0:0:0:0:
208,316,220932,6,0,P|284:340|364:312,1,160,8|6,0:0|0:0,0:0:0:0:
280,140,222157,2,0,P|204:116|124:144,2,160,8|2|8,0:0|0:0|0:0,0:0:0:0:
256,192,223994,12,6,226443,0:0:0:0:
104,64,227055,5,8,0:0:0:0:
292,100,227667,1,2,0:0:0:0:
256,288,228279,1,8,0:0:0:0:
68,252,228892,2,0,P|24:196|32:104,2,160,2|8|2,0:0|0:0|0:0,0:0:0:0:
152,300,230422,1,0,0:0:0:0:
240,336,230728,6,0,P|316:352|384:288,1,160,8|2,0:0|0:0,0:0:0:0:
428,120,231953,2,0,P|352:104|284:168,1,160,8|2,0:0|0:0,0:0:0:0:
224,220,232871,2,0,L|220:300,2,80,0|8|0,0:0|0:0|0:0,0:0:0:0:
320,216,233790,1,2,0:0:0:0:
128,228,234402,1,10,0:0:0:0:
204,56,235014,1,2,0:0:0:0:
204,56,235626,2,0,L|220:140,2,80,8|0|2,0:0|0:0|0:0,0:0:0:0:
296,28,236545,5,0,0:0:0:0:
388,60,236851,2,0,P|460:124|460:188,2,160,8|2|8,0:0|0:0|0:0,0:0:0:0:
368,156,238381,1,2,0:0:0:0:
272,156,238688,2,0,P|204:172|136:120,2,160,2|8|2,0:0|0:0|0:0,0:0:0:0:
312,68,240218,2,0,L|236:36,2,80,0|8|2,0:0|0:0|0:0,0:0:0:0:
380,136,241137,6,0,P|384:212|308:224,1,160,2|8,0:0|0:0,0:0:0:0:
256,152,242055,1,0,0:0:0:0:
197,227,242361,2,0,P|128:212|132:136,2,160,2|8|2,0:0|0:0|0:0,0:0:0:0:
256,44,244198,1,8,0:0:0:0:
256,192,244504,12,0,246034,0:0:0:0:
304,312,267157,6,0,L|384:332,2,80,0|0|0,0:0|0:0|0:0,0:0:0:0:
208,312,268075,2,0,L|128:332,2,80,6|0|0,0:0|0:0|0:0,0:0:0:0:
256,228,268994,1,2,0:0:0:0:
196,156,269300,2,0,P|256:112|316:156,2,160,2|0|6,0:0|0:0|0:0,0:0:0:0:
172,248,270830,1,0,0:0:0:0:
176,344,271137,2,0,P|256:352|336:344,2,160,0|2|0,0:0|0:0|0:0,0:0:0:0:
116,268,272667,1,0,0:0:0:0:
120,172,272973,6,0,B|156:144|156:144|128:92|160:32,1,160,6|0,0:0|0:0,0:0:0:0:
256,44,273892,1,2,0:0:0:0:
353,34,274198,2,0,B|384:92|356:144|356:144|392:172,1,160,2|0,0:0|0:0,0:0:0:0:
444,252,275116,1,2,0:0:0:0:
400,336,275422,2,0,B|320:348|260:256,2,160,6|0|2,0:0|0:0|0:0,0:0:0:0:
444,252,276953,2,0,L|420:168,2,80,2|0|2,0:0|0:0|0:0,0:0:0:0:
348,280,277871,6,0,P|268:288|192:264,1,160,6|0,0:0|0:0,0:0:0:0:
216,72,279096,2,0,P|296:64|372:88,1,160,2|8,0:0|0:0,0:0:0:0:
456,260,280320,2,0,L|372:276,1,80,6|0,0:0|0:0,0:0:0:0:
292,228,280932,2,0,L|208:212,1,80,8|0,0:0|0:0,0:0:0:0:
116,212,281545,1,2,0:0:0:0:
40,272,281851,2,0,P|16:236|24:196,2,80,0|8|0,0:0|0:0|0:0,0:0:0:0:
116,212,282769,6,0,P|140:176|132:136,1,80,6|0,0:0|0:0,0:0:0:0:
188,64,283381,2,0,B|272:56|336:112,1,160,8|2,0:0|0:0,0:0:0:0:
376,200,284300,2,0,P|368:244|388:288,2,80,0|8|0,0:0|0:0|0:0,0:0:0:0:
280,192,285218,2,0,B|284:296|224:344,2,160,6|8|2,0:0|0:0|0:0,0:0:0:0:
196,144,286749,2,0,P|156:148|120:168,2,80,0|8|0,0:0|0:0|0:0,0:0:0:0:
280,192,287667,6,0,B|368:212|408:104,1,160,6|8,0:0|0:0,0:0:0:0:
304,96,288585,1,0,0:0:0:0:
212,124,288892,2,0,B|124:104|84:212,1,160,2|8,0:0|0:0,0:0:0:0:
116,292,289810,1,2,0:0:0:0:
208,312,290116,2,0,L|372:328,2,160,6|10|2,0:0|0:0|0:0,0:0:0:0:
180,220,291647,2,0,L|196:132,2,80,0|8|0,0:0|0:0|0:0,0:0:0:0:
84,236,292565,6,0,P|44:168|72:96,1,160,6|8,0:0|0:0,0:0:0:0:
160,60,293483,1,0,0:0:0:0:
220,136,293790,2,0,P|288:176|360:148,1,160,2|8,0:0|0:0,0:0:0:0:
436,92,294708,1,2,0:0:0:0:
464,184,295014,2,0,B|500:260|476:340,2,160,6|8|2,0:0|0:0|0:0,0:0:0:0:
368,164,296545,2,0,P|324:160|284:188,1,80,0|8,0:0|0:0,0:0:0:0:
284,272,297157,1,0,0:0:0:0:
216,340,297463,6,0,B|140:364|56:340,2,160,6|8|2,0:0|0:0|0:0,0:0:0:0:
312,320,298994,1,0,0:0:0:0:
380,252,299300,2,0,B|372:172|316:108,1,160,8|6,0:0|0:0,0:0:0:0:
228,76,300218,2,0,L|140:88,2,80,0|8|0,0:0|0:0|0:0,0:0:0:0:
288,152,301137,1,2,0:0:0:0:
288,152,301749,6,0,P|236:208|276:288,1,160,8|6,0:0|0:0,0:0:0:0:
428,188,302973,2,0,P|480:132|440:52,2,160,8|2|8,0:0|0:0|0:0,0:0:0:0:
256,192,304810,12,2,307259,0:0:0:0:
310,85,307871,5,8,0:0:0:0:
388,260,308483,2,0,P|336:312|252:304,1,160,2|10,0:0|0:0,0:0:0:0:
172,256,309402,1,2,0:0:0:0:
116,176,309708,2,0,L|200:156,1,80,2|0,0:0|0:0,0:0:0:0:
184,64,310320,2,0,L|268:44,1,80,10|2,0:0|0:0,0:0:0:0:
356,56,310932,2,0,B|396:128|396:128|380:204,2,160,2|10|2,0:0|0:0|0:0,0:0:0:0:
264,84,312463,6,0,P|240:120|248:156,2,80,0|10|2,0:0|0:0|0:0,0:0:0:0:
360,92,313381,2,0,B|428:136|428:136|472:204,2,160,2|8|2,0:0|0:0|0:0,0:0:0:0:
272,132,314912,2,0,L|192:160,2,80,0|10|2,0:0|0:0|0:0,0:0:0:0:
364,156,315830,1,2,0:0:0:0:
432,336,316443,1,8,0:0:0:0:
364,156,317055,5,2,0:0:0:0:
276,196,317361,1,0,0:0:0:0:
204,132,317667,2,0,P|144:184|160:256,2,160,8|2|8,0:0|0:0|0:0,0:0:0:0:
300,152,319198,2,0,P|336:164|380:160,1,80,2|2,0:0|0:0,0:0:0:0:
228,40,320116,1,8,0:0:0:0:
172,120,320422,1,2,0:0:0:0:
200,212,320728,2,0,P|232:280|320:292,2,160,2|10|2,0:0|0:0|0:0,0:0:0:0:
372,124,322565,5,8,0:0:0:0:
432,308,323177,1,2,0:0:0:0:
284,184,323790,1,8,0:0:0:0:
472,216,324402,2,0,P|432:220|392:208,2,80,2|0|10,0:0|0:0|0:0,0:0:0:0:
440,124,325320,1,2,0:0:0:0:
348,104,325626,2,0,P|308:100|268:112,2,80,2|0|10,0:0|0:0|0:0,0:0:0:0:
316,196,326545,1,2,0:0:0:0:
260,276,326851,6,0,B|180:284|180:284|108:232,1,160,2|0,0:0|0:0,0:0:0:0:
192,60,328075,2,0,B|272:52|272:52|344:104,1,160,2|0,0:0|0:0,0:0:0:0:
376,288,329300,2,0,L|292:320,1,80,2|0,0:0|0:0,0:0:0:0:
228,252,329912,2,0,L|312:220,1,80,0|0,0:0|0:0,0:0:0:0:
336,132,330524,2,0,P|272:88|192:108,2,160,2|2|2,0:0|0:0|0:0,0:0:0:0:
368,224,332055,5,2,0:0:0:0:
368,224,332973,2,0,L|284:240,2,80,2|0|0,0:0|0:0|0:0,0:0:0:0:
308,40,334198,2,0,L|392:24,2,80,2|0|0,0:0|0:0|0:0,0:0:0:0:
152,156,335422,1,2,0:0:0:0:
280,300,336034,1,2,0:0:0:0:
340,116,336647,6,0,P|380:100|424:116,2,80,2|0|0,0:0|0:0|0:0,0:0:0:0:
244,100,337565,1,2,0:0:0:0:
152,76,337871,2,0,P|112:92|68:76,2,80,2|0|0,0:0|0:0|0:0,0:0:0:0:
244,100,338790,1,2,0:0:0:0:
280,188,339096,2,0,B|312:232|312:232|368:220|432:240,2,160,2|0|2,0:0|0:0|0:0,0:0:0:0:
208,124,340626,2,0,P|164:120|128:148,2,80,2|0|2,0:0|0:0|0:0,0:0:0:0:
296,88,341545,6,0,B|340:72|340:72|384:112|444:112,1,160,2|0,0:0|0:0,0:0:0:0:
496,192,342463,1,2,0:0:0:0:
444,272,342769,2,0,B|384:272|340:312|340:312|296:296,2,160,2|0|2,0:0|0:0|0:0,0:0:0:0:
268,192,344606,1,2,0:0:0:0:
84,144,345218,2,0,L|164:144,1,80,2|0,0:0|0:0,0:0:0:0:
164,240,345830,2,0,L|84:240,1,80,2|2,0:0|0:0,0:0:0:0:
268,192,346749,5,2,0:0:0:0:
