osu file format v9

[General]
AudioFilename: Time after time.MP3
AudioLeadIn: 0
PreviewTime: 43848
Countdown: 0
SampleSet: Soft
StackLeniency: 0.4
Mode: 0
LetterboxInBreaks: 0

[Editor]
DistanceSpacing: 1.6
BeatDivisor: 4
GridSize: 8

[Metadata]
Title:Time after time~Hana Mau Machi de~
Artist:Kuraki Mai
Creator:gdeath
Version:Challenging
Source:Case Closed: Crossroad in the Ancient Capital
Tags:Detective Conan City of Whirling Blossoms if I believe Gabriela Robin Bakahuang huang99520 MakJang

[Difficulty]
HPDrainRate:7
CircleSize:4
OverallDifficulty:7
ApproachRate:8
SliderMultiplier:1.6
SliderTickRate:1

[Events]
//Background and Video events
0,0,"Background.jpg"
//Break Periods
2,68534,80165
2,138212,139842
//Storyboard Layer 0 (Background)
//Storyboard Layer 1 (Fail)
//Storyboard Layer 2 (Pass)
//Storyboard Layer 3 (Foreground)
Sprite,Foreground,Centre,"element.jpg",320,240 L,70915,2 F,1,0,1290,1,0 S,1,0,1290,0.8,0.875 L,72205,2 F,1,0,1290,1,0 S,1,0,1290,0.8,0.875 L,73496,2 F,1,0,1290,1,0 S,1,0,1290,0.8,0.875 L,74786,2 F,1,0,1290,1,0 S,1,0,1290,0.8,0.875 L,76076,2 F,1,0,1290,1,0 S,1,0,1290,0.8,0.875 L,77367,2 F,1,0,1290,1,0 S,1,0,1290,0.8,0.875 L,78657,2 F,1,0,1290,1,0 S,1,0,1290,0.8,0.875
//Storyboard Sound Samples
Sample,26076,0,"soft-hitclap2.wav",88
Sample,29786,0,"soft-hitclap2.wav",88
Sample,30592,0,"soft-hitclap2.wav",88
Sample,33818,0,"soft-hitclap.wav",45
Sample,85431,0,"soft-hitclap2.wav",88
Sample,95754,0,"soft-hitclap2.wav",88
Sample,108657,0,"soft-hitclap.wav",50
Sample,142205,0,"soft-hitclap.wav",60
Sample,149947,0,"soft-hitclap.wav",60
Sample,181721,0,"soft-hitclap2.wav",88
Sample,182205,0,"soft-hitclap2.wav",88
//Background Colour Transformations
3,100,163,162,255

[TimingPoints]
1238,645.161290322581,4,2,2,54,1,0
15592,-100,4,2,2,90,0,0
16238,-100,4,2,2,55,0,0
20754,-100,4,2,2,90,0,0
21399,-100,4,2,2,54,0,0
25593,-200,4,2,2,65,0,0
25915,-200,4,2,2,91,0,0
26561,-100,4,2,2,54,0,0
29625,-200,4,2,2,90,0,0
31077,-100,4,2,1,50,0,0
33335,-200,4,2,1,50,0,0
34303,-100,4,2,1,50,0,0
42044,-100,4,2,2,90,0,0
42851,-100,4,2,0,61,0,0
43174,-100,4,2,0,40,0,0
43496,-100,4,2,0,19,0,0
43819,-100,4,2,0,0,0,0
44141,-100,4,2,1,75,0,1
44947,-100,4,2,1,54,0,1
45270,-100,4,2,1,61,0,1
51400,-133.333333333333,4,2,1,64,0,1
53980,-100,4,2,1,61,0,1
63012,-200,4,2,1,66,0,1
66883,-133.333333333333,4,2,1,66,0,1
67850,-200,4,2,1,75,0,0
68012,-200,4,2,1,70,0,1
68335,-200,4,2,0,51,0,0
80754,-100,4,2,2,91,0,0
83979,-100,4,2,2,50,0,0
84302,-100,4,2,2,90,0,0
84625,-100,4,2,2,50,0,0
84948,-200,4,2,2,91,0,0
85592,-200,4,2,2,71,0,0
85916,-100,4,2,2,90,0,0
93496,-100,4,2,2,70,0,0
93657,-100,4,2,2,91,0,0
94625,-100,4,2,2,65,0,0
94947,-100,4,2,2,90,0,0
95270,-200,4,2,2,91,0,0
95915,-200,4,2,2,65,0,0
96238,-100,4,2,2,90,0,0
97205,-100,4,2,2,66,0,0
97528,-100,4,2,2,91,0,0
98496,-100,4,2,2,65,0,0
98818,-100,4,2,2,90,0,0
101076,-100,4,2,1,50,0,0
108174,-200,4,2,1,60,0,0
109141,-100,4,2,1,70,0,0
111399,-100,4,2,2,90,0,0
112529,-100,4,2,0,52,0,0
112851,-100,4,2,0,31,0,0
113174,-100,4,2,0,14,0,0
113496,-100,4,2,0,70,0,0
113819,-100,4,2,0,75,0,1
114625,-100,4,2,1,56,0,1
114947,-100,4,2,1,60,0,1
128819,-200,4,2,1,60,0,1
129787,-100,4,2,1,60,0,1
133012,-100,4,2,0,75,0,1
133335,-100,4,2,0,44,0,1
133658,-100,4,2,0,15,0,1
133980,-100,4,2,0,0,0,1
134141,-100,4,2,0,76,0,1
134464,-100,4,2,0,48,0,1
134787,-100,4,2,0,21,0,1
135270,-100,4,2,0,0,0,1
135432,-100,4,2,0,91,0,1
135754,-100,4,2,0,81,0,1
136077,-100,4,2,0,62,0,1
136400,-100,4,2,0,47,0,1
136722,-100,4,2,0,38,0,1
137045,-100,4,2,0,26,0,1
137367,-100,4,2,0,15,0,0
137690,-100,4,2,0,8,0,1
138012,-100,4,2,0,0,0,0
140432,-133.333333333333,4,2,1,60,0,0
163335,-100,4,2,2,65,0,0
182367,-100,4,2,2,90,0,0
183496,-100,4,2,0,50,0,0
183819,-100,4,2,0,36,0,0
184141,-100,4,2,0,12,0,0
184464,-100,4,2,0,0,0,0
185109,-100,4,2,1,60,0,1
186883,-100,4,2,1,61,0,1
187205,-100,4,2,1,60,0,1
193334,-133.333333333333,4,2,1,61,0,1
195915,-100,4,2,1,61,0,1
204947,-200,4,2,1,60,0,1
208818,-133.333333333333,4,2,1,60,0,1
209786,-200,4,2,1,62,0,0
209947,-200,4,2,1,61,0,1
210270,-100,4,2,1,50,0,0

[Colours]
Combo1 : 251,132,135
Combo2 : 98,153,255
Combo3 : 255,128,255

[HitObjects]
96,96,11238,2,0,B|80:40|80:40,2,40
160,184,11883,1,2
160,184,12205,2,0,B|192:224|256:240|256:240,1,80,2|0
240,232,12689,1,0
256,232,12850,2,0,B|320:240|360:216|360:216,1,80,0|2
352,216,13334,1,0
360,208,13496,1,2
424,112,13818,1,0
352,32,14141,6,0,B|288:32|272:64|272:64,1,80,2|0
346,355,14786,2,0,B|378:299|358:269|358:269,1,80,2|0
69,188,15431,2,0,B|101:244|137:242|137:242,2,80,2|8|8
304,88,16399,5,0
304,88,16560,1,0
304,88,16721,2,0,B|352:112|360:152|360:152,1,80,0|2
368,256,17367,1,2
272,320,17689,1,0
272,320,17850,1,0
272,320,18012,2,0,B|232:336|176:320|176:320,1,80,0|2
176,320,18496,1,0
160,312,18657,2,0,B|112:296|96:240|96:240,1,80,2|0
112,128,19302,6,0,B|96:80|104:32|104:32,1,80,2|0
264,192,19947,2,0,B|265:141|289:99|289:99,1,80,2|0
392,312,20592,2,0,B|410:264|447:233|447:233,2,80,2|8|8
304,88,21560,5,0
304,88,21883,2,0,B|256:88|216:128|216:128,2,80,0|2|2
320,200,22850,1,0
320,200,23012,1,0
320,200,23173,2,0,B|280:232|272:272|272:272,2,80,0|2|2
320,200,24141,1,0
384,112,24463,6,0,B|416:72|464:56|464:56,1,80,2|0
188,216,25108,2,0,B|187:165|213:122|213:122,1,80,2|0
72,352,25754,6,0,B|38:313|30:263|30:263,1,80,2|8
192,48,26721,5,0
192,48,26883,1,0
192,48,27044,2,0,B|224:80|296:80|296:80,2,80,0|2|2
104,112,28012,2,0,B|120:160|168:184|168:184,1,80
248,232,28657,1,2
360,256,28979,1,2
472,232,29302,1,0
472,232,29463,1,0
472,232,29625,6,0,B|504:192|512:128|512:128,2,80,0|8|8
104,48,31560,5,2
408,80,31883,1,0
192,136,32205,2,0,B|152:168|104:168|104:168,1,80,8|0
312,192,32850,2,0,B|352:224|400:224|400:224,1,80,2|0
256,296,33496,6,0,B|229:339|184:356|184:356,1,80,8|2
112,144,34463,5,0
112,144,34625,1,0
112,144,34786,2,0,B|144:96|192:72|192:72,1,80,8|0
280,112,35431,2,0,B|320:112|384:72|384:72,1,80,2|0
368,80,35915,1,0
376,72,36076,2,0,B|408:48|456:40|456:40,2,80,8|8|2
424,176,37044,5,0
424,176,37205,1,0
424,176,37367,2,0,B|432:216|480:240|480:240,1,80,8|2
200,96,38012,2,0,B|230:69|227:15|227:15,1,80,8|2
128,328,38657,2,0,B|88:328|44:344|44:344,2,80,8|8|2
296,232,39625,5,0
296,232,39947,2,0,B|344:208|368:160|368:160,1,80,8|0
352,64,40592,2,0,B|328:32|264:24|264:24,1,80,2|0
168,40,41237,2,0,B|136:72|152:120|152:120,1,80,8|8
160,128,41721,1,0
168,144,41883,2,0,B|184:192|176:240|176:240,2,80,2|8|8
256,192,42689,12,0,43818
360,88,44141,5,0
400,192,44463,1,0
400,192,44786,2,0,B|408:240|392:280|392:280,2,80,0|4|0
400,192,45592,1,0
312,128,45915,1,0
312,128,46076,2,0,B|272:88|224:80|224:80,1,80,0|8
112,32,46721,5,8
80,208,47044,1,2
232,336,47367,1,0
456,304,47689,2,0,B|496:288|496:288|496:288,1,40,8|0
448,80,48173,2,0,B|472:48|472:48,2,40,0|2|0
440,96,48657,2,0,B|408:112|408:144|360:176|360:176,1,80,0|8
280,192,49302,5,8
184,136,49625,1,2
80,176,49947,1,0
56,288,50270,1,8
152,352,50592,1,8
152,352,50754,1,0
264,360,51076,1,0
264,360,51237,1,0
264,360,51560,6,0,B|256:296|256:296,1,59.9999982118607,8|2
248,24,52205,2,0,B|256:88|256:88,1,59.9999982118607,8|2
238,362,52850,2,0,B|256:288|256:288,1,59.9999982118607,8|2
273,21,53496,2,0,B|255:95|255:95,1,59.9999982118607,8|8
296,192,54141,5,0
408,192,54463,2,0,B|368:216|320:192|320:192,1,80,8|2
216,192,55108,1,0
104,192,55431,2,0,B|152:216|216:184|216:184,1,80,8|8
182,195,55915,1,0
272,128,56237,1,0
272,128,56399,2,0,B|304:96|360:80|360:80,1,80,0|8
360,200,57044,5,8
288,288,57367,1,2
176,296,57689,1,0
80,240,58012,1,8
104,128,58334,1,8
104,128,58496,1,0
192,64,58818,1,0
192,64,58979,1,0
104,128,59302,1,8
192,64,59625,1,8
192,64,59947,1,2
416,272,60270,5,0
416,272,60431,1,0
416,272,60592,2,0,B|376:312|320:312|320:312,1,80,8|8
232,288,61237,1,2
136,232,61560,1,0
136,232,61883,2,0,B|80:232|32:264|32:264,2,80,8|8|2
136,232,62850,1,0
419,101,63173,6,0,B|430:145|420:194|420:194,1,80,8|2
256,24,64141,1,0
253,378,64463,2,0,B|209:366|172:333|172:333,1,80,8|2
401,276,65431,1,0
96,95,65754,2,0,B|128:64|176:47|176:47,1,80,8|2
110,276,66721,1,0
272,152,67044,6,0,B|248:200|280:232|264:280|264:280,1,119.999996423721,8|2
266,270,68012,1,8
266,270,68334,1,4
128,112,80915,6,0,B|112:96|96:80|96:80,2,40
224,168,81560,1,8
296,256,81883,1,8
392,312,82205,2,0,B|440:352|440:352,2,40,0|8|0
408,200,82850,2,0,B|464:200|464:200,2,40,8|0|0
304,160,83496,1,8
208,104,83818,6,0,B|176:72|184:16|184:16,1,80,8|2
203,277,84463,2,0,B|192:321|139:342|139:342,1,80,8|2
356,194,85108,6,0,B|400:192|444:217|444:217,1,80,8|2
256,64,86076,6,0,B|256:16|256:16,2,40
256,64,86721,1,8
176,136,87044,1,8
144,240,87367,1,0
136,256,87528,1,8
128,272,87689,2,0,B|104:312|64:328|64:328,1,80,0|8
69,325,88173,1,0
69,325,88334,1,0
16,232,88657,5,8
16,232,88979,2,0,B|32:160|72:136|72:136,1,80,0|8
56,152,89463,1,0
64,144,89625,2,0,B|96:112|152:88|152:88,1,80,0|0
240,96,90270,2,0,B|288:88|336:48|336:48,2,80,0|8|8
272,200,91238,5,0
280,208,91399,1,0
288,216,91560,2,0,B|328:248|368:256|368:256,1,80,8|8
472,256,92205,1,2
376,168,92528,1,0
480,144,92850,2,0,B|464:96|400:64|400:64,1,80,8|8
416,72,93334,1,0
400,64,93496,2,0,B|352:32|296:32|296:32,1,80,2|0
312,32,93979,1,0
296,32,94141,6,0,B|248:24|192:48|192:48,1,80,8|8
97,237,94786,2,0,B|114:282|163:319|163:319,1,80,2|8
374,306,95431,6,0,B|405:269|412:208|412:208,1,80,8|2
256,56,96399,6,0,B|256:16|256:16,2,40,0|0|8
184,144,97044,2,0,B|152:176|112:176|112:176,1,80,8|2
176,264,97689,1,0
176,264,97850,1,0
176,264,98012,2,0,B|216:296|288:288|288:288,1,80,8|8
250,288,98657,1,2
416,176,98979,6,0,B|448:144|448:144,1,40,0|8
272,104,99463,2,0,B|288:48|288:48,1,40,0|8
104,112,99947,2,0,B|80:32|80:32,2,80,2|8|8
432,320,101238,5,2
256,272,101560,1,0
360,160,101883,2,0,B|328:136|312:80|312:80,1,80,8|0
136,32,102528,2,0,B|92:58|83:108|83:108,1,80,2|0
360,312,103173,2,0,B|328:288|312:232|312:232,2,80,8|0|2
440,72,104141,5,0
440,72,104302,1,0
440,72,104463,2,0,B|400:56|352:64|352:64,1,80,8|0
256,88,105108,1,2
152,120,105431,2,0,B|112:136|40:120|40:120,2,80,0|8|0
256,88,106399,1,2
352,152,106721,5,0
352,152,106883,1,0
352,152,107044,2,0,B|400:176|448:176|448:176,1,80,8|2
456,280,107689,2,0,B|408:280|368:248|368:248,1,80,8|2
272,288,108334,6,0,B|320:328|368:328|368:328,1,80,8|2
288,56,109302,5,0
192,112,109625,2,0,B|144:136|88:128|88:128,1,80,8|0
224,160,110270,2,0,B|224:200|184:232|184:232,1,80,2|0
280,160,110915,1,8
280,160,111238,2,0,B|320:184|336:224|336:224,2,80,0|8|8
256,192,112205,12,0,113496
424,88,113818,6,0,B|408:128|360:144|360:144,1,80
240,152,114463,1,0
240,152,114786,1,4
184,264,115108,2,0,B|152:312|176:376|176:376,2,80,0|2|0
192,256,115915,1,0
200,248,116076,1,8
296,184,116399,5,8
400,136,116721,2,0,B|440:96|448:48|448:48,1,80,2|0
328,80,117367,2,0,B|296:112|296:176|296:176,1,80,8|8
304,168,117850,1,0
312,184,118012,2,0,B|304:232|264:256|264:256,1,80,2|0
271,250,118657,1,8
144,288,118979,5,8
144,288,119141,1,0
144,288,119302,2,0,B|96:272|80:208|80:208,1,80,2|0
72,104,119947,2,0,B|96:64|152:56|152:56,1,80,8|8
160,56,120431,2,0,B|200:56|200:56,1,40,0|2
328,56,120915,2,0,B|384:24|384:24,2,40,0|0|8
256,160,121560,2,0,B|224:200|224:256|224:256,2,80,8|2|0
368,224,122528,6,0,B|424:184|448:128|448:128|448:128,1,120,8|2
304,192,123173,6,0,B|310:260|347:309|347:309|347:309,1,120,8|2
344,144,123818,6,0,B|304:120|240:120|240:120|240:120,1,80,8|2
267,121,124463,1,2
152,72,124786,1,0
56,160,125108,2,0,B|48:240|48:240,1,80,8|8
88,192,125592,2,0,B|112:288|112:288,1,80
136,216,126076,2,0,B|200:272|200:272,1,80,0|8
312,320,126721,5,8
400,264,127044,1,2
448,144,127367,1,0
272,32,127689,1,8
232,320,128012,1,8
232,320,128173,1,0
416,80,128496,1,0
416,80,128657,1,0
88,56,128979,2,0,B|48:24|48:24,2,40,8|8|2
168,152,129947,5,0
184,160,130108,1,0
200,168,130270,2,0,B|248:176|296:160|296:160,1,80,8|8
392,104,130915,1,2
440,224,131238,1,0
432,240,131399,1,0
424,256,131560,2,0,B|392:288|328:296|328:296,1,80,8|8
224,288,132205,1,2
128,200,132528,1,8
256,192,132850,12,0,133979
256,192,134141,12,0,135270
256,192,135431,12,0,138012
384,96,140592,6,0,B|400:152|384:232|384:232,1,119.999996423721,0|2
328,296,141560,1,0
328,296,141721,1,0
328,296,141883,2,0,B|264:328|200:304|200:304,1,119.999996423721,8|2
128,264,142850,1,0
64,192,143173,2,0,B|56:128|80:64|80:64,1,119.999996423721,8|2
168,104,144141,2,0,B|208:96|224:56|224:56,2,59.9999982118607,0|8|8
200,192,145108,2,0,B|224:224|272:224|272:224,1,59.9999982118607,2|0
344,200,145754,6,0,B|384:256|376:336|376:336,1,119.999996423721,8|2
280,336,146721,1,2
280,336,146883,1,2
184,328,147205,1,2
184,328,147367,2,0,B|144:312|136:272|136:272,1,59.9999982118607,2|2
104,200,148012,1,0
104,200,148334,1,8
120,104,148657,1,8
120,104,148979,1,2
208,72,149302,1,0
208,72,149625,2,0,B|272:56|336:64|336:64,1,119.999996423721,8|2
336,256,150915,6,0,B|384:304|456:312|456:312,2,119.999996423721,8|2|8
328,160,152528,2,0,B|352:128|400:120|400:120,2,59.9999982118607,8|2|0
128,120,153496,6,0,B|88:112|72:80|72:80,1,59.9999982118607,8|2
288,128,154141,2,0,B|314:97|350:99|350:99,1,59.9999982118607,8|2
192,248,154786,2,0,B|205:286|185:316|185:316,1,59.9999982118607,8|2
288,328,155431,6,0,B|320:328|360:304|360:304,1,59.9999982118607,2|0
368,216,156076,2,0,B|400:176|408:96|408:96,1,119.999996423721,8|2
407,103,157044,1,0
320,64,157367,2,0,B|272:64|248:80|248:80,1,59.9999982118607,8|8
176,120,158012,2,0,B|144:144|144:184|144:184,1,59.9999982118607,2|0
144,264,158657,6,0,B|176:320|256:336|256:336,2,119.999996423721,8|2|8
144,264,160270,1,8
144,120,160592,2,0,B|176:64|256:48|256:48,2,119.999996423721,2|8|2
80,192,162205,6,2,B|24:192|24:192,2,29.9999991059304
336,320,163496,6,0,B|352:264|352:264,1,40
352,264,163818,2,0,B|368:216|360:168|360:168,1,80,0|2
328,64,164463,1,2
208,32,164786,2,0,B|160:48|160:48,1,40
160,56,165108,2,0,B|128:88|120:128|120:128,1,80,0|2
120,144,165592,1,0
120,160,165754,2,0,B|112:208|128:264|128:264,1,80,2|0
304,296,166399,6,0,B|352:256|376:192|376:192,1,120,8|0
304,72,167044,2,0,B|314:133|358:186|358:186,1,120,8|0
488,216,167689,2,0,B|429:194|361:205|361:205,1,120,8|0
136,264,168657,6,0,B|96:304|96:304,2,40
144,248,169141,2,0,B|192:184|200:112|200:112,1,120,0|8
288,56,169947,1,0
288,56,170108,1,0
288,56,170270,2,0,B|328:48|384:64|384:64,1,80,0|2
384,64,170754,1,0
400,72,170915,2,0,B|440:96|464:160|464:160,1,80,2|0
232,232,171560,6,0,B|248:176|296:128|296:128,1,120,8|0
272,248,172205,2,0,B|312:289|330:355|330:355,1,120,8|0
224,264,172850,2,0,B|167:278|101:260|101:260,1,120,8|0
368,56,173818,6,0,B|400:88|400:88,1,40
400,96,174141,2,0,B|416:136|416:208|416:208,1,80,0|2
376,296,174786,1,2
248,328,175108,1,0
248,328,175270,1,0
248,328,175431,2,0,B|192:312|152:264|152:264,1,80,0|2
168,280,175915,1,0
160,264,176076,2,0,B|120:184|152:88|152:88,2,160,2|0|2
288,296,177689,1,0
352,184,178012,2,0,B|376:152|432:120|432:120,2,80,0|2|2
232,144,178979,5,0
112,112,179302,2,0,B|80:80|80:16|80:16,2,80,0|2|2
88,240,180270,2,0,B|128:264|176:256|176:256,1,80
280,304,180915,2,0,B|328:280|352:240|352:240,1,80,2|2
392,136,181560,1,0
288,64,181883,2,0,B|208:64|120:104|120:104,1,160,0|8
132,98,182850,1,8
256,192,183173,12,0,184463
336,80,185108,6,0,B|384:104|416:144|416:144,1,80,8|2
392,256,185754,2,0,B|352:296|296:296|296:296,1,80,8|2
192,288,186399,1,8
112,192,186721,2,0,B|104:144|120:104|120:104,2,80,2|4|0
112,192,187528,1,0
200,256,187850,1,0
200,256,188012,2,0,B|240:296|288:304|288:304,1,80,0|8
400,352,188657,5,8
432,176,188979,1,2
280,48,189302,1,0
56,80,189625,2,0,B|16:96|16:96|16:96,1,40,8|0
64,304,190108,2,0,B|40:336|40:336,2,40,0|2|0
72,288,190592,2,0,B|104:272|104:240|152:208|152:208,1,80,0|8
232,192,191237,5,8
328,248,191560,1,2
432,208,191883,1,0
456,96,192205,1,8
360,32,192528,1,8
360,32,192689,1,0
248,24,193012,1,0
248,24,193173,1,0
248,24,193496,6,0,B|256:88|256:88,1,59.9999982118607,8|2
264,360,194141,2,0,B|256:296|256:296,1,59.9999982118607,8|2
274,22,194786,2,0,B|256:96|256:96,1,59.9999982118607,8|2
239,363,195431,2,0,B|257:289|257:289,1,59.9999982118607,8|8
216,192,196076,5,0
104,192,196399,2,0,B|144:168|192:192|192:192,1,80,8|2
296,192,197044,1,0
408,192,197367,2,0,B|360:168|296:200|296:200,1,80,8|8
330,189,197850,1,0
240,256,198173,1,0
240,256,198334,2,0,B|208:288|152:304|152:304,1,80,0|8
152,184,198979,5,8
224,96,199302,1,2
336,88,199625,1,0
432,144,199947,1,8
408,256,200270,1,8
408,256,200431,1,0
320,320,200754,1,0
320,320,200915,1,0
408,256,201237,1,8
320,320,201560,1,8
320,320,201883,1,2
96,112,202205,5,0
96,112,202367,1,0
96,112,202528,2,0,B|136:72|192:72|192:72,1,80,8|8
280,96,203173,1,2
376,152,203496,1,0
376,152,203818,2,0,B|432:152|480:120|480:120,2,80,8|8|2
376,152,204786,1,0
93,283,205108,6,0,B|82:239|92:190|92:190,1,80,8|2
256,360,206076,1,0
259,6,206399,2,0,B|303:18|340:51|340:51,1,80,8|2
111,108,207367,1,0
416,289,207689,2,0,B|384:320|336:337|336:337,1,80,8|2
402,108,208657,1,0
240,224,208979,6,0,B|256:184|224:152|248:96|248:96,1,119.999996423721,8|2
245,105,209947,1,8
245,105,210270,1,4
