osu file format v9

[General]
AudioFilename: timeaftertime.mp3
AudioLeadIn: 0
PreviewTime: 42921
Countdown: 0
SampleSet: Soft
StackLeniency: 0.6
Mode: 0
LetterboxInBreaks: 0

[Editor]
Bookmarks: 30018,43243,99695
DistanceSpacing: 1.2
BeatDivisor: 4
GridSize: 8

[Metadata]
Title:Time After Time ~Hana Mau Machi de~
Artist:Kuraki Mai
Creator:Beren
Version:Robin's Machi
Source:Case Closed: Crossroad in the Ancient Capital
Tags:Detective Conan City of Whirling Blossoms if I believe Gabriela Robin

[Difficulty]
HPDrainRate:2
CircleSize:3
OverallDifficulty:3
ApproachRate:3
SliderMultiplier:1.3
SliderTickRate:0.5

[Events]
//Background and Video events
0,0,"BG.jpg"
//Break Periods
2,67314,78255
2,139572,148255
//Storyboard Layer 0 (Background)
//Storyboard Layer 1 (Fail)
//Storyboard Layer 2 (Pass)
//Storyboard Layer 3 (Foreground)
//Storyboard Sound Samples
//Background Colour Transformations
3,100,163,162,255

[TimingPoints]
18,645.161290322581,4,2,1,40,1,0
15340,-100,4,2,1,50,0,0
15663,-100,4,2,1,40,0,0
20501,-100,4,2,1,50,0,0
20824,-100,4,2,1,40,0,0
25663,-100,4,2,1,50,0,0
25985,-100,4,2,1,40,0,0
30008,-100,4,1,1,40,0,0
39372,-100,4,1,1,35,0,0
40018,-100,4,1,1,30,0,0
40663,-100,4,1,1,25,0,0
41308,-100,4,1,1,20,0,0
41953,-100,4,1,1,15,0,0
42598,-100,4,1,1,0,0,0
43566,-100,4,1,1,40,0,0
79534,-100,4,2,1,40,0,0
79856,-100,4,2,1,50,0,0
80179,-100,4,2,1,40,0,0
85018,-100,4,2,1,50,0,0
85340,-100,4,2,1,40,0,0
90179,-100,4,2,1,50,0,0
90501,-100,4,2,1,40,0,0
95340,-100,4,2,1,50,0,0
95663,-100,4,2,1,40,0,0
99685,-100,4,1,1,40,0,0
109695,-100,4,1,1,35,0,0
110340,-100,4,1,1,30,0,0
110985,-100,4,1,1,25,0,0
111630,-100,4,1,1,20,0,0
112276,-100,4,1,1,0,0,0
112598,-100,4,1,1,40,0,0
161630,-100,4,1,1,0,0,0
162266,-100,4,2,1,50,0,0
162759,-100,4,2,1,40,0,0
167598,-100,4,2,1,50,0,0
167921,-100,4,2,1,40,0,0
172759,-100,4,2,1,50,0,0
173082,-100,4,2,1,40,0,0
177921,-100,4,2,1,50,0,0
178243,-100,4,2,1,40,0,0
180501,-100,4,2,1,50,0,0
180824,-100,4,2,1,40,0,0
183556,-100,4,1,1,40,0,0
211469,-100,4,2,1,40,0,0

[Colours]
Combo1 : 0,91,183
Combo2 : 255,128,128
Combo3 : 0,111,111

[HitObjects]
72,304,5179,5,4
181,193,5824,2,0,B|237:129,2,65
301,292,7114,5,8
454,263,7759,2,0,B|437:184|346:159,1,130,4|0
415,102,8727,1,0
414,102,9050,2,0,B|264:102,1,130,0|8
258,249,10340,5,4
258,249,10663,1,0
115,312,11308,5,0
65,251,11630,1,0
125,202,11953,2,0,B|189:145,1,65,0|8
249,139,12598,2,0,B|315:200,1,65
400,300,13566,2,0,B|331:339|251:288,1,130
256,81,15179,5,0
256,81,15501,2,0,B|177:73|119:148,1,130,4|0
96,191,16469,5,0
72,265,16792,1,0
128,318,17114,1,0
206,320,17437,1,8
264,269,17759,1,0
264,190,18082,2,0,B|273:106|362:76,2,130
465,308,20340,5,0
465,308,20663,2,0,B|440:231|349:206,1,130,4|0
306,187,21630,5,0
249,240,21953,1,0
189,189,22276,1,0
246,136,22598,1,8
305,186,22921,1,0
250,241,23243,2,0,B|199:312|117:324,2,130
250,241,24856,1,0
160,113,25501,5,0
160,113,25824,1,4
81,247,26469,1,0
142,295,26792,6,0,B|216:351,1,65
239,270,27437,2,0,B|314:269,1,65,0|8
375,301,28082,1,0
374,300,28405,2,0,B|374:142,1,130
375,92,29372,1,0
375,92,29695,1,4
218,43,30340,5,4
148,79,30663,1,0
91,132,30985,2,0,B|32:180|22:260,2,130,0|8|0
91,132,32598,1,0
187,254,33243,5,0
263,271,33566,1,0
333,238,33888,1,0
333,238,34211,2,0,B|402:206|427:132,1,130,8|0
293,122,35824,5,0
293,122,36147,2,0,B|252:66|160:38,2,130,0|8|0
342,182,37759,1,8
215,273,38405,1,0
215,273,38727,1,0
256,192,39372,12,0,42598
128,107,43888,5,4
183,161,44211,1,0
238,106,44534,2,0,B|313:112|380:166,1,130,8|0
360,72,45501,5,0
359,150,45824,1,8
359,228,46147,2,0,B|360:319,1,65,0|4
298,340,46792,2,0,B|230:283,1,65,0|8
247,220,47437,1,0
185,267,47759,1,0
123,315,48082,6,0,B|82:244|141:170,1,130
165,124,49050,1,4
216,65,49372,1,0
264,126,49695,1,8
218,188,50017,1,0
217,188,50340,2,0,B|284:232|361:182,1,130,0|8
340,271,51308,1,0
341,271,51630,5,4
453,163,52276,1,8
337,58,52921,1,0
261,78,53243,6,0,B|219:81|178:116,1,65,0|8
137,145,53888,2,0,B|99:164|94:210,1,65,0|4
73,268,54534,1,0
73,268,54856,1,8
151,267,55179,1,0
151,267,55501,1,0
229,267,55824,6,0,B|321:267,1,65,0|8
350,213,56469,2,0,B|434:211,1,65,0|4
393,136,57114,2,0,B|298:136,1,65,0|8
315,58,57759,2,0,B|229:59,1,65
171,58,58405,1,0
171,58,58727,1,8
214,122,59050,5,0
259,184,59372,1,4
212,246,59695,1,0
165,183,60017,1,8
321,183,60663,1,0
387,223,60985,1,0
323,268,61308,1,8
216,376,61953,22,0,B|152:264|24:264|24:144|100:32|184:32|224:80|256:138|256:138|288:80|328:32|412:32|488:144|488:264|360:264|296:376,1,1040
394,76,79695,5,0
318,94,80017,1,4
174,156,80663,1,8
118,210,80985,5,0
118,210,81307,1,0
183,252,81630,1,8
183,252,81953,1,8
252,288,82276,1,0
252,288,82598,2,0,B|320:326|404:324,2,130,0|8|0
181,253,84211,1,0
136,184,84534,1,8
120,104,84856,5,0
200,120,85179,1,4
328,216,85824,1,8
368,280,86147,6,0,B|294:321,1,65
232,312,86792,2,0,B|170:273,1,65,0|8
112,232,87437,1,0
64,168,87759,2,0,B|24:107|49:37,2,130,0|8|0
104,232,89372,1,0
104,232,89695,1,8
168,280,90018,6,0,B|215:214,1,65,0|4
280,256,90663,2,0,B|325:195,1,65,0|8
368,144,91308,6,0,B|435:210,1,65
456,120,91953,2,0,B|510:169,1,65,0|8
480,240,92598,1,0
424,296,92921,2,0,B|369:342|286:349,2,130,0|8|0
328,80,95179,5,0
328,80,95501,2,0,B|256:78|179:123,1,130,4|8
144,160,96469,5,0
192,224,96792,1,0
240,160,97114,1,0
288,224,97437,1,8
336,160,97759,1,0
376,88,98082,2,0,B|514:170|412:327,1,260,0|4
264,296,100018,5,8
264,296,100340,1,0
264,296,100663,2,0,B|185:283|145:235,2,130,4|8|0
344,296,102276,1,0
432,168,102921,6,0,B|496:113,1,65
416,80,103566,2,0,B|366:27,1,65,0|8
296,48,104211,2,0,B|215:88,1,65
168,112,104856,1,0
168,112,105179,1,8
96,152,105501,5,0
24,192,105824,2,0,B|44:265|130:295,2,130,0|8|0
32,112,107437,1,0
152,216,108082,1,0
152,216,108405,2,0,B|300:217,1,130,4|8
360,216,109372,1,0
256,192,109695,12,0,112276
91,280,113566,5,4
91,280,113888,1,0
169,281,114211,2,0,B|262:282,1,65,8|0
312,283,114856,1,0
363,224,115179,6,0,B|417:160,1,65,0|8
444,107,115824,1,0
445,107,116147,2,0,B|368:93|301:144,1,130,4|8
269,71,117114,1,0
269,71,117437,1,0
227,137,117759,5,0
148,138,118082,1,8
92,83,118405,1,0
38,139,118727,1,4
38,140,119050,2,0,B|64:210|4:284,1,130
19,264,120018,2,0,B|95:243|170:293,1,130,0|8
178,126,121308,5,4
324,179,121953,1,8
450,269,122598,1,0
450,347,122921,5,0
450,269,123243,1,8
451,190,123566,1,0
451,190,123888,2,0,B|435:120|374:77,2,130,4|8|0
372,188,125501,5,0
318,244,125824,1,8
255,291,126147,1,0
183,322,126469,2,0,B|182:165,2,130,4|8|0
183,323,128082,1,0
183,323,128405,1,8
105,324,128727,6,0,B|40:323,3,65,0|0|0|8
64,248,130018,1,0
122,197,130340,2,0,B|122:110,3,65,0|0|8|0
150,59,131630,5,4
220,91,131953,1,0
285,133,132276,1,8
343,183,132598,1,0
286,132,132921,5,0
216,166,133243,1,0
149,207,133566,1,8
98,266,133888,1,0
149,207,134211,5,4
220,238,134534,1,0
282,284,134856,1,8
335,341,135179,1,0
405,308,135501,2,0,B|405:217,2,65,0|0|8
256,192,136792,12,4,139372
256,85,149695,5,0
256,85,150018,1,0
48,192,150985,5,0
48,192,151308,1,0
256,299,152276,5,0
256,299,152598,1,0
256,299,152921,2,0,B|328:301|392:234,1,130,8|0
396,97,154211,5,8
353,162,154534,1,0
309,97,154856,2,0,B|165:96,3,130,0|8|0|8
256,192,157437,12,4,161308
256,288,162598,5,4
312,64,163566,1,0
312,64,163888,1,0
158,95,164534,1,8
60,216,165179,1,0
167,328,165824,1,0
263,205,166469,1,0
70,62,167437,5,0
70,62,167759,2,0,B|72:133|132:200,1,130,4|0
169,238,168727,1,0
169,238,169050,1,0
300,321,169695,1,8
428,232,170340,1,0
331,109,170985,1,0
188,173,171630,1,0
392,287,172598,5,0
392,287,172921,2,0,B|374:215|288:178,1,130,4|8
251,140,173888,5,0
250,140,174211,1,0
186,94,174534,1,0
186,94,174856,1,8
109,108,175179,1,0
46,153,175501,2,0,B|48:233|114:289,1,130,0|8
157,316,176469,1,0
232,334,176792,2,0,B|280:271|373:281,1,130
422,280,177759,5,0
422,280,178082,2,0,B|348:262|311:184,1,130,4|8
262,254,179050,1,0
262,254,179372,2,0,B|238:178|150:156,1,130
147,237,180340,5,0
147,237,180663,2,0,B|65:218|35:141,1,130,4|8
85,96,181630,1,0
85,96,181953,2,0,B|145:51|221:64,2,130
36,244,183888,5,8
182,298,184534,1,0
337,306,185179,1,0
442,191,185824,5,4
397,127,186147,1,0
353,191,186469,1,8
394,256,186792,1,0
441,191,187114,1,0
397,126,187437,6,0,B|339:88,1,65,0|8
274,52,188082,1,0
202,82,188405,2,0,B|140:124,1,65,4|0
94,175,189050,2,0,B|73:241,1,65,8|0
54,312,189695,1,0
54,312,190017,5,0
121,272,190340,1,8
186,313,190663,1,0
250,269,190985,2,0,B|279:237|246:201,1,65,4|0
195,157,191630,2,0,B|175:122|201:90,1,65,8|0
262,53,192276,2,0,B|289:81|264:113,1,65
300,181,192921,2,0,B|270:219|314:259,1,65,8|0
345,302,193566,2,0,B|419:335|493:295,2,130,0|8|0
386,236,195179,5,0
453,196,195501,1,8
400,138,195824,1,0
342,84,196147,2,0,B|273:63,1,65,4|0
253,138,196792,2,0,B|178:116,1,65,8|0
51,188,197759,5,0
51,188,198082,1,8
51,266,198405,1,0
51,266,198727,1,4
124,240,199050,2,0,B|194:284,1,65,0|8
241,227,199695,2,0,B|303:268,1,65
427,69,200985,5,0
427,69,201308,2,0,B|414:145|342:177,1,130,0|8
285,208,202276,1,0
216,248,202598,1,0
285,208,202921,1,0
352,248,203243,1,8
285,208,203566,1,0
220,165,203888,6,0,B|170:114|80:125,2,130,0|8|0
348,253,205824,1,8
219,164,206469,2,0,B|150:197|148:296,2,130,0|8|0
370,126,208405,1,8
256,192,209050,12,4,211630
