osu file format v9

[General]
AudioFilename: timeaftertime.mp3
AudioLeadIn: 0
PreviewTime: 42921
Countdown: 0
SampleSet: Soft
StackLeniency: 0.7
Mode: 0
LetterboxInBreaks: 0

[Editor]
DistanceSpacing: 0.8
BeatDivisor: 4
GridSize: 8

[Metadata]
Title:Time After Time ~Hana Mau Machi de~
Artist:Kuraki Mai
Creator:Beren
Version:Beren's Hana
Source:Case Closed: Crossroad in the Ancient Capital
Tags:Detective Conan City of Whirling Blossoms if I believe Gabriela Robin

[Difficulty]
HPDrainRate:5
CircleSize:4
OverallDifficulty:6
ApproachRate:7
SliderMultiplier:2.2
SliderTickRate:0.5

[Events]
//Background and Video events
0,0,"BG.jpg"
//Break Periods
2,67314,78795
2,136992,138472
//Storyboard Layer 0 (Background)
//Storyboard Layer 1 (Fail)
//Storyboard Layer 2 (Pass)
//Storyboard Layer 3 (Foreground)
//Storyboard Sound Samples
//Background Colour Transformations
3,100,163,162,255

[TimingPoints]
18,645.161290322581,4,2,1,30,1,0
30018,-100,4,1,1,40,0,0
30501,-100,4,1,0,20,0,0
30824,-100,4,1,0,30,0,0
40501,-100,4,1,0,0,0,0
42759,-100,4,1,0,30,0,0
43727,-100,4,1,0,40,0,0
61792,-100,4,1,1,15,0,0
66953,-100,4,1,1,0,0,0
79372,-100,4,2,0,40,0,0
99695,-100,4,1,0,40,0,0
100179,-100,4,1,0,20,0,0
100501,-100,4,1,0,30,0,0
112114,-100,4,2,1,15,0,0
112437,-100,4,1,1,30,0,0
113727,-100,4,1,0,40,0,0
131469,-100,4,1,1,15,0,0
136630,-100,4,1,1,0,0,0
139050,-100,4,1,0,40,0,0
161147,-100,4,1,1,15,0,0
161953,-100,4,2,1,30,0,0
172921,-100,4,2,0,40,0,0
180501,-200,4,2,0,50,0,0
183566,-100,4,1,0,30,0,0
184050,-100,4,2,1,50,0,0
184372,-100,4,1,0,30,0,0
184695,-100,4,2,1,50,0,0
185018,-100,4,1,0,30,0,0
185340,-100,4,2,1,50,0,0
185663,-100,4,1,1,40,0,0
203727,-100,4,1,1,15,0,0
208888,-100,4,1,1,0,0,0

[Colours]
Combo1 : 0,91,183
Combo2 : 255,128,128
Combo3 : 0,111,111

[HitObjects]
256,48,5179,1,4
304,120,5501,2,0,B|360:144|400:224,2,110,0|2|0
256,192,6469,1,0
208,264,6792,2,0,B|152:240|112:160,2,110,0|2|0
256,336,7759,5,0
304,264,8082,2,0,B|424:264,2,110,0|2|0
256,192,9050,1,0
208,120,9372,2,0,B|88:120,1,110,0|2
208,120,10018,1,0
160,192,10340,6,0,B|72:192,2,55,4|0|0
208,264,10985,1,2
296,264,11308,1,0
328,232,11469,1,0
352,192,11630,1,0
440,192,11953,2,0,B|440:336,2,110,0|2|0
392,120,12921,5,0
352,120,13566,1,2
312,120,14211,1,4
56,48,15179,5,0
72,88,15340,1,0
88,128,15501,2,0,B|128:232|224:296,1,220,0|2
256,376,16469,2,0,B|320:352,1,55
352,344,16792,1,0
424,296,17114,2,0,B|424:232,1,55
424,200,17437,2,0,B|400:144|352:104,1,110,2|0
336,24,18082,2,0,B|288:48|264:120,1,110
296,192,18727,2,0,B|232:200|168:136,1,110,2|0
184,72,19372,1,4
256,328,20340,5,0
216,320,20501,1,0
176,312,20663,2,0,B|32:272,2,110,0|0|2
200,224,21630,1,0
240,216,21792,1,0
280,208,21953,1,0
368,192,22276,2,0,B|496:168,2,110,0|2|0
312,128,23243,5,0
296,80,23888,1,2
280,32,24534,1,4
72,192,25501,5,0
104,160,25663,1,0
136,136,25824,2,0,B|192:88|288:112,2,110,0|0|2
208,192,26792,1,0
136,248,27114,2,0,B|192:296|288:272,2,110,0|0|2
208,192,28082,1,0
248,192,28243,1,0
288,192,28405,2,0,B|520:192,2,220,4|2|0
184,72,30340,6,0,B|136:96|136:96|80:176,1,110,8|0
304,336,30985,2,0,B|352:312|352:312|408:232,1,110,0|0
112,240,31630,2,0,B|136:288|136:288|216:344,1,110,8|0
400,144,32276,2,0,B|376:96|376:96|296:40,2,110,0|0|8
312,152,33243,5,0
280,176,33405,1,0
240,200,33566,1,0
240,288,33888,1,0
160,328,34211,1,8
80,288,34534,2,0,B|16:272|0:208,1,110
88,200,35179,1,0
30,134,35501,1,8
116,116,35824,5,0
148,92,35985,1,0
184,64,36147,2,0,B|304:64,1,110
472,192,36792,2,0,B|352:192,1,110,8|0
184,320,37437,2,0,B|312:320,2,110,0|0|8
104,360,38405,5,0
88,320,38566,1,0
104,280,38727,2,0,B|104:160,1,110
104,80,39372,2,0,B|160:88|160:88|192:144,1,110,8|0
256,192,40018,2,0,B|320:192,2,55
256,192,40663,12,0,42598
440,72,42921,5,0
360,96,43243,2,0,B|304:120,2,55
416,160,43888,6,0,B|392:208|392:208|344:240,1,110,4|0
264,200,44534,1,8
256,240,44695,1,0
264,280,44856,1,0
184,320,45179,1,0
104,280,45501,1,0
56,208,45824,2,0,B|24:144,2,55,8|0|0
152,208,46469,6,0,B|184:160|184:160|232:128,1,110
256,48,47114,1,8
288,72,47276,1,0
312,112,47437,1,0
288,192,47759,1,0
376,176,48082,1,0
464,192,48405,2,0,B|440:240|440:240|344:288,1,110,8|0
376,352,49050,5,0
376,352,49372,1,0
304,296,49695,1,8
304,296,50018,1,0
232,240,50340,2,0,B|184:272|160:328,1,110
153,214,50985,2,0,B|141:270|164:327,1,110,8|0
80,252,51630,2,0,B|112:299|168:323,1,110,0|0
55,331,52276,2,0,B|111:342|168:319,1,110,8|0
163,320,52921,5,0
216,248,53243,1,0
164,176,53566,2,0,B|164:120,2,55,8|0|0
248,168,54211,6,0,B|280:120|344:96,1,110,4|0
368,24,54856,1,8
400,56,55018,1,0
416,96,55179,1,0
376,176,55501,1,0
416,256,55824,2,0,B|416:368,2,110,0|8|0
328,256,56792,5,0
309,295,56953,1,0
280,328,57114,1,0
240,248,57437,2,0,B|192:216,2,55,8|0|0
192,320,58082,1,0
104,320,58405,1,0
16,320,58727,1,8
16,232,59050,5,0
32,192,59211,1,0
64,160,59372,2,0,B|104:112|200:96,2,110,0|0|8
144,192,60340,1,0
176,224,60501,1,0
216,240,60663,1,0
240,152,60985,2,0,B|256:96|216:16,1,110,0|8
144,16,61630,1,0
256,192,61953,12,0,63082
256,192,63243,12,0,64372
256,192,64534,12,4,67114
72,312,79695,5,0
96,280,79856,1,0
128,256,80018,2,0,B|168:216|168:216|232:208,2,110,0|0|8
208,296,80985,1,0
224,336,81147,1,0
240,376,81308,1,0
320,336,81630,2,0,B|384:328|424:280,2,110,0|8|0
336,248,82598,5,0
320,208,83243,1,8
296,168,83888,1,0
56,56,84856,5,0
104,56,85018,1,0
144,56,85179,2,0,B|256:56,2,110,0|0|8
144,144,86147,1,0
176,176,86308,1,0
208,208,86469,1,0
256,288,86792,2,0,B|216:336|128:336,2,110,0|8|0
328,344,87759,5,0
344,304,87921,1,0
344,264,88082,1,0
296,192,88405,2,0,B|336:144|424:144,2,110,8|0|0
248,120,89372,2,0,B|242:57|304:-4,1,110,0|8
336,96,90018,5,0
376,112,90179,1,0
416,128,90340,2,0,B|520:160,2,110,0|0|8
360,200,91308,1,0
352,240,91469,1,0
344,280,91630,1,0
328,368,91953,2,0,B|392:368|440:296,2,110,0|8|0
344,280,92921,5,0
320,248,93566,1,8
296,216,94211,1,0
72,72,95179,5,0
80,112,95340,1,0
96,152,95501,2,0,B|104:216|184:264,2,110,0|0|8
184,160,96469,1,0
224,136,96630,1,0
264,128,96792,1,0
256,216,97114,1,0
336,184,97437,2,0,B|352:248|296:296,1,110,8|0
256,192,98082,12,0,99372
56,88,100018,6,0,B|112:72|112:72|184:96,1,110,8|0
312,248,100663,2,0,B|256:264|256:264|184:240,1,110,4|0
360,88,101308,2,0,B|416:72|416:72|488:96,1,110,8|0
312,248,101953,2,0,B|256:264|256:264|206:247,2,110,0|0|8
256,184,102921,5,0
213,171,103083,1,0
168,160,103244,1,0
128,80,103566,1,0
80,152,103889,1,8
32,224,104211,2,0,B|-8:280,2,55
112,272,104857,1,0
192,312,105179,1,8
144,384,105502,5,0
168,344,105663,1,0
192,312,105824,2,0,B|272:192,1,110
216,0,106469,2,0,B|279:129,1,110,8|0
472,176,107114,2,0,B|328:166,2,110,0|0|8
472,264,108083,5,0
472,264,108244,1,0
472,264,108405,2,0,B|408:288|392:368,1,110
399,341,109050,2,0,B|337:316|318:260,1,110,8|0
256,208,109695,2,0,B|256:144,2,55
256,192,110340,12,8,112276
440,312,112598,5,0
352,312,112920,2,0,B|312:368,2,55
328,224,113566,5,4
304,136,113888,2,0,B|416:136,2,110,0|8|0
256,64,114856,1,0
256,64,115179,1,0
168,64,115501,2,0,B|112:24,2,55,8|0|0
200,144,116147,5,0
112,136,116469,2,0,B|112:200|176:232,2,110,0|8|0
200,144,117436,1,0
240,64,117759,1,0
272,96,117921,1,0
288,136,118082,1,8
248,216,118405,1,0
336,216,118727,5,0
368,184,118888,1,0
384,144,119049,1,0
384,56,119372,1,8
456,104,119695,1,0
488,136,119856,1,0
504,176,120018,1,0
432,232,120340,2,0,B|424:288|376:344,1,110,0|8
208,336,121308,6,0,B|80:336,1,110
144,256,121953,2,0,B|264:256,1,110,8|0
344,256,122598,1,0
296,184,122920,1,0
344,112,123243,2,0,B|392:80,2,55,8|0|0
296,40,123888,6,0,B|240:40|240:40|184:88,1,110,4|0
211,162,124534,1,8
128,128,124856,2,0,B|112:192|168:248,1,110
240,248,125501,2,0,B|296:208,2,55,0|0|8
176,312,126147,1,0
264,336,126469,5,0
304,312,126630,1,0
328,272,126792,1,0
416,264,127114,2,0,B|408:200|328:176,1,110,8|0
280,128,127759,1,0
256,40,128082,1,0
192,104,128404,1,8
168,16,128727,5,0
128,40,128888,1,0
104,80,129050,2,0,B|104:136|104:136|152:192,2,110,0|0|8
192,104,130017,1,0
216,136,130178,1,0
240,168,130340,1,0
200,296,130663,1,0
328,280,130985,1,8
376,160,131308,1,0
256,192,131630,12,0,132759
256,192,132921,12,0,134050
256,192,134211,12,4,136792
256,40,139372,6,0,B|256:176,1,110,4|0
336,192,140018,1,8
336,192,140179,1,0
336,192,140340,1,0
424,168,140663,2,0,B|432:232|368:296,1,110
304,272,141308,1,8
256,344,141630,2,0,B|120:344,2,110
304,272,142598,6,0,B|248:240|248:168,1,110,8|0
320,128,143243,2,0,B|272:80|184:104,1,110
161,164,143888,2,0,B|113:188,2,55,8|0|0
161,164,144534,6,0,B|120:112|144:48,1,110,4|0
218,97,145179,1,8
240,136,145340,1,0
248,176,145501,1,0
336,160,145824,2,0,B|336:224|272:272,1,110
202,252,146469,1,8
240,328,146792,6,0,B|296:360|368:312,2,110
291,256,147759,2,0,B|353:239|370:154,1,110,8|0
440,128,148405,2,0,B|392:72|304:96,1,110
280,152,149050,2,0,B|240:72,2,55,8|0|0
192,152,149695,6,0,B|73:112,1,110,4|0
64,32,150340,1,8
24,56,150501,1,0
8,96,150663,1,0
87,118,150985,2,0,B|56:184|104:256,1,110,0|0
16,280,151630,1,8
87,225,151953,6,0,B|141:271|223:243,2,110
160,168,152921,2,0,B|272:96,1,110,8|0
288,32,153566,6,0,B|344:64|336:136,1,110
280,192,154211,1,8
320,208,154372,1,0
368,208,154534,1,0
424,136,154856,6,0,B|464:192|448:288,2,110,0|0|8
368,208,155824,1,0
453,240,156147,2,0,B|418:297|311:301,2,110,0|0|8
368,208,157114,1,0
256,192,157437,12,0,161308
64,64,162276,5,0
64,104,162437,1,0
64,144,162598,2,0,B|32:208|80:288,2,110,4|0|2
136,200,163566,2,0,B|158:267|249:290,1,110
224,192,164211,2,0,B|288:223|367:175,2,110,0|2|0
160,128,165179,5,0
184,88,165824,1,2
208,48,166469,1,4
432,192,167437,5,0
408,232,167598,1,0
384,272,167759,2,0,B|336:344,2,55
336,192,168405,1,2
296,112,168727,2,0,B|328:64|328:64|400:40,2,110
272,144,169534,1,0
248,184,169695,1,2
208,104,170018,1,0
136,56,170340,6,0,B|112:104|112:104|144:176,1,110
168,240,170985,2,0,B|112:240|112:240|48:200,2,110,2|0|0
248,184,171953,2,0,B|264:240|264:240|240:320,1,110,0|4
168,328,172598,5,0
192,360,172759,1,0
232,376,172921,2,0,B|296:376,2,55,0|0|0
250,290,173566,1,8
328,240,173888,1,0
368,224,174050,1,0
408,200,174211,2,0,B|480:184|504:104,2,110,0|0|8
408,112,175179,1,0
384,80,175340,1,0
352,48,175501,6,0,B|496:48,2,110,0|0|8
272,80,176469,2,0,B|208:96|184:176,2,110
280,168,177437,1,8
216,232,177759,1,0
280,168,178082,6,0,B|320:224|288:296,1,110
224,320,178727,1,8
224,320,179050,1,0
144,280,179372,2,0,B|16:280,2,110,0|0|8
216,232,180340,1,0
136,192,180663,6,0,B|176:136|256:144,1,110,0|8
248,56,181630,1,0
230,143,181953,2,0,B|296:168|312:240,2,110,0|8|0
304,304,183888,6,0,B|456:304,1,110,8|4
208,80,184534,2,0,B|96:80,1,110,8|0
416,80,185179,2,0,B|416:192,1,110,8|0
96,304,185824,2,0,B|96:176,1,110,4|0
96,104,186470,5,8
136,112,186631,1,0
168,144,186792,1,0
184,232,187115,1,0
248,176,187437,2,0,B|280:232|248:296,2,110,0|8|0
256,88,188405,6,0,B|318:104|340:172,1,110
416,184,189050,1,8
392,224,189212,1,0
352,240,189373,1,0
336,328,189695,1,0
272,272,190018,1,0
248,360,190340,2,0,B|128:360,1,110,8|0
56,328,190986,5,0
80,296,191147,1,0
120,272,191308,1,0
192,224,191630,1,8
112,184,191953,2,0,B|56:160|40:80,1,110
136,96,192598,1,0
136,96,192759,1,0
136,96,192921,1,8
160,8,193243,6,0,B|216:32|232:112,2,110
136,96,194211,1,8
184,168,194534,2,0,B|256:192|320:128,1,110
312,64,195179,1,0
312,64,195501,2,0,B|368:88|384:160,1,110,8|0
344,224,196147,5,4
384,232,196308,1,0
424,224,196469,1,0
472,296,196792,1,8
384,320,197114,1,0
296,296,197437,1,0
208,320,197759,2,0,B|208:264|208:264|264:200,2,110,0|8|0
120,320,198727,6,0,B|80:280|80:280|80:201,1,110
40,144,199373,1,8
80,128,199534,1,0
120,144,199695,1,0
80,227,200018,1,0
168,216,200341,1,0
216,144,200663,1,8
256,64,200986,5,0
288,88,201147,1,0
304,128,201308,2,0,B|312:192|240:240,2,110,0|0|8
392,128,202276,1,0
424,152,202437,1,0
440,192,202599,1,0
368,248,202921,2,0,B|408:304|512:272,1,110,0|8
440,192,203566,1,0
256,192,203888,12,0,205018
256,192,205179,12,0,206308
256,192,206469,12,4,209050
