osu file format v9

[General]
AudioFilename: Kuraki Mai - Secret of my heart.mp3
AudioLeadIn: 0
PreviewTime: 77573
Countdown: 0
SampleSet: Soft
StackLeniency: 0.7
Mode: 0
LetterboxInBreaks: 1

[Editor]
Bookmarks: 72634
DistanceSpacing: 1
BeatDivisor: 4
GridSize: 4

[Metadata]
Title:Secret of my heart
Artist:Kuraki Mai
Creator:H A D E S
Version:Normal
Source:Case Closed
Tags:Detective Conan GIZA haceo2 fu_yun hades boa

[Difficulty]
HPDrainRate:2
CircleSize:3
OverallDifficulty:2
ApproachRate:2
SliderMultiplier:1.60000000596046
SliderTickRate:1

[Events]
//Background and Video events
0,0,"9777e75530da92c58c543084.jpg"
Video,0,"Kuraki Mai - Secret of my heart.avi"
//Break Periods
2,193483,208656
//Storyboard Layer 0 (Background)
//Storyboard Layer 1 (Fail)
//Storyboard Layer 2 (Pass)
//Storyboard Layer 3 (Foreground)
//Storyboard Sound Samples
//Background Colour Transformations
3,100,0,0,0

[TimingPoints]
21129,705.55032925682,4,2,0,100,1,0
33123,-100,4,2,0,60,0,0
77573,-100,4,2,0,70,0,1
100150,-100,4,2,0,60,0,0
145305,-100,4,2,0,70,0,1
167883,-100,4,2,0,60,0,0
187462,-100,4,2,0,5,0,0
215684,-100,4,2,0,70,0,1
261016,-100,4,2,0,70,0,0

[Colours]
Combo1 : 251,85,176
Combo2 : 253,172,243
Combo3 : 254,141,203

[HitObjects]
336,96,33123,2,0,B|256:96,1,80.000000298023
176,96,33828,2,0,B|256:96,1,80.000000298023
180,236,34887,2,2,B|151:264,2,40.0000001490115
332,284,35945,1,0
484,232,36651,1,8
68,64,38767,6,0,B|68:104,2,40.0000001490115
140,96,39473,1,8
372,44,40531,5,0
376,124,40884,2,0,B|320:184,1,80.000000298023,0|2
296,108,41589,2,0,B|240:168,1,80.000000298023,0|2
216,92,42295,2,0,B|160:152,1,80.000000298023,0|2
104,300,43353,2,0,B|172:376|240:300,1,160.000000596046,0|8
468,84,45470,5,0
308,84,46176,1,0
268,84,46352,2,0,B|176:156|84:84,1,200.000000745057
84,244,47939,6,0,B|84:324,1,80.000000298023
188,204,48998,1,0
216,176,49174,2,0,B|259:67|375:83,1,200.000000745057,0|8
340,320,51114,5,0
256,184,51820,2,0,B|256:104,1,80.000000298023
256,344,53231,5,0
256,264,53584,1,0
256,104,54289,1,2
216,172,54642,1,2
296,172,54995,1,10
176,288,55700,6,0,B|256:288,1,80.000000298023
336,288,56406,2,0,B|256:288,1,80.000000298023
324,144,57464,2,2,B|352:115,2,40.0000001490115
176,88,58523,1,0
28,152,59228,1,8
444,320,61345,6,0,B|444:280,2,40.0000001490115
372,288,62050,1,8
140,340,63109,5,0
136,260,63462,2,0,B|192:200,1,80.000000298023,0|2
220,276,64167,2,0,B|276:216,1,80.000000298023,0|2
304,292,64873,2,0,B|360:232,1,80.000000298023,0|2
408,80,65931,2,0,B|340:4|272:80,1,160.000000596046,0|8
44,300,68048,5,0
204,300,68753,1,0
244,300,68930,2,0,B|336:228|428:300,1,200.000000745057
428,140,70517,6,0,B|428:60,1,80.000000298023
300,156,71575,1,0
196,276,72281,1,0
160,260,72457,2,0,B|114:152|207:82,1,200.000000745057,0|8
364,104,74045,5,0
260,228,74750,2,0,B|208:288,1,80.000000298023
184,212,75456,2,0,B|132:272,1,80.000000298023
108,196,76161,2,0,B|56:256,1,80.000000298023
32,180,76867,1,2
136,60,77573,6,0,B|216:60,1,80.000000298023
216,60,78278,2,0,B|296:60,1,80.000000298023
296,60,78984,1,2
416,164,79689,5,0
359,220,80042,1,0
304,276,80395,2,0,B|224:276,1,80.000000298023
224,276,81100,2,0,B|144:276,1,80.000000298023
144,276,81806,1,2
44,152,82511,5,0
113,111,82864,1,0
182,72,83217,1,2
336,112,83922,1,0
267,153,84275,1,0
200,192,84628,2,0,B|220:226,2,40.0000001490115,2|0|2
132,236,85334,6,0,B|112:201,2,40.0000001490115,2|0|2
208,260,86039,2,0,B|247:190,1,80.000000298023
328,184,86745,2,0,B|328:104,1,80.000000298023
396,60,87450,2,0,B|476:198,1,160.000000596046,8|0
376,324,88861,6,0,B|296:324,1,80.000000298023
296,324,89567,2,0,B|216:324,1,80.000000298023
216,324,90272,1,2
96,220,90978,5,0
153,164,91331,1,0
208,108,91684,2,0,B|288:108,1,80.000000298023
288,108,92389,2,0,B|368:108,1,80.000000298023
368,108,93095,1,2
468,232,93800,5,0
399,273,94153,1,0
330,312,94506,1,2
176,272,95211,1,0
245,231,95564,1,0
312,192,95917,2,0,B|292:157,2,40.0000001490115,2|0|2
380,148,96622,6,0,B|400:182,2,40.0000001490115,2|0|2
332,84,97328,2,0,B|292:153,1,80.000000298023
220,116,98033,2,0,B|220:195,1,80.000000298023
140,208,98739,2,0,B|220:346,1,160.000000596046,8|0
256,192,100150,1,0
360,72,100856,6,0,B|280:72,1,80.000000298023
440,72,101561,2,0,B|360:72,1,80.000000298023
324,228,102620,2,2,B|324:188,2,40.0000001490115
192,140,103678,1,0
64,44,104383,1,8
476,256,106500,6,0,B|476:296,2,40.0000001490115
416,200,107206,1,8
220,64,108264,5,0
148,100,108617,2,0,B|204:160,1,80.000000298023,0|2
256,100,109322,2,0,B|312:160,1,80.000000298023,0|2
364,100,110028,2,0,B|420:160,1,80.000000298023,0|2
364,308,111086,2,0,B|296:384|228:308,1,160.000000596046,0|8
44,48,113203,5,0
204,48,113908,1,0
244,48,114085,2,0,B|336:120|428:48,1,200.000000745057
428,208,115672,2,0,B|428:288,1,80.000000298023
300,192,116731,1,0
268,168,116907,2,0,B|176:96|84:168,1,200.000000745057,0|8
276,312,118847,5,0
328,160,119553,2,0,B|328:80,1,80.000000298023
260,124,120258,1,8
116,56,120964,5,0
59,112,121317,1,0
220,100,122022,1,2
163,156,122375,1,2
240,176,122728,1,10
152,312,123433,6,0,B|232:312,1,80.000000298023
72,312,124139,2,0,B|152:312,1,80.000000298023
184,156,125197,2,2,B|184:196,2,40.0000001490115
328,224,126255,1,0
460,316,126961,1,8
28,140,129078,6,0,B|28:100,2,40.0000001490115
96,184,129783,1,8
292,320,130842,5,0
364,284,131194,2,0,B|308:224,1,80.000000298023,0|2
256,284,131900,2,0,B|200:224,1,80.000000298023,0|2
148,284,132605,2,0,B|92:224,1,80.000000298023,0|2
148,76,133664,2,0,B|216:0|284:76,1,160.000000596046,0|8
468,336,135780,5,0
308,336,136486,1,0
268,336,136662,2,0,B|176:264|84:336,1,200.000000745057
84,176,138250,6,0,B|84:96,1,80.000000298023
240,52,139308,1,0
396,84,140014,1,0
428,108,140190,2,0,B|444:223|336:267,1,200.000000745057,0|8
180,292,141778,1,0
76,168,142483,2,0,B|128:108,1,80.000000298023
152,184,143189,2,0,B|204:124,1,80.000000298023
228,200,143894,2,0,B|280:140,1,80.000000298023
360,148,144600,1,0
368,308,145305,6,0,B|288:308,1,80.000000298023
288,308,146011,2,0,B|208:308,1,80.000000298023
208,308,146716,1,8
88,204,147422,5,0
145,148,147775,1,0
200,92,148128,2,0,B|280:92,1,80.000000298023
280,92,148833,2,0,B|360:92,1,80.000000298023
360,92,149539,1,8
460,216,150244,5,2
391,257,150597,1,2
322,296,150950,1,10
168,256,151655,1,2
237,215,152008,1,2
304,176,152361,6,2,B|284:142,2,40.0000001490115
372,132,153066,2,2,B|392:167,2,40.0000001490115
296,108,153772,2,0,B|257:178,1,80.000000298023
176,184,154478,2,0,B|176:264,1,80.000000298023
132,332,155183,2,0,B|52:194,1,160.000000596046,0|8
128,52,156594,6,0,B|208:52,1,80.000000298023
208,52,157300,2,0,B|288:52,1,80.000000298023
288,52,158005,1,8
408,156,158711,5,0
351,212,159064,1,0
296,268,159416,2,0,B|216:268,1,80.000000298023
216,268,160122,2,0,B|136:268,1,80.000000298023
136,268,160827,1,8
36,144,161533,5,2
105,103,161886,1,2
174,64,162239,1,2
328,104,162944,1,2
259,145,163297,1,2
192,184,163650,6,2,B|212:219,2,40.0000001490115
124,228,164355,2,2,B|104:194,2,40.0000001490115
168,296,165061,2,0,B|208:227,1,80.000000298023
276,272,165766,2,0,B|276:193,1,80.000000298023
356,188,166472,2,0,B|276:50,1,160.000000596046,0|8
256,208,167883,5,0
256,288,168236,1,0
284,316,168412,1,0
364,316,168765,1,0
392,288,168941,2,0,B|436:212|392:136,1,160.000000596046,8|0
336,80,170000,5,0
264,48,170352,1,0
224,44,170529,1,0
120,92,171058,2,0,B|76:168|120:244,1,160.000000596046
184,296,172116,1,0
344,300,172822,1,8
460,192,173527,5,0
380,192,173880,1,0
408,164,174057,1,0
408,84,174409,1,0
380,56,174586,2,0,B|304:12|228:56,1,160.000000596046,8|0
176,116,175644,5,2
156,192,175997,1,0
184,268,176350,1,2
256,304,176702,1,0
324,260,177055,1,2
324,180,177408,1,0
252,144,177761,1,2
184,184,178113,1,0
252,224,178466,1,10
140,112,179172,5,0
84,168,179525,1,0
56,196,179701,1,0
56,276,180054,1,0
84,304,180230,2,0,B|160:348|236:304,1,160.000000596046,8|0
304,260,181288,1,0
368,212,181641,5,0
424,156,181994,2,0,B|312:44,1,160.000000596046
232,48,183052,1,0
180,108,183405,1,8
256,280,184816,5,2
340,192,185169,1,2
256,104,185522,1,2
172,192,185875,1,2
256,280,186227,1,10
256,192,187638,12,0,188961
256,192,189049,12,0,190372
256,192,190461,12,0,191783
256,192,191872,12,0,193283
256,192,210216,12,0,215155
256,192,215860,6,0,B|256:112,1,80.000000298023
256,112,216566,2,0,B|256:32,1,80.000000298023
256,32,217271,1,8
256,192,217977,5,0
256,272,218330,1,0
256,352,218683,2,0,B|336:352,1,80.000000298023
336,352,219388,2,0,B|416:352,1,80.000000298023
416,352,220094,1,8
416,192,220799,5,2
336,192,221152,1,2
256,192,221505,1,10
96,192,222210,1,2
176,192,222563,1,2
256,192,222916,6,2,B|256:152,2,40.0000001490115
336,192,223621,2,2,B|336:232,2,40.0000001490115
416,196,224327,2,0,B|377:266,1,80.000000298023
324,328,225033,2,0,B|244:328,1,80.000000298023
200,264,225738,2,0,B|120:126,1,160.000000596046,0|8
256,44,227149,6,0,B|336:44,1,80.000000298023
336,44,227855,2,0,B|416:44,1,80.000000298023
416,44,228560,1,8
368,196,229266,5,0
311,252,229619,1,0
256,308,229971,2,0,B|176:308,1,80.000000298023
176,308,230677,2,0,B|96:308,1,80.000000298023
96,308,231382,1,8
120,148,232088,5,2
189,107,232441,1,2
258,68,232794,1,2
412,108,233499,1,2
343,149,233852,1,2
276,188,234205,2,2,B|296:223,2,40.0000001490115
208,232,234910,1,2
256,192,235616,12,0,238085
256,192,238438,6,0,B|256:272,1,80.000000298023
256,272,239144,2,0,B|256:352,1,80.000000298023
256,352,239849,1,8
256,192,240555,5,0
256,112,240908,1,0
256,32,241261,2,0,B|176:32,1,80.000000298023
176,32,241966,2,0,B|96:32,1,80.000000298023
96,32,242672,1,8
96,192,243377,5,2
176,192,243730,1,2
256,192,244083,1,10
416,192,244788,1,2
336,192,245141,1,2
256,192,245494,6,2,B|256:232,2,40.0000001490115
176,192,246199,2,2,B|176:152,2,40.0000001490115
96,188,246905,2,0,B|135:118,1,80.000000298023
188,56,247611,2,0,B|268:56,1,80.000000298023
312,120,248316,2,0,B|392:258,1,160.000000596046,0|8
256,340,249727,6,0,B|176:340,1,80.000000298023
176,340,250433,2,0,B|96:340,1,80.000000298023
96,340,251138,1,8
144,188,251844,5,0
201,132,252197,1,0
256,76,252549,2,0,B|336:76,1,80.000000298023
336,76,253255,2,0,B|416:76,1,80.000000298023
416,76,253960,1,8
392,236,254666,5,2
323,277,255019,1,2
254,316,255372,1,2
100,276,256077,1,2
169,235,256430,1,2
236,196,256783,2,2,B|216:161,2,40.0000001490115
256,192,257488,12,0,260663
