osu file format v12

[General]
AudioFilename: Secret Of My Heart.mp3
AudioLeadIn: 1
PreviewTime: 60588
Countdown: 0
SampleSet: Soft
StackLeniency: 0.7
Mode: 0
LetterboxInBreaks: 1
CountdownOffset: 3
WidescreenStoryboard: 1

[Editor]
Bookmarks: 89148
DistanceSpacing: 1.2
BeatDivisor: 4
GridSize: 32

[Metadata]
Title:Secret of my heart
TitleUnicode:Secret of my heart
Artist:Kuraki Mai
ArtistUnicode:倉木麻衣
Creator:Awaken
Version:Insane
Source:Detective Conan
Tags:Case Closed Meitantei Konan ending 9
BeatmapID:344403
BeatmapSetID:137831

[Difficulty]
HPDrainRate:7
CircleSize:4
OverallDifficulty:8
ApproachRate:8
SliderMultiplier:1.2
SliderTickRate:1

[Events]
//Background and Video events
0,0,"uu.jpg",0,0
//Break Periods
//Storyboard Layer 0 (Background)
//Storyboard Layer 1 (Fail)
//Storyboard Layer 2 (Pass)
//Storyboard Layer 3 (Foreground)
//Storyboard Sound Samples
//Background Colour Transformations
3,100,163,162,255

[TimingPoints]
4138,352.816652946019,4,2,1,60,1,0
60588,-83.3333333333333,4,2,1,80,0,1
69054,-133.333333333333,4,2,1,80,0,1
71876,-83.3333333333333,4,2,1,80,0,1
81757,-83.3333333333333,4,2,1,80,0,0
108571,-100,4,2,1,60,0,0
119861,-100,4,2,1,40,0,0
119950,-100,4,2,1,60,0,0
131151,-76.9230769230769,4,2,1,100,0,1
139617,-133.333333333333,4,2,1,100,0,1
141733,-76.9230769230769,4,2,1,100,0,1
162193,-133.333333333333,4,2,1,100,0,1
164309,-76.9230769230769,4,2,1,100,0,1
176312,-100,4,2,1,60,0,0
179135,-100,4,2,1,50,0,0
181957,-100,4,2,1,40,0,0
184780,-100,4,2,1,30,0,0

[Colours]
Combo1 : 55,183,49
Combo2 : 165,254,179
Combo3 : 255,255,164
Combo4 : 154,220,252
Combo5 : 255,162,255
Combo6 : 226,45,24

[HitObjects]
384,51,4137,6,0,L|364:175,1,120,4|0,0:0|0:0,0:0:0:0:
324,232,4667,1,0,0:0:0:0:
187,145,4843,2,0,P|244:134|292:168,1,120,8|0,0:0|0:0,0:0:0:0:
324,232,5372,1,0,0:0:0:0:
324,232,5725,6,0,L|382:210,2,60,0|0|0,0:0|0:0|0:0,0:0:0:0:
299,300,6254,2,0,P|250:333|181:320,1,120,8|0,0:0|0:0,0:0:0:0:
115,249,6784,1,0,0:0:0:0:
115,249,6960,2,0,P|164:216|233:229,1,120,2|0,0:0|0:0,0:0:0:0:
273,171,7489,2,0,L|281:111,1,60,0|8,0:0|0:0,0:0:0:0:
402,33,8018,5,0,0:0:0:0:
408,104,8195,2,0,P|428:159|487:189,1,120,0|0,0:0|0:0,0:0:0:0:
507,316,8724,2,0,L|498:257,1,60,0|0,0:0|0:0,0:0:0:0:
489,107,9077,1,8,0:0:0:0:
416,254,9430,5,0,0:0:0:0:
416,254,9606,2,0,P|364:276|303:253,1,120,0|0,0:0|0:0,0:0:0:0:
284,187,10135,2,0,L|276:122,1,60,0|0,0:0|0:0,0:0:0:0:
237,360,10488,2,0,L|245:301,1,60,8|0,0:0|0:0,0:0:0:0:
213,228,10841,2,0,P|174:246|95:228,1,120,0|2,0:0|0:0,0:0:0:0:
63,169,11370,1,0,0:0:0:0:
72,37,11547,38,0,L|64:97,1,60,0|0,0:0|0:0,0:0:0:0:
129,126,11899,2,0,P|190:114|245:141,1,120,8|0,0:0|0:0,0:0:0:0:
284,196,12429,1,0,0:0:0:0:
280,77,12605,2,0,L|284:196,1,120,2|0,0:0|0:0,0:0:0:0:
409,278,13134,2,0,L|404:158,1,120,0|0,0:0|0:0,0:0:0:0:
270,276,13664,2,0,P|300:276|328:266,1,60,0|0,0:0|0:0,0:0:0:0:
212,220,14016,5,0,0:0:0:0:
212,220,14193,2,0,P|190:276|228:342,1,120,2|0,0:0|0:0,0:0:0:0:
279,354,14722,2,0,L|338:344,1,60,8|0,0:0|0:0,0:0:0:0:
152,338,15075,2,0,L|211:328,1,60,0|0,0:0|0:0,0:0:0:0:
86,289,15428,5,6,0:0:0:0:
86,289,16133,6,0,P|105:232|88:171,1,120,8|0,0:0|0:0,0:0:0:0:
50,115,16662,1,0,0:0:0:0:
121,110,16839,2,0,L|179:97,2,60,2|0|0,0:0|0:0|0:0,0:0:0:0:
50,115,17368,1,0,0:0:0:0:
225,41,17545,2,0,P|251:93|232:149,1,120,8|0,0:0|0:0,0:0:0:0:
197,212,18074,1,0,0:0:0:0:
268,212,18250,38,0,P|329:236|392:213,1,120,2|0,0:0|0:0,0:0:0:0:
409,156,18779,2,0,L|430:283,1,120,2|0,0:0|0:0,0:0:0:0:
385,332,19309,2,0,B|358:311|357:274|357:274|335:296|303:297,1,120,2|2,0:0|0:0,0:0:0:0:
305,226,19838,6,0,P|250:220|218:168,1,120,0|0,0:0|0:0,0:0:0:0:
234,98,20367,2,0,L|249:35,1,60,8|0,0:0|0:0,0:0:0:0:
230,241,20720,2,0,L|216:299,1,60,0|0,0:0|0:0,0:0:0:0:
118,176,21073,5,2,0:0:0:0:
118,176,21426,2,0,L|132:118,1,60,0|0,0:0|0:0,0:0:0:0:
168,55,21778,2,0,P|106:51|63:98,1,120,8|0,0:0|0:0,0:0:0:0:
42,156,22308,1,0,0:0:0:0:
70,283,22484,6,0,L|64:224,2,60,2|0|0,0:0|0:0|0:0,0:0:0:0:
127,328,23013,1,0,0:0:0:0:
202,339,23190,2,0,P|190:282|134:251,1,120,8|0,0:0|0:0,0:0:0:0:
198,192,23719,1,0,0:0:0:0:
314,250,23895,38,0,L|255:241,1,60,2|0,0:0|0:0,0:0:0:0:
393,333,24248,2,0,L|333:323,1,60,0|0,0:0|0:0,0:0:0:0:
430,260,24601,2,0,L|489:269,1,60,8|0,0:0|0:0,0:0:0:0:
344,177,24954,2,0,L|403:186,1,60,0|0,0:0|0:0,0:0:0:0:
279,117,25306,6,0,P|233:148|170:143,1,120,2|0,0:0|0:0,0:0:0:0:
109,105,25836,1,0,0:0:0:0:
279,117,26012,2,0,L|261:242,2,120,8|0|2,0:0|0:0|0:0,0:0:0:0:
357,62,26894,5,0,0:0:0:0:
369,212,27071,1,0,0:0:0:0:
447,137,27247,1,0,0:0:0:0:
446,268,27423,2,0,L|437:337,1,60,8|0,0:0|0:0,0:0:0:0:
288,326,27776,2,0,L|295:266,1,60,0|0,0:0|0:0,0:0:0:0:
281,140,28129,5,2,0:0:0:0:
281,140,28305,2,0,P|229:148|164:118,1,120,0|0,0:0|0:0,0:0:0:0:
49,216,28835,2,0,P|101:208|166:238,1,120,8|0,0:0|0:0,0:0:0:0:
227,264,29364,1,0,0:0:0:0:
297,251,29540,38,0,L|361:240,1,60,2|0,0:0|0:0,0:0:0:0:
391,177,29893,1,0,0:0:0:0:
388,306,30070,1,0,0:0:0:0:
463,213,30246,2,0,P|471:173|461:143,2,60,8|0|0,0:0|0:0|0:0,0:0:0:0:
461,285,30775,1,0,0:0:0:0:
388,306,30952,6,0,P|333:289|277:315,1,120,2|0,0:0|0:0,0:0:0:0:
100,262,31481,1,0,0:0:0:0:
100,262,31657,2,0,P|156:278|210:255,1,120,8|0,0:0|0:0,0:0:0:0:
263,206,32186,1,0,0:0:0:0:
192,312,32363,6,0,L|209:255,1,60,2|0,0:0|0:0,0:0:0:0:
219,75,32716,2,0,L|236:132,1,60,0|0,0:0|0:0,0:0:0:0:
398,248,33068,2,0,L|340:230,1,60,8|0,0:0|0:0,0:0:0:0:
175,183,33421,1,0,0:0:0:0:
175,183,33598,1,0,0:0:0:0:
330,145,33774,6,0,P|387:133|430:91,1,120,2|0,0:0|0:0,0:0:0:0:
397,248,34303,1,0,0:0:0:0:
397,248,34480,2,0,P|454:260|497:302,1,120,8|0,0:0|0:0,0:0:0:0:
473,225,35009,1,0,0:0:0:0:
473,225,35185,38,0,L|484:165,1,60,2|0,0:0|0:0,0:0:0:0:
461,62,35538,1,0,0:0:0:0:
375,154,35715,1,0,0:0:0:0:
340,46,35891,2,0,L|282:21,1,60,8|0,0:0|0:0,0:0:0:0:
197,144,36244,2,0,L|252:120,1,60,0|0,0:0|0:0,0:0:0:0:
162,240,36597,6,0,P|100:178|115:84,2,180,2|0|0,0:0|0:0|0:0,0:0:0:0:
288,234,38008,6,0,L|305:299,1,60,2|0,0:0|0:0,0:0:0:0:
306,364,38361,2,0,P|355:348|372:266,1,120,0|8,0:0|0:0,0:0:0:0:
364,216,38890,1,0,0:0:0:0:
269,122,39066,2,0,L|315:162,1,60,0|0,0:0|0:0,0:0:0:0:
217,191,39419,5,0,0:0:0:0:
217,191,39596,2,0,P|169:218|104:209,1,120,2|0,0:0|0:0,0:0:0:0:
21,93,40125,2,0,P|69:66|134:75,1,120,8|0,0:0|0:0,0:0:0:0:
151,146,40654,1,0,0:0:0:0:
99,285,40830,38,0,P|53:260|39:181,1,120,2|0,0:0|0:0,0:0:0:0:
214,318,41360,2,0,L|104:366,1,120,2|0,0:0|0:0,0:0:0:0:
170,250,41889,2,0,L|280:202,1,120,2|0,0:0|0:0,0:0:0:0:
295,284,42418,5,0,0:0:0:0:
310,129,42595,1,0,0:0:0:0:
407,197,42771,1,0,0:0:0:0:
391,73,42947,2,0,L|378:8,1,60,8|0,0:0|0:0,0:0:0:0:
493,168,43300,2,0,L|480:103,1,60,0|0,0:0|0:0,0:0:0:0:
476,254,43653,5,2,0:0:0:0:
473,28,44006,1,0,0:0:0:0:
491,333,44359,2,0,P|446:331|399:262,1,120,8|0,0:0|0:0,0:0:0:0:
407,197,44888,1,0,0:0:0:0:
414,347,45064,2,0,L|349:353,1,60,2|0,0:0|0:0,0:0:0:0:
236,305,45417,2,0,L|295:299,1,60,0|0,0:0|0:0,0:0:0:0:
250,153,45770,6,0,P|277:206|336:223,1,120,8|0,0:0|0:0,0:0:0:0:
327,145,46299,1,0,0:0:0:0:
202,249,46475,2,0,P|175:302|116:319,1,120,2|0,0:0|0:0,0:0:0:0:
124,242,47005,1,0,0:0:0:0:
192,48,47181,38,0,L|184:108,1,60,8|0,0:0|0:0,0:0:0:0:
124,241,47534,2,0,L|116:182,1,60,0|0,0:0|0:0,0:0:0:0:
5,114,47887,2,0,P|63:117|108:80,1,120,2|0,0:0|0:0,0:0:0:0:
308,168,48416,1,0,0:0:0:0:
308,168,48592,2,0,P|249:165|204:202,1,120,8|0,0:0|0:0,0:0:0:0:
196,273,49122,1,0,0:0:0:0:
239,121,49298,5,6,0:0:0:0:
288,272,49474,1,0,0:0:0:0:
390,177,49651,1,0,0:0:0:0:
373,262,49827,1,0,0:0:0:0:
341,87,50004,2,0,L|364:27,1,60,8|0,0:0|0:0,0:0:0:0:
240,201,50356,2,0,P|209:195|176:168,1,60,0|0,0:0|0:0,0:0:0:0:
451,231,50709,6,0,P|451:294|410:337,1,120,2|0,0:0|0:0,0:0:0:0:
342,334,51239,1,0,0:0:0:0:
465,157,51415,2,0,L|493:282,1,120,8|0,0:0|0:0,0:0:0:0:
491,346,51944,1,0,0:0:0:0:
373,262,52121,6,0,P|339:257|306:265,1,60,2|0,0:0|0:0,0:0:0:0:
180,220,52473,2,0,P|214:225|247:217,1,60,0|0,0:0|0:0,0:0:0:0:
305,116,52826,2,0,L|312:176,1,60,8|0,0:0|0:0,0:0:0:0:
253,362,53179,2,0,L|246:302,1,60,0|0,0:0|0:0,0:0:0:0:
130,160,53532,38,0,P|102:209|126:278,1,120,2|0,0:0|0:0,0:0:0:0:
175,310,54061,1,0,0:0:0:0:
51,354,54237,2,0,L|109:340,1,60,8|0,0:0|0:0,0:0:0:0:
57,216,54590,2,0,P|63:245|60:275,1,60,0|0,0:0|0:0,0:0:0:0:
53,137,54943,6,0,P|91:92|153:85,1,120,2|0,0:0|0:0,0:0:0:0:
203,131,55472,1,0,0:0:0:0:
264,168,55649,2,0,P|320:176|375:136,2,120,8|0|2,0:0|0:0|0:0,0:0:0:0:
303,101,56531,1,0,0:0:0:0:
351,248,56707,1,0,0:0:0:0:
264,168,56884,1,0,0:0:0:0:
271,247,57060,6,0,P|268:285|256:313,1,60,8|0,0:0|0:0,0:0:0:0:
174,364,57413,2,0,P|177:326|189:298,1,60,0|0,0:0|0:0,0:0:0:0:
337,323,57766,2,0,P|395:313|427:255,1,120,2|0,0:0|0:0,0:0:0:0:
393,198,58295,1,0,0:0:0:0:
479,321,58471,2,0,P|498:265|476:211,1,120,8|0,0:0|0:0,0:0:0:0:
393,198,59000,1,0,0:0:0:0:
261,250,59177,6,0,L|318:230,1,60,2|0,0:0|0:0,0:0:0:0:
128,229,59530,2,0,L|184:208,1,60,0|0,0:0|0:0,0:0:0:0:
48,171,59883,1,8,0:0:0:0:
160,43,60059,1,0,0:0:0:0:
211,125,60235,1,0,0:0:0:0:
59,71,60412,1,0,0:0:0:0:
205,204,60588,38,0,P|269:177|289:111,1,143.999995605469,4|0,0:0|0:0,0:0:0:0:
211,125,61117,1,0,0:0:0:0:
320,257,61294,2,0,P|255:283|235:349,1,143.999995605469,8|0,0:0|0:0,0:0:0:0:
315,337,61823,1,0,0:0:0:0:
366,188,61999,2,0,L|375:110,1,71.9999978027344,2|0,0:0|0:0,0:0:0:0:
444,211,62352,2,0,L|452:282,1,71.9999978027344,0|0,0:0|0:0,0:0:0:0:
401,347,62705,5,8,0:0:0:0:
365,267,62881,1,0,0:0:0:0:
315,337,63058,1,0,0:0:0:0:
290,218,63234,1,0,0:0:0:0:
238,285,63411,6,0,P|177:307|99:278,1,143.999995605469,2|0,0:0|0:0,0:0:0:0:
290,217,63940,1,0,0:0:0:0:
290,218,64116,2,0,P|356:242|423:220,1,143.999995605469,8|0,0:0|0:0,0:0:0:0:
243,146,64646,1,0,0:0:0:0:
243,146,64822,2,0,P|216:176|210:222,1,71.9999978027344,2|0,0:0|0:0,0:0:0:0:
310,106,65175,2,0,P|280:79|234:73,1,71.9999978027344,0|0,0:0|0:0,0:0:0:0:
362,173,65528,6,0,L|443:145,1,71.9999978027344,8|0,0:0|0:0,0:0:0:0:
347,249,65880,2,0,L|278:272,1,71.9999978027344,0|0,0:0|0:0,0:0:0:0:
412,296,66233,1,10,0:0:0:0:
387,85,66586,1,0,0:0:0:0:
412,296,66939,2,0,L|402:377,1,71.9999978027344,8|0,0:0|0:0,0:0:0:0:
484,241,67292,2,0,L|475:169,1,71.9999978027344,0|0,0:0|0:0,0:0:0:0:
284,163,67644,54,0,P|353:175|407:130,1,143.999995605469,2|0,0:0|0:0,0:0:0:0:
331,94,68174,1,0,0:0:0:0:
374,269,68350,2,0,P|305:257|251:302,1,143.999995605469,8|0,0:0|0:0,0:0:0:0:
326,335,68879,1,0,0:0:0:0:
212,213,69056,38,0,B|203:174|203:174|212:151|197:127|197:127|208:107|199:73,1,135.000005149841,2|0,0:0|0:0,0:0:0:0:
178,234,69761,6,0,B|169:195|169:195|178:172|163:148|163:148|174:128|167:103,1,135.000005149841,8|0,0:0|0:0,0:0:0:0:
132,256,70467,70,0,B|123:217|123:217|132:194|117:170|117:170|128:150|119:116,1,135.000005149841,2|0,0:0|0:0,0:0:0:0:
167,49,71173,21,8,0:0:0:0:
259,181,71349,1,0,0:0:0:0:
258,22,71525,1,0,0:0:0:0:
312,96,71702,1,0,0:0:0:0:
174,142,71878,6,0,P|139:164|86:164,1,71.9999978027344,4|0,0:0|0:0,0:0:0:0:
259,182,72231,2,0,P|294:204|347:204,1,71.9999978027344,0|0,0:0|0:0,0:0:0:0:
181,237,72584,2,0,L|163:310,1,71.9999978027344,8|0,0:0|0:0,0:0:0:0:
279,367,72937,2,0,L|261:297,1,71.9999978027344,0|0,0:0|0:0,0:0:0:0:
354,254,73290,6,0,P|412:289|487:271,1,143.999995605469,2|0,0:0|0:0,0:0:0:0:
428,200,73819,1,0,0:0:0:0:
381,96,73995,5,8,0:0:0:0:
270,166,74172,1,0,0:0:0:0:
354,255,74348,1,0,0:0:0:0:
352,172,74524,1,0,0:0:0:0:
433,288,74701,38,0,P|385:331|303:322,1,143.999995605469,2|0,0:0|0:0,0:0:0:0:
240,276,75230,1,0,0:0:0:0:
349,351,75406,2,0,P|281:333|240:276,1,143.999995605469,8|0,0:0|0:0,0:0:0:0:
243,188,75936,1,0,0:0:0:0:
308,132,76112,2,0,P|376:150|417:207,1,143.999995605469,2|0,0:0|0:0,0:0:0:0:
419,294,76641,1,0,0:0:0:0:
478,168,76818,6,0,P|489:202|485:238,1,71.9999978027344,8|0,0:0|0:0,0:0:0:0:
343,370,77171,2,0,P|332:335|336:300,1,71.9999978027344,0|0,0:0|0:0,0:0:0:0:
419,293,77523,1,4,0:0:0:0:
376,98,77876,1,0,0:0:0:0:
419,294,78229,6,0,L|352:262,1,71.9999978027344,8|0,0:0|0:0,0:0:0:0:
448,190,78582,2,0,L|515:158,1,71.9999978027344,0|0,0:0|0:0,0:0:0:0:
376,98,78935,6,0,P|319:113|254:54,1,143.999995605469,2|0,0:0|0:0,0:0:0:0:
331,33,79464,1,0,0:0:0:0:
365,180,79640,2,0,L|345:254,1,71.9999978027344,8|0,0:0|0:0,0:0:0:0:
251,319,79993,2,0,L|269:249,1,71.9999978027344,0|0,0:0|0:0,0:0:0:0:
230,172,80346,37,2,0:0:0:0:
408,349,80699,1,0,0:0:0:0:
378,85,81052,1,8,0:0:0:0:
251,319,81404,1,0,0:0:0:0:
485,215,81757,1,2,0:0:0:0:
256,192,81845,12,4,83168,0:0:0:0:
172,124,83521,5,0,0:0:0:0:
172,124,83698,2,0,P|148:187|172:258,1,143.999995605469,2|0,0:0|0:0,0:0:0:0:
340,260,84227,2,0,P|364:197|340:126,1,143.999995605469,2|2,0:0|0:0,0:0:0:0:
256,191,84756,1,0,0:0:0:0:
245,290,84933,2,0,P|265:326|306:350,1,71.9999978027344,0|0,0:0|0:0,0:0:0:0:
460,219,85285,6,0,P|393:211|336:273,1,143.999995605469,8|0,0:0|0:0,0:0:0:0:
419,293,85815,1,0,0:0:0:0:
316,136,85991,2,0,P|257:165|185:135,1,143.999995605469,2|0,0:0|0:0,0:0:0:0:
249,84,86520,1,0,0:0:0:0:
216,245,86697,2,0,L|191:325,1,71.9999978027344,8|0,0:0|0:0,0:0:0:0:
338,205,87049,2,0,L|316:136,1,71.9999978027344,0|0,0:0|0:0,0:0:0:0:
309,318,87402,6,0,P|370:355|449:337,1,143.999995605469,2|0,0:0|0:0,0:0:0:0:
468,231,87931,1,0,0:0:0:0:
468,231,88108,2,0,P|407:194|328:212,1,143.999995605469,8|0,0:0|0:0,0:0:0:0:
390,275,88637,1,0,0:0:0:0:
492,139,88813,38,0,P|514:77|482:7,1,143.999995605469,2|0,0:0|0:0,0:0:0:0:
308,52,89343,6,0,B|337:95|337:95|386:111|424:78,1,143.999995605469,2|0,0:0|0:0,0:0:0:0:
328,207,89872,6,0,B|312:171|312:171|284:163|266:131|266:131|224:123,1,143.999995605469,2|2,0:0|0:0,0:0:0:0:
158,68,90401,1,0,0:0:0:0:
117,189,90578,2,0,L|189:200,1,71.9999978027344,0|0,0:0|0:0,0:0:0:0:
99,270,90930,6,0,P|43:228|52:146,1,143.999995605469,8|0,0:0|0:0,0:0:0:0:
75,78,91460,1,0,0:0:0:0:
190,148,91636,2,0,L|221:226,1,71.9999978027344,2|0,0:0|0:0,0:0:0:0:
283,167,91989,2,0,L|314:245,1,71.9999978027344,0|0,0:0|0:0,0:0:0:0:
459,162,92342,2,0,L|432:95,1,71.9999978027344,8|0,0:0|0:0,0:0:0:0:
366,143,92694,2,0,L|339:76,1,71.9999978027344,0|0,0:0|0:0,0:0:0:0:
401,224,93047,38,0,P|383:291|315:327,1,143.999995605469,2|0,0:0|0:0,0:0:0:0:
250,276,93577,1,0,0:0:0:0:
401,224,93753,2,0,L|478:224,1,71.9999978027344,8|0,0:0|0:0,0:0:0:0:
313,244,94106,2,0,P|284:265|250:275,1,71.9999978027344,2|0,0:0|0:0,0:0:0:0:
337,158,94459,6,0,B|315:111|336:73|336:73|317:15,1,143.999995605469,2|0,0:0|0:0,0:0:0:0:
119,93,94988,6,0,P|187:108|248:73,1,143.999995605469,2|0,0:0|0:0,0:0:0:0:
53,40,95517,6,0,B|24:75|33:119|33:119|54:144|55:180,1,143.999995605469,2|2,0:0|0:0,0:0:0:0:
24,254,96046,1,0,0:0:0:0:
136,174,96223,2,0,P|129:209|108:238,1,71.9999978027344,0|0,0:0|0:0,0:0:0:0:
255,216,96575,2,0,P|228:192|214:159,1,71.9999978027344,8|0,0:0|0:0,0:0:0:0:
163,300,96928,2,0,P|196:288|232:293,1,71.9999978027344,0|0,0:0|0:0,0:0:0:0:
295,149,97281,38,0,B|286:111|258:94|258:94|301:76|313:22,1,143.999995605469,4|0,0:0|0:0,0:0:0:0:
392,23,97810,1,0,0:0:0:0:
436,96,97987,2,0,P|398:109|352:97,1,71.9999978027344,8|0,0:0|0:0,0:0:0:0:
436,236,98340,2,0,P|443:196|477:162,1,71.9999978027344,2|0,0:0|0:0,0:0:0:0:
312,162,98692,6,0,P|352:213|332:289,1,143.999995605469,2|0,0:0|0:0,0:0:0:0:
265,233,99222,1,0,0:0:0:0:
416,317,99398,2,0,L|501:308,1,71.9999978027344,8|0,0:0|0:0,0:0:0:0:
267,93,99751,2,0,P|242:118|232:153,1,71.9999978027344,2|0,0:0|0:0,0:0:0:0:
312,321,100104,5,2,0:0:0:0:
404,157,100456,1,0,0:0:0:0:
504,330,100809,1,8,0:0:0:0:
480,88,101162,1,0,0:0:0:0:
409,259,101515,5,2,0:0:0:0:
361,75,101868,1,0,0:0:0:0:
492,194,102221,1,8,0:0:0:0:
323,186,102573,1,0,0:0:0:0:
256,192,102926,12,0,104249,0:0:0:0:
256,192,104337,12,0,105660,0:0:0:0:
256,192,105749,12,0,107072,0:0:0:0:
256,192,107160,12,4,108571,0:0:0:0:
54,307,109277,38,0,P|14:265|10:205,1,120,8|0,0:0|0:0,0:0:0:0:
70,165,109806,2,0,L|195:146,1,120,0|0,0:0|0:0,0:0:0:0:
257,124,110335,6,0,L|271:66,1,60,0|0,0:0|0:0,0:0:0:0:
244,196,110688,2,0,L|230:254,1,60,8|0,0:0|0:0,0:0:0:0:
168,291,111041,1,0,0:0:0:0:
302,268,111217,1,0,0:0:0:0:
302,268,111306,1,0,0:0:0:0:
302,268,111394,6,0,P|351:296|412:283,1,120,2|0,0:0|0:0,0:0:0:0:
466,238,111923,1,0,0:0:0:0:
491,367,112099,2,0,L|481:308,1,60,8|0,0:0|0:0,0:0:0:0:
407,152,112452,2,0,L|396:211,1,60,0|0,0:0|0:0,0:0:0:0:
478,117,112805,6,0,P|434:77|369:84,2,120,2|0|8,0:0|0:0|0:0,0:0:0:0:
507,182,113687,1,0,0:0:0:0:
376,79,113863,2,0,L|359:13,1,60,0|0,0:0|0:0,0:0:0:0:
407,152,114216,38,0,B|371:165|339:148|339:148|305:191,1,120,2|0,0:0|0:0,0:0:0:0:
262,242,114746,1,0,0:0:0:0:
78,96,114922,2,0,B|114:109|146:92|146:92|180:135,1,120,8|0,0:0|0:0,0:0:0:0:
236,171,115451,1,0,0:0:0:0:
265,301,115628,6,0,L|262:242,1,60,2|0,0:0|0:0,0:0:0:0:
190,367,115980,2,0,L|186:307,1,60,0|0,0:0|0:0,0:0:0:0:
345,301,116333,2,0,P|324:355|271:380,1,120,8|0,0:0|0:0,0:0:0:0:
265,301,116862,1,0,0:0:0:0:
373,234,117039,6,0,L|388:360,2,120,2|0|8,0:0|0:0|0:0,0:0:0:0:
333,159,117921,1,0,0:0:0:0:
457,259,118097,1,0,0:0:0:0:
437,164,118274,1,0,0:0:0:0:
457,259,118450,6,0,L|465:324,1,60,2|0,0:0|0:0,0:0:0:0:
437,164,118803,2,0,L|429:104,1,60,0|0,0:0|0:0,0:0:0:0:
376,230,119156,2,0,P|325:242|266:203,1,120,8|0,0:0|0:0,0:0:0:0:
259,137,119685,1,0,0:0:0:0:
253,256,119861,38,0,L|259:137,1,120,4|0,0:0|0:0,0:0:0:0:
137,321,120567,2,0,L|142:201,1,120,8|0,0:0|0:0,0:0:0:0:
377,218,121273,2,0,L|372:338,1,120,2|0,0:0|0:0,0:0:0:0:
254,255,121978,2,0,L|260:136,1,120,8|0,0:0|0:0,0:0:0:0:
134,68,122684,6,0,P|96:111|26:112,1,120,2|0,0:0|0:0,0:0:0:0:
58,41,123213,1,0,0:0:0:0:
105,149,123390,2,0,P|120:176|127:211,1,60,8|0,0:0|0:0,0:0:0:0:
92,314,123742,2,0,P|77:287|70:252,1,60,0|0,0:0|0:0,0:0:0:0:
0,292,124095,5,0,0:0:0:0:
0,292,124272,2,0,P|-1:231|48:182,1,120,2|0,0:0|0:0,0:0:0:0:
186,119,124801,2,0,P|187:180|138:229,1,120,8|0,0:0|0:0,0:0:0:0:
81,245,125330,1,0,0:0:0:0:
224,203,125506,6,0,P|284:192|343:218,1,120,2|0,0:0|0:0,0:0:0:0:
442,88,126212,2,0,P|382:99|323:73,1,120,8|0,0:0|0:0,0:0:0:0:
432,187,126918,2,0,B|435:226|435:226|430:246|430:246|445:276|432:316,1,120,2|0,0:0|0:0,0:0:0:0:
259,136,127623,2,0,B|256:97|256:97|261:77|261:77|246:47|259:7,1,120,8|0,0:0|0:0,0:0:0:0:
256,192,128329,12,0,130446,0:0:0:0:
437,171,130799,21,2,0:0:0:0:
437,171,131151,70,0,L|280:209,1,155.999992858887,4|0,0:0|0:0,0:0:0:0:
192,195,131681,1,0,0:0:0:0:
297,298,131857,2,0,P|322:325|332:367,1,77.9999964294435,8|0,0:0|0:0,0:0:0:0:
349,105,132210,2,0,P|350:68|373:31,1,77.9999964294435,2|0,0:0|0:0,0:0:0:0:
512,214,132563,6,0,P|466:258|379:238,1,155.999992858887,2|0,0:0|0:0,0:0:0:0:
437,171,133092,1,0,0:0:0:0:
512,316,133268,1,8,0:0:0:0:
381,240,133445,1,0,0:0:0:0:
419,322,133621,1,0,0:0:0:0:
437,171,133798,1,0,0:0:0:0:
336,313,133974,70,0,P|268:338|185:311,1,155.999992858887,2|0,0:0|0:0,0:0:0:0:
160,226,134503,1,0,0:0:0:0:
336,313,134680,2,0,L|366:391,1,77.9999964294435,8|0,0:0|0:0,0:0:0:0:
264,230,135032,2,0,L|292:157,1,77.9999964294435,0|0,0:0|0:0,0:0:0:0:
192,315,135385,38,0,P|156:324|112:308,1,77.9999964294435,2|8,0:0|0:0,0:0:0:0:
101,301,135650,1,0,0:0:0:0:
88,286,135738,1,0,0:0:0:0:
147,149,135915,1,0,0:0:0:0:
267,270,136091,2,0,L|293:345,1,77.9999964294435,8|0,0:0|0:0,0:0:0:0:
331,167,136444,2,0,P|296:145|254:141,1,77.9999964294435,0|0,0:0|0:0,0:0:0:0:
387,271,136797,38,0,P|462:269|503:202,1,155.999992858887,4|0,0:0|0:0,0:0:0:0:
423,200,137326,1,0,0:0:0:0:
409,356,137502,2,0,P|366:348|328:357,1,77.9999964294435,8|0,0:0|0:0,0:0:0:0:
191,270,137855,2,0,P|234:278|272:269,1,77.9999964294435,0|0,0:0|0:0,0:0:0:0:
368,131,138208,2,0,B|336:163|339:216|339:216|362:249|355:290,1,155.999992858887,2|0,0:0|0:0,0:0:0:0:
267,271,138737,1,0,0:0:0:0:
391,348,138913,2,0,P|357:356|310:340,1,77.9999964294435,8|0,0:0|0:0,0:0:0:0:
210,124,139266,2,0,P|244:116|291:132,1,77.9999964294435,0|0,0:0|0:0,0:0:0:0:
398,76,139619,54,0,B|360:97|358:140|358:140|351:177|329:186,1,135.000005149841,2|0,0:0|0:0,0:0:0:0:
499,252,140325,54,0,B|478:243|471:206|471:206|469:163|431:142,1,135.000005149841,8|0,0:0|0:0,0:0:0:0:
401,208,141030,38,0,B|363:229|361:272|361:272|354:309|332:318,1,135.000005149841,2|0,0:0|0:0,0:0:0:0:
292,259,141736,5,8,0:0:0:0:
421,314,141912,1,0,0:0:0:0:
345,190,142089,1,0,0:0:0:0:
340,328,142265,1,0,0:0:0:0:
422,230,142442,6,0,L|498:199,1,77.9999964294435,4|0,0:0|0:0,0:0:0:0:
415,36,142794,2,0,P|418:75|438:109,1,77.9999964294435,0|0,0:0|0:0,0:0:0:0:
294,88,143147,2,0,P|257:74|207:82,1,77.9999964294435,8|0,0:0|0:0,0:0:0:0:
125,159,143500,2,0,P|162:173|212:165,1,77.9999964294435,0|0,0:0|0:0,0:0:0:0:
351,260,143853,70,0,B|325:222|278:227|278:227|248:267|202:263,1,155.999992858887,2|0,0:0|0:0,0:0:0:0:
95,250,144382,1,0,0:0:0:0:
199,169,144559,1,8,0:0:0:0:
184,325,144735,1,0,0:0:0:0:
271,213,144911,1,0,0:0:0:0:
290,368,145088,1,0,0:0:0:0:
347,223,145264,38,0,P|400:164|476:173,1,155.999992858887,2|0,0:0|0:0,0:0:0:0:
429,240,145793,1,0,0:0:0:0:
358,84,145970,2,0,P|289:109|216:67,1,155.999992858887,8|0,0:0|0:0,0:0:0:0:
294,22,146499,1,0,0:0:0:0:
194,182,146675,2,0,L|174:262,1,77.9999964294435,2|0,0:0|0:0,0:0:0:0:
170,276,146940,1,0,0:0:0:0:
165,295,147028,1,0,0:0:0:0:
155,112,147205,1,0,0:0:0:0:
263,244,147381,38,0,P|298:253|348:241,1,77.9999964294435,8|0,0:0|0:0,0:0:0:0:
416,114,147734,2,0,P|389:142|376:178,1,77.9999964294435,0|0,0:0|0:0,0:0:0:0:
465,359,148087,2,0,B|494:313|470:264|470:264|416:247,1,155.999992858887,4|0,0:0|0:0,0:0:0:0:
465,359,148616,1,0,0:0:0:0:
482,182,148792,2,0,L|503:107,1,77.9999964294435,8|0,0:0|0:0,0:0:0:0:
340,307,149145,2,0,L|361:382,1,77.9999964294435,0|0,0:0|0:0,0:0:0:0:
328,167,149498,2,0,B|300:136|262:142|262:142|230:186|177:172,2,155.999992858887,2|0|8,0:0|0:0|0:0,0:0:0:0:
273,238,150380,53,0,0:0:0:0:
200,105,150556,2,0,L|168:28,1,77.9999964294435,0|0,0:0|0:0,0:0:0:0:
273,238,150909,1,2,0:0:0:0:
303,73,151086,1,0,0:0:0:0:
303,73,151174,1,0,0:0:0:0:
303,73,151262,1,0,0:0:0:0:
317,306,151438,2,0,P|242:310|193:244,1,155.999992858887,0|0,0:0|0:0,0:0:0:0:
353,235,151968,2,0,P|384:268|395:309,1,77.9999964294435,0|0,0:0|0:0,0:0:0:0:
273,238,152320,5,2,0:0:0:0:
303,73,152497,1,0,0:0:0:0:
353,235,152673,1,0,0:0:0:0:
375,146,152850,1,0,0:0:0:0:
247,139,153026,1,8,0:0:0:0:
132,263,153203,1,0,0:0:0:0:
144,167,153379,1,0,0:0:0:0:
218,315,153555,1,0,0:0:0:0:
353,235,153732,6,0,P|428:250|450:326,1,155.999992858887,4|0,0:0|0:0,0:0:0:0:
378,306,154261,1,0,0:0:0:0:
457,172,154437,2,0,L|473:91,1,77.9999964294435,8|0,0:0|0:0,0:0:0:0:
337,158,154790,2,0,L|352:234,1,77.9999964294435,0|0,0:0|0:0,0:0:0:0:
381,73,155143,2,0,B|323:45|274:86|274:86|219:72,1,155.999992858887,2|0,0:0|0:0,0:0:0:0:
158,55,155672,1,0,0:0:0:0:
247,163,155849,2,0,L|170:142,1,77.9999964294435,8|0,0:0|0:0,0:0:0:0:
31,235,156201,2,0,L|108:214,1,77.9999964294435,0|0,0:0|0:0,0:0:0:0:
271,356,156554,6,0,P|199:340|180:268,1,155.999992858887,2|0,0:0|0:0,0:0:0:0:
145,198,157084,1,0,0:0:0:0:
68,71,157260,2,0,L|85:148,1,77.9999964294435,8|0,0:0|0:0,0:0:0:0:
251,287,157613,2,0,L|267:210,1,77.9999964294435,0|0,0:0|0:0,0:0:0:0:
293,75,157966,2,0,P|234:122|160:107,1,155.999992858887,2|0,0:0|0:0,0:0:0:0:
214,40,158495,1,0,0:0:0:0:
267,210,158671,70,0,L|251:287,1,77.9999964294435,8|0,0:0|0:0,0:0:0:0:
426,220,159024,2,0,L|410:143,1,77.9999964294435,0|0,0:0|0:0,0:0:0:0:
344,244,159377,2,0,P|392:301|475:292,1,155.999992858887,4|0,0:0|0:0,0:0:0:0:
508,229,159906,1,0,0:0:0:0:
401,338,160082,2,0,L|309:356,1,77.9999964294435,8|0,0:0|0:0,0:0:0:0:
331,86,160435,2,0,P|342:123|338:162,1,77.9999964294435,0|0,0:0|0:0,0:0:0:0:
161,353,160788,54,0,P|203:291|279:291,1,155.999992858887,2|0,0:0|0:0,0:0:0:0:
243,362,161317,1,0,0:0:0:0:
265,199,161494,2,0,P|189:198|147:136,1,155.999992858887,8|0,0:0|0:0,0:0:0:0:
232,126,162023,1,0,0:0:0:0:
121,241,162199,54,0,B|104:281|104:281|60:255|14:291,1,135.000005149841,2|0,0:0|0:0,0:0:0:0:
175,297,162905,70,0,P|132:346|68:342,1,135.000005149841,8|0,0:0|0:0,0:0:0:0:
309,285,163611,6,0,B|247:270|247:270|233:234|191:220,1,135.000005149841,2|0,0:0|0:0,0:0:0:0:
312,362,164316,70,0,L|236:346,1,77.9999964294435,8|0,0:0|0:0,0:0:0:0:
452,337,164669,2,0,L|375:320,1,77.9999964294435,0|0,0:0|0:0,0:0:0:0:
505,275,165022,70,0,P|474:211|501:123,1,155.999992858887,4|0,0:0|0:0,0:0:0:0:
498,53,165551,1,0,0:0:0:0:
505,275,165728,2,0,L|424:246,1,77.9999964294435,8|0,0:0|0:0,0:0:0:0:
326,140,166080,2,0,L|399:166,1,77.9999964294435,0|0,0:0|0:0,0:0:0:0:
241,193,166433,70,0,B|193:218|193:218|147:182|92:214,1,155.999992858887,2|0,0:0|0:0,0:0:0:0:
141,272,166962,1,0,0:0:0:0:
345,212,167139,2,0,P|344:173|326:140,1,77.9999964294435,8|0,0:0|0:0,0:0:0:0:
259,297,167492,2,0,P|259:335|278:369,1,77.9999964294435,0|0,0:0|0:0,0:0:0:0:
504,334,167844,6,0,P|439:294|366:315,1,155.999992858887,2|0,0:0|0:0,0:0:0:0:
366,314,168374,1,0,0:0:0:0:
341,170,168550,2,0,P|406:209|479:189,1,155.999992858887,8|0,0:0|0:0,0:0:0:0:
418,114,169079,1,0,0:0:0:0:
336,273,169256,37,2,0:0:0:0:
323,84,169432,1,0,0:0:0:0:
323,84,169520,1,0,0:0:0:0:
323,84,169609,1,0,0:0:0:0:
429,248,169785,1,0,0:0:0:0:
253,191,169961,38,0,P|215:200|170:187,1,77.9999964294435,8|0,0:0|0:0,0:0:0:0:
52,275,170314,2,0,P|90:266|135:279,1,77.9999964294435,0|0,0:0|0:0,0:0:0:0:
258,367,170667,2,0,B|186:352|186:352|226:318|222:278,1,155.999992858887,4|0,0:0|0:0,0:0:0:0:
177,191,171196,1,0,0:0:0:0:
337,333,171373,54,0,L|422:341,1,77.9999964294435,8|0,0:0|0:0,0:0:0:0:
512,250,171725,2,0,L|434:242,1,77.9999964294435,0|0,0:0|0:0,0:0:0:0:
276,153,172078,2,0,P|283:226|353:248,1,155.999992858887,2|0,0:0|0:0,0:0:0:0:
390,179,172607,1,0,0:0:0:0:
466,162,172784,21,8,0:0:0:0:
363,347,173137,1,0,0:0:0:0:
305,64,173489,2,0,L|225:39,1,77.9999964294435,2|0,0:0|0:0,0:0:0:0:
92,165,173842,2,0,L|166:141,1,77.9999964294435,0|0,0:0|0:0,0:0:0:0:
253,209,174195,1,8,0:0:0:0:
141,50,174372,1,0,0:0:0:0:
141,50,174460,1,0,0:0:0:0:
141,50,174548,1,0,0:0:0:0:
160,271,174724,1,0,0:0:0:0:
155,286,175077,5,0,0:0:0:0:
263,358,175430,1,0,0:0:0:0:
268,343,175783,1,0,0:0:0:0:
228,93,175959,69,0,0:0:0:0:
234,129,176047,1,0,0:0:0:0:
240,168,176136,1,0,0:0:0:0:
248,207,176224,1,0,0:0:0:0:
254,246,176312,1,4,0:0:0:0:
256,192,176400,12,4,187602,0:0:0:0:
