osu file format v12

[General]
AudioFilename: Secret Of My Heart.mp3
AudioLeadIn: 1
PreviewTime: 60588
Countdown: 0
SampleSet: Soft
StackLeniency: 0.7
Mode: 0
LetterboxInBreaks: 1
CountdownOffset: 3
WidescreenStoryboard: 1

[Editor]
DistanceSpacing: 1.2
BeatDivisor: 4
GridSize: 8

[Metadata]
Title:Secret of my heart
TitleUnicode:Secret of my heart
Artist:Kuraki Mai
ArtistUnicode:倉木麻衣
Creator:Awaken
Version:Hard
Source:Detective Conan
Tags:Case Closed Meitantei Konan ending 9
BeatmapID:344611
BeatmapSetID:137831

[Difficulty]
HPDrainRate:6
CircleSize:4
OverallDifficulty:6
ApproachRate:7
SliderMultiplier:1
SliderTickRate:1

[Events]
//Background and Video events
0,0,"uu.jpg",0,0
//Break Periods
2,108771,118961
//Storyboard Layer 0 (Background)
//Storyboard Layer 1 (Fail)
//Storyboard Layer 2 (Pass)
//Storyboard Layer 3 (Foreground)
//Storyboard Sound Samples
//Background Colour Transformations
3,100,163,162,255

[TimingPoints]
4138,352.816652946019,4,2,1,60,1,0
60588,-83.3333333333333,4,2,1,80,0,1
69761,-66.6666666666667,4,2,1,80,0,1
70467,-55.5555555555556,4,2,1,80,0,1
71173,-83.3333333333333,4,2,1,80,0,1
81757,-100,4,2,1,80,0,0
131151,-83.3333333333333,4,2,1,100,0,1
140325,-66.6666666666667,4,2,1,100,0,1
141030,-55.5555555555556,4,2,1,100,0,1
141736,-83.3333333333333,4,2,1,100,0,1
162905,-66.6666666666667,4,2,1,100,0,1
163611,-55.5555555555556,4,2,1,100,0,1
164316,-83.3333333333333,4,2,1,100,0,1
176312,-83.3333333333333,4,2,1,60,0,0
179135,-83.3333333333333,4,2,1,50,0,0
181957,-83.3333333333333,4,2,1,40,0,0
184780,-83.3333333333333,4,2,1,30,0,0

[Colours]
Combo1 : 55,183,49
Combo2 : 165,254,179
Combo3 : 255,255,164
Combo4 : 154,220,252
Combo5 : 255,162,255
Combo6 : 226,45,24

[HitObjects]
116,40,4137,2,0,P|97:86|118:143,1,100,4|0,0:0|0:0,0:0:0:0:
139,196,4667,1,0,0:0:0:0:
139,196,4843,2,0,P|151:243|132:288,1,100,8|0,0:0|0:0,0:0:0:0:
183,337,5372,1,0,0:0:0:0:
251,325,5549,2,0,L|307:306,1,50,2|0,0:0|0:0,0:0:0:0:
330,246,5902,2,0,L|386:227,1,50,0|0,0:0|0:0,0:0:0:0:
443,252,6254,2,0,P|443:200|394:162,1,100,8|0,0:0|0:0,0:0:0:0:
346,138,6784,1,0,0:0:0:0:
276,133,6960,6,0,P|242:97|244:48,1,100,2|0,0:0|0:0,0:0:0:0:
311,70,7489,1,0,0:0:0:0:
346,138,7666,2,0,L|339:194,1,50,8|0,0:0|0:0,0:0:0:0:
273,209,8018,2,0,L|266:265,1,50,0|0,0:0|0:0,0:0:0:0:
330,288,8371,2,0,P|305:317|237:322,1,100,2|0,0:0|0:0,0:0:0:0:
196,274,8901,1,0,0:0:0:0:
199,204,9077,2,0,P|189:154|139:123,1,100,8|0,0:0|0:0,0:0:0:0:
131,193,9606,1,0,0:0:0:0:
199,204,9783,6,0,L|303:170,1,100,2|0,0:0|0:0,0:0:0:0:
350,129,10312,1,0,0:0:0:0:
360,197,10488,2,0,P|364:257|406:288,1,100,8|0,0:0|0:0,0:0:0:0:
425,221,11017,1,0,0:0:0:0:
423,151,11194,2,0,L|431:98,1,50,2|0,0:0|0:0,0:0:0:0:
374,58,11547,2,0,L|382:5,1,50,0|0,0:0|0:0,0:0:0:0:
311,15,11899,2,0,P|270:37|219:30,1,100,8|0,0:0|0:0,0:0:0:0:
180,88,12429,1,0,0:0:0:0:
216,147,12605,6,0,P|257:125|308:132,1,100,2|0,0:0|0:0,0:0:0:0:
350,188,13134,1,0,0:0:0:0:
356,257,13311,2,0,L|351:317,1,50,8|0,0:0|0:0,0:0:0:0:
278,365,13664,2,0,L|283:305,1,50,0|0,0:0|0:0,0:0:0:0:
280,245,14016,2,0,B|230:252|216:294|216:294|170:235,2,150,2|2|0,0:0|0:0|0:0,0:0:0:0:
91,173,15428,37,4,0:0:0:0:
91,173,16133,2,0,P|77:219|100:274,1,100,8|0,0:0|0:0,0:0:0:0:
146,312,16662,1,0,0:0:0:0:
213,293,16839,2,0,L|279:279,1,50,2|0,0:0|0:0,0:0:0:0:
163,216,17192,1,0,0:0:0:0:
163,216,17368,1,0,0:0:0:0:
250,208,17545,2,0,P|241:173|185:129,1,100,8|0,0:0|0:0,0:0:0:0:
130,103,18074,1,0,0:0:0:0:
187,63,18250,6,0,P|234:55|272:10,1,100,2|0,0:0|0:0,0:0:0:0:
262,88,18779,2,0,P|301:126|356:126,1,100,2|0,0:0|0:0,0:0:0:0:
400,87,19309,2,0,P|414:129|388:184,1,100,2|2,0:0|0:0,0:0:0:0:
327,203,19838,1,0,0:0:0:0:
327,203,20191,2,0,L|349:258,2,50,0|8|0,0:0|0:0|0:0,0:0:0:0:
258,185,20720,2,0,L|239:138,1,50
269,259,21073,6,0,P|233:285|165:279,1,100,2|0,0:0|0:0,0:0:0:0:
118,249,21602,1,0,0:0:0:0:
107,178,21778,2,0,B|119:138|102:105|102:105|111:80,1,100,8|0,0:0|0:0,0:0:0:0:
145,20,22308,1,0,0:0:0:0:
196,67,22484,2,0,L|247:83,1,50,2|0,0:0|0:0,0:0:0:0:
262,156,22837,1,0,0:0:0:0:
262,156,23013,1,0,0:0:0:0:
306,38,23190,2,0,L|411:67,1,100,8|0,0:0|0:0,0:0:0:0:
434,127,23719,1,0,0:0:0:0:
425,196,23895,6,0,P|382:173|364:128,1,100,2|0,0:0|0:0,0:0:0:0:
294,116,24424,1,0,0:0:0:0:
302,185,24601,2,0,L|277:288,1,100,8|0,0:0|0:0,0:0:0:0:
225,328,25130,1,0,0:0:0:0:
155,318,25306,2,0,L|99:321,2,50,2|0|0,0:0|0:0|0:0,0:0:0:0:
225,328,25836,1,0,0:0:0:0:
290,352,26012,2,0,P|333:322|348:267,1,100,8|0,0:0|0:0,0:0:0:0:
373,213,26541,1,0,0:0:0:0:
398,147,26718,38,0,B|414:106|397:73|397:73|422:86,1,100,4|0,0:0|0:0,0:0:0:0:
480,116,27247,1,0,0:0:0:0:
460,184,27423,2,0,P|421:213|372:212,1,100,8|0,0:0|0:0,0:0:0:0:
322,163,27953,1,0,0:0:0:0:
289,101,28129,2,0,L|230:112,1,50,2|0,0:0|0:0,0:0:0:0:
193,163,28482,2,0,L|143:172,1,50,0|0,0:0|0:0,0:0:0:0:
75,144,28835,2,0,P|74:198|111:238,1,100,8|0,0:0|0:0,0:0:0:0:
170,243,29364,1,0,0:0:0:0:
236,222,29540,6,0,L|285:212,2,50,2|0|0,0:0|0:0|0:0,0:0:0:0:
170,243,30070,1,0,0:0:0:0:
128,299,30246,2,0,P|80:302|34:269,1,100,8|0,0:0|0:0,0:0:0:0:
23,205,30775,1,0,0:0:0:0:
37,274,30952,2,0,B|45:326|45:326|33:381,1,100,2|0,0:0|0:0,0:0:0:0:
104,383,31481,1,0,0:0:0:0:
169,358,31657,2,0,B|158:311|158:311|165:259,1,100,8|0,0:0|0:0,0:0:0:0:
182,191,32186,1,0,0:0:0:0:
237,148,32363,6,0,L|281:114,2,50,2|0|0,0:0|0:0|0:0,0:0:0:0:
182,191,32892,1,0,0:0:0:0:
113,207,33068,2,0,P|66:217|16:189,1,100,8|0,0:0|0:0,0:0:0:0:
0,123,33598,1,0,0:0:0:0:
37,58,33774,2,0,P|70:94|75:143,1,100,2|0,0:0|0:0,0:0:0:0:
201,181,34480,2,0,P|163:147|166:86,1,100,8|0,0:0|0:0,0:0:0:0:
278,174,35185,6,0,P|270:220|221:254,1,100,2|0,0:0|0:0,0:0:0:0:
160,245,35715,1,0,0:0:0:0:
93,221,35891,2,0,B|59:208|59:208|26:232|-15:224,2,100,8|0|2,0:0|0:0|0:0,0:0:0:0:
160,245,36773,1,0,0:0:0:0:
153,175,36949,2,0,L|146:125,1,50,0|0,0:0|0:0,0:0:0:0:
215,118,37302,2,0,L|208:68,1,50,8|0,0:0|0:0,0:0:0:0:
287,105,37655,2,0,L|294:155,1,50,0|0,0:0|0:0,0:0:0:0:
233,198,38008,38,0,P|271:224|334:214,1,100,4|0,0:0|0:0,0:0:0:0:
390,200,38537,1,0,0:0:0:0:
379,269,38714,2,0,P|340:305|338:361,1,100,8|0,0:0|0:0,0:0:0:0:
403,335,39243,1,0,0:0:0:0:
452,285,39419,2,0,L|459:228,2,50,2|0|0,0:0|0:0|0:0,0:0:0:0:
403,335,39948,1,0,0:0:0:0:
329,333,40125,2,0,L|223:350,1,100,8|0,0:0|0:0,0:0:0:0:
167,317,40654,1,0,0:0:0:0:
137,252,40830,6,0,P|185:248|225:278,1,100,2|0,0:0|0:0,0:0:0:0:
207,210,41360,2,0,P|216:159|259:124,1,100,2|0,0:0|0:0,0:0:0:0:
186,156,41889,2,0,B|147:152|147:152|124:126|72:132,1,100,2|2,0:0|0:0,0:0:0:0:
97,200,42418,2,0,L|66:295,1,100,0|0,0:0|0:0,0:0:0:0:
116,365,42947,2,0,L|132:318,1,50,8|0,0:0|0:0,0:0:0:0:
217,304,43300,2,0,L|201:351,1,50,0|0,0:0|0:0,0:0:0:0:
277,367,43653,6,0,P|319:378|384:358,1,100,2|0,0:0|0:0,0:0:0:0:
415,309,44182,1,0,0:0:0:0:
420,239,44359,2,0,B|405:198|421:168|421:168|409:129,1,100,8|0,0:0|0:0,0:0:0:0:
428,73,44888,1,0,0:0:0:0:
480,119,45064,2,0,L|499:167,2,50,2|0|0,0:0|0:0|0:0,0:0:0:0:
428,73,45593,1,0,0:0:0:0:
360,92,45770,2,0,P|315:103|267:74,1,100,8|0,0:0|0:0,0:0:0:0:
324,33,46299,1,0,0:0:0:0:
360,92,46475,6,0,L|394:189,2,100,2|0|8,0:0|0:0|0:0,0:0:0:0:
324,33,47358,1,0,0:0:0:0:
270,78,47534,2,0,P|245:90|213:93,1,50,0|0,0:0|0:0,0:0:0:0:
155,73,47887,2,0,P|158:128|205:163,1,100,2|0,0:0|0:0,0:0:0:0:
252,187,48416,1,0,0:0:0:0:
318,165,48592,2,0,L|365:151,1,50,8|0,0:0|0:0,0:0:0:0:
395,213,48945,2,0,L|442:199,1,50,0|0,0:0|0:0,0:0:0:0:
487,144,49298,38,0,P|510:175|496:246,1,100,4|0,0:0|0:0,0:0:0:0:
447,273,49827,1,0,0:0:0:0:
379,289,50004,2,0,P|352:287|319:294,1,50,8|0,0:0|0:0,0:0:0:0:
270,222,50356,2,0,P|295:224|320:221,1,50,0|0,0:0|0:0,0:0:0:0:
200,186,50709,2,0,P|191:235|214:279,1,100,2|0,0:0|0:0,0:0:0:0:
267,324,51239,1,0,0:0:0:0:
214,278,51415,2,0,B|188:261|188:261|156:282|116:274,1,100,8|0,0:0|0:0,0:0:0:0:
75,221,51944,1,0,0:0:0:0:
75,221,52121,6,0,L|90:117,1,100,2|0,0:0|0:0,0:0:0:0:
211,39,52650,1,0,0:0:0:0:
211,39,52826,2,0,L|225:137,1,100,8|0,0:0|0:0,0:0:0:0:
350,229,53355,1,0,0:0:0:0:
350,229,53532,2,0,L|365:125,1,100,2|0,0:0|0:0,0:0:0:0:
399,328,54061,1,0,0:0:0:0:
399,328,54237,2,0,P|350:344|296:325,1,100,8|0,0:0|0:0,0:0:0:0:
268,270,54767,1,0,0:0:0:0:
268,270,54943,6,0,P|220:257|173:273,1,100,2|0,0:0|0:0,0:0:0:0:
127,326,55472,1,0,0:0:0:0:
60,347,55649,2,0,L|2:356,1,50,8|0,0:0|0:0,0:0:0:0:
69,274,56002,2,0,L|19:281,1,50,0|0,0:0|0:0,0:0:0:0:
123,219,56354,2,0,L|172:211,1,50,2|0,0:0|0:0,0:0:0:0:
131,146,56707,2,0,L|180:138,1,50,0|0,0:0|0:0,0:0:0:0:
236,180,57060,2,0,P|281:200|346:188,1,100,8|0,0:0|0:0,0:0:0:0:
468,106,57766,6,0,P|420:116|388:153,1,100,2|0,0:0|0:0,0:0:0:0:
173,256,58471,2,0,P|221:246|254:208,1,100,8|0,0:0|0:0,0:0:0:0:
231,33,59177,2,0,P|241:82|278:114,1,100,2|0,0:0|0:0,0:0:0:0:
397,319,59883,2,0,P|386:271|349:239,1,100,8|0,0:0|0:0,0:0:0:0:
349,240,60588,38,0,L|409:251,1,59.9999981689454,4|0,0:0|0:0,0:0:0:0:
277,185,60941,2,0,L|218:175,1,59.9999981689454,0|0,0:0|0:0,0:0:0:0:
274,267,61294,2,0,L|264:327,1,59.9999981689454,8|0,0:0|0:0,0:0:0:0:
358,156,61647,2,0,L|369:97,1,59.9999981689454,0|0,0:0|0:0,0:0:0:0:
256,94,61999,2,0,P|314:113|374:93,1,119.999996337891,2|0,0:0|0:0,0:0:0:0:
421,47,62529,1,0,0:0:0:0:
442,115,62705,2,0,L|464:183,1,59.9999981689454,8|0,0:0|0:0,0:0:0:0:
395,240,63058,2,0,L|376:182,1,59.9999981689454,0|0,0:0|0:0,0:0:0:0:
482,263,63411,6,0,P|449:313|394:330,1,119.999996337891,2|0,0:0|0:0,0:0:0:0:
326,331,63940,1,0,0:0:0:0:
313,260,64116,2,0,L|240:253,1,59.9999981689454,8|0,0:0|0:0,0:0:0:0:
135,296,64469,2,0,L|194:301,1,59.9999981689454,0|0,0:0|0:0,0:0:0:0:
185,225,64822,2,0,B|184:170|184:170|161:145|164:108,1,119.999996337891,2|0,0:0|0:0,0:0:0:0:
235,120,65351,1,0,0:0:0:0:
306,118,65528,6,0,L|369:132,1,59.9999981689454,8|0,0:0|0:0,0:0:0:0:
416,221,65880,2,0,L|357:207,1,59.9999981689454,0|0,0:0|0:0,0:0:0:0:
236,289,66233,2,0,B|285:310|322:278|322:278|354:286,1,119.999996337891,4|0,0:0|0:0,0:0:0:0:
419,299,66762,1,0,0:0:0:0:
482,265,66939,2,0,P|496:234|496:203,1,59.9999981689454,8|0,0:0|0:0,0:0:0:0:
462,92,67292,2,0,P|448:123|448:154,1,59.9999981689454,0|0,0:0|0:0,0:0:0:0:
417,222,67644,6,0,P|363:237|307:202,1,119.999996337891,2|0,0:0|0:0,0:0:0:0:
374,163,68174,1,0,0:0:0:0:
254,250,68350,2,0,P|203:220|147:234,1,119.999996337891,8|0,0:0|0:0,0:0:0:0:
192,298,68879,1,0,0:0:0:0:
281,166,69056,38,0,P|298:101|278:50,1,120,2|0,0:0|0:0,0:0:0:0:
321,197,69761,6,0,P|361:144|365:56,1,150.000005722046,8|0,0:0|0:0,0:0:0:0:
352,230,70467,6,0,P|424:182|460:98,1,180,2|0,0:0|0:0,0:0:0:0:
460,99,71173,6,0,L|501:155,1,60,8|0,0:0|0:0,0:0:0:0:
440,228,71525,2,0,L|476:277,1,60,0|0,0:0|0:0,0:0:0:0:
347,288,71878,38,0,P|313:282|276:289,1,59.9999981689454,4|0,0:0|0:0,0:0:0:0:
251,202,72231,2,0,P|222:221|201:252,1,59.9999981689454,0|0,0:0|0:0,0:0:0:0:
124,203,72584,2,0,P|117:237|125:274,1,59.9999981689454,8|0,0:0|0:0,0:0:0:0:
33,293,72937,2,0,P|52:321|83:342,1,59.9999981689454,0|0,0:0|0:0,0:0:0:0:
171,341,73290,2,0,P|227:318|287:349,1,119.999996337891,2|0,0:0|0:0,0:0:0:0:
349,326,73819,1,0,0:0:0:0:
392,269,73995,2,0,L|398:209,1,59.9999981689454,8|0,0:0|0:0,0:0:0:0:
469,200,74348,2,0,L|475:140,1,59.9999981689454,0|0,0:0|0:0,0:0:0:0:
404,125,74701,38,0,P|349:144|283:122,1,119.999996337891,2|0,0:0|0:0,0:0:0:0:
344,59,75230,1,0,0:0:0:0:
270,214,75406,2,0,P|213:197|158:217,1,119.999996337891,8|0,0:0|0:0,0:0:0:0:
215,281,75936,1,0,0:0:0:0:
138,144,76112,2,0,P|91:186|88:249,1,119.999996337891,2|0,0:0|0:0,0:0:0:0:
143,283,76641,1,0,0:0:0:0:
215,281,76818,2,0,L|283:258,1,59.9999981689454,8|0,0:0|0:0,0:0:0:0:
322,312,77171,2,0,L|378:292,1,59.9999981689454,0|0,0:0|0:0,0:0:0:0:
408,222,77523,38,0,P|450:265|443:338,1,119.999996337891,4|0,0:0|0:0,0:0:0:0:
395,368,78053,1,0,0:0:0:0:
324,353,78229,2,0,L|267:372,1,59.9999981689454,8|0,0:0|0:0,0:0:0:0:
213,323,78582,2,0,L|156:342,1,59.9999981689454,0|0,0:0|0:0,0:0:0:0:
130,274,78935,2,0,P|83:243|76:173,1,119.999996337891,2|0,0:0|0:0,0:0:0:0:
198,105,79640,2,0,P|191:167|132:200,1,119.999996337891,8|0,0:0|0:0,0:0:0:0:
127,128,80346,5,2,0:0:0:0:
256,192,80699,1,0,0:0:0:0:
391,128,81052,1,8,0:0:0:0:
315,296,81404,1,0,0:0:0:0:
196,296,81757,1,2,0:0:0:0:
256,192,81845,12,4,83168,0:0:0:0:
134,77,83521,5,0,0:0:0:0:
134,77,83698,2,0,P|120:124|146:183,1,100,2|0,0:0|0:0,0:0:0:0:
168,232,84227,2,0,P|183:278|169:325,1,100,2|2,0:0|0:0,0:0:0:0:
226,366,84756,1,0,0:0:0:0:
295,355,84933,2,0,L|356:338,1,50,0|0,0:0|0:0,0:0:0:0:
342,271,85285,2,0,P|326:231|340:167,1,100,8|0,0:0|0:0,0:0:0:0:
403,191,85815,1,0,0:0:0:0:
471,176,85991,6,0,P|480:127|463:81,1,100,2|0,0:0|0:0,0:0:0:0:
396,59,86520,1,0,0:0:0:0:
329,37,86697,2,0,L|275:24,1,50,8|0,0:0|0:0,0:0:0:0:
185,74,87049,2,0,L|233:85,1,50,0|0,0:0|0:0,0:0:0:0:
119,122,87402,2,0,P|104:78|125:21,1,100,2|0,0:0|0:0,0:0:0:0:
93,195,88108,2,0,P|56:167|38:111,1,100,8|0,0:0|0:0,0:0:0:0:
172,182,88813,38,0,L|158:285,1,100,2|0,0:0|0:0,0:0:0:0:
211,249,89343,2,0,L|197:352,1,100,2|0,0:0|0:0,0:0:0:0:
251,311,89872,2,0,P|298:326|355:314,1,100,2|2,0:0|0:0,0:0:0:0:
408,284,90401,1,0,0:0:0:0:
428,217,90578,2,0,L|436:155,1,50,0|0,0:0|0:0,0:0:0:0:
394,62,90930,2,0,P|389:87|389:112,1,50,8|0,0:0|0:0,0:0:0:0:
337,221,91283,2,0,P|341:196|342:171,1,50,0|0,0:0|0:0,0:0:0:0:
310,100,91636,6,0,P|282:115|255:117,1,50,2|0,0:0|0:0,0:0:0:0:
175,200,91989,2,0,P|203:185|230:183,1,50,0|0,0:0|0:0,0:0:0:0:
142,275,92342,2,0,P|103:242|94:189,1,100,8|0,0:0|0:0,0:0:0:0:
132,138,92871,1,0,0:0:0:0:
26,162,93047,2,0,P|41:142|62:129,1,50,2|0,0:0|0:0,0:0:0:0:
132,138,93400,2,0,P|152:124|167:104,1,50,0|0,0:0|0:0,0:0:0:0:
239,80,93753,2,0,L|298:94,1,50,8|0,0:0|0:0,0:0:0:0:
376,167,94106,2,0,L|327:155,1,50,0|0,0:0|0:0,0:0:0:0:
249,160,94459,6,0,P|236:209|270:257,1,100,2|0,0:0|0:0,0:0:0:0:
326,268,94988,2,0,P|349:310|338:359,1,100,2|0,0:0|0:0,0:0:0:0:
278,321,95517,2,0,L|179:338,1,100,2|2,0:0|0:0,0:0:0:0:
120,299,96046,1,0,0:0:0:0:
145,232,96223,2,0,P|166:244|182:263,1,50,0|0,0:0|0:0,0:0:0:0:
238,214,96575,2,0,L|238:164,1,50,8|0,0:0|0:0,0:0:0:0:
338,216,96928,2,0,P|317:228|301:247,1,50,0|0,0:0|0:0,0:0:0:0:
346,355,97281,6,0,P|390:331|426:276,1,100,4|0,0:0|0:0,0:0:0:0:
417,221,97810,1,0,0:0:0:0:
389,156,97987,2,0,L|365:113,1,50,8|0,0:0|0:0,0:0:0:0:
301,81,98340,1,0,0:0:0:0:
301,81,98516,1,0,0:0:0:0:
276,146,98692,2,0,P|246:154|211:154,1,50,2|0,0:0|0:0,0:0:0:0:
126,203,99045,2,0,P|149:210|174:212,1,50,0|0,0:0|0:0,0:0:0:0:
284,253,99398,2,0,P|254:261|219:261,1,50,8|0,0:0|0:0,0:0:0:0:
131,310,99751,2,0,P|154:317|179:319,1,50,0|0,0:0|0:0,0:0:0:0:
345,308,100104,38,0,P|363:266|350:204,1,100,2|0,0:0|0:0,0:0:0:0:
466,113,100809,2,0,P|447:158|455:207,1,100,8|0,0:0|0:0,0:0:0:0:
441,309,101515,2,0,P|393:319|345:308,1,100,2|0,0:0|0:0,0:0:0:0:
256,192,102221,2,0,P|304:181|352:193,1,100,8|0,0:0|0:0,0:0:0:0:
256,192,102926,12,4,108571,0:0:0:0:
130,106,119861,6,0,P|92:132|30:121,1,100,2|0,0:0|0:0,0:0:0:0:
4,242,120567,2,0,P|42:216|104:227,1,100,8|0,0:0|0:0,0:0:0:0:
155,382,121273,2,0,L|143:283,1,100,2|0,0:0|0:0,0:0:0:0:
167,110,121978,2,0,L|180:210,1,100,8|0,0:0|0:0,0:0:0:0:
231,281,122684,6,0,B|285:300|326:266|326:266|371:298|433:280,2,200,2|8|2,0:0|0:0|0:0,0:0:0:0:
266,211,124448,1,0,0:0:0:0:
426,358,124801,2,0,P|376:363|328:353,1,100,8|0,0:0|0:0,0:0:0:0:
431,202,125506,6,0,P|460:242|475:289,1,100,2|0,0:0|0:0,0:0:0:0:
296,280,126212,2,0,P|316:234|350:197,1,100,8|0,0:0|0:0,0:0:0:0:
211,263,126918,2,0,P|241:193|332:113,2,200,2|8|2,0:0|0:0|0:0,0:0:0:0:
111,362,128682,37,0,0:0:0:0:
75,226,129035,2,0,L|49:124,1,100,8|0,0:0|0:0,0:0:0:0:
256,192,129740,12,4,131151,0:0:0:0:
256,192,131504,6,0,P|203:213|141:193,1,119.999996337891,0|8,0:0|0:0,0:0:0:0:
94,143,132034,1,0,0:0:0:0:
73,211,132210,2,0,L|56:276,1,59.9999981689454,0|0,0:0|0:0,0:0:0:0:
122,311,132563,2,0,P|175:290|237:310,1,119.999996337891,2|0,0:0|0:0,0:0:0:0:
303,288,133092,1,0,0:0:0:0:
328,220,133268,2,0,L|340:162,1,59.9999981689454,8|0,0:0|0:0,0:0:0:0:
422,87,133621,2,0,L|410:145,1,59.9999981689454,0|0,0:0|0:0,0:0:0:0:
407,217,133974,6,0,B|436:254|483:248|483:248|503:282,1,119.999996337891,2|0,0:0|0:0,0:0:0:0:
492,348,134503,1,0,0:0:0:0:
500,277,134680,2,0,L|508:158,1,119.999996337891,8|0,0:0|0:0,0:0:0:0:
498,85,135209,1,0,0:0:0:0:
384,143,135385,2,0,P|413:141|441:129,1,59.9999981689454,2|0,0:0|0:0,0:0:0:0:
451,21,135738,2,0,P|421:23|394:35,1,59.9999981689454,0|0,0:0|0:0,0:0:0:0:
338,81,136091,1,8,0:0:0:0:
305,144,136267,1,0,0:0:0:0:
234,158,136444,1,0,0:0:0:0:
168,126,136620,1,0,0:0:0:0:
120,72,136797,6,0,B|90:109|101:148|101:148|58:179,1,119.999996337891,4|0,0:0|0:0,0:0:0:0:
28,229,137326,1,0,0:0:0:0:
147,205,137502,2,0,L|99:241,1,59.9999981689454,8|0,0:0|0:0,0:0:0:0:
10,336,137855,2,0,L|58:300,1,59.9999981689454,0|0,0:0|0:0,0:0:0:0:
244,277,138208,2,0,B|206:307|162:290|162:290|134:309,1,119.999996337891,2|0,0:0|0:0,0:0:0:0:
92,366,138737,1,0,0:0:0:0:
167,372,138913,2,0,L|189:244,1,119.999996337891,8|0,0:0|0:0,0:0:0:0:
221,189,139443,1,0,0:0:0:0:
262,259,139619,38,0,P|314:230|341:178,1,120,2|0,0:0|0:0,0:0:0:0:
259,308,140325,6,0,P|332:294|387:245,1,150.000005722046,8|0,0:0|0:0,0:0:0:0:
245,355,141030,6,0,P|332:371|415:338,1,180,2|0,0:0|0:0,0:0:0:0:
415,338,141736,6,0,L|434:268,1,59.9999981689454,8|0,0:0|0:0,0:0:0:0:
367,203,142089,2,0,L|351:260,1,59.9999981689454,0|0,0:0|0:0,0:0:0:0:
281,118,142442,38,0,P|338:132|388:102,1,119.999996337891,4|0,0:0|0:0,0:0:0:0:
327,62,142971,1,0,0:0:0:0:
257,44,143147,2,0,P|210:86|209:147,1,119.999996337891,8|0,0:0|0:0,0:0:0:0:
256,192,143676,1,0,0:0:0:0:
186,211,143853,2,0,P|147:181|139:95,1,119.999996337891,2|0,0:0|0:0,0:0:0:0:
150,44,144382,1,0,0:0:0:0:
81,65,144559,2,0,L|36:115,1,59.9999981689454,8|0,0:0|0:0,0:0:0:0:
132,114,144911,2,0,L|118:172,1,59.9999981689454,0|0,0:0|0:0,0:0:0:0:
186,211,145264,6,0,P|247:224|305:203,1,119.999996337891,2|0,0:0|0:0,0:0:0:0:
360,165,145793,1,0,0:0:0:0:
360,165,145970,2,0,P|416:147|474:160,1,119.999996337891,8|0,0:0|0:0,0:0:0:0:
495,229,146499,1,0,0:0:0:0:
474,297,146675,2,0,P|417:314|359:301,1,119.999996337891,2|0,0:0|0:0,0:0:0:0:
330,235,147205,1,0,0:0:0:0:
360,165,147381,2,0,L|383:98,1,59.9999981689454,8|0,0:0|0:0,0:0:0:0:
309,88,147734,2,0,L|332:21,1,59.9999981689454,0|0,0:0|0:0,0:0:0:0:
279,163,148087,6,0,P|224:184|161:151,1,119.999996337891,4|0,0:0|0:0,0:0:0:0:
279,251,148792,2,0,L|256:318,1,59.9999981689454,8|0,0:0|0:0,0:0:0:0:
330,328,149145,2,0,L|307:395,1,59.9999981689454,0|0,0:0|0:0,0:0:0:0:
360,253,149498,2,0,P|415:232|478:265,1,119.999996337891,2|0,0:0|0:0,0:0:0:0:
389,146,150204,2,0,P|334:167|271:134,1,119.999996337891,8|0,0:0|0:0,0:0:0:0:
280,144,150909,6,0,L|265:212,1,59.9999981689454,2|0,0:0|0:0,0:0:0:0:
201,232,151262,1,0,0:0:0:0:
134,205,151438,2,0,B|156:162|204:160|204:160|216:115,1,119.999996337891,0|0,0:0|0:0,0:0:0:0:
254,70,151968,1,0,0:0:0:0:
325,82,152144,38,0,L|388:54,1,59.9999981689454,0|2,0:0|0:0,0:0:0:0:
185,62,152497,2,0,L|130:37,1,59.9999981689454,0|0,0:0|0:0,0:0:0:0:
117,112,152850,2,0,L|171:136,1,59.9999981689454,0|8,0:0|0:0,0:0:0:0:
369,144,153203,2,0,L|314:168,1,59.9999981689454,0|0,0:0|0:0,0:0:0:0:
207,201,153555,1,0,0:0:0:0:
207,201,153732,38,0,P|192:263|228:315,1,119.999996337891,4|0,0:0|0:0,0:0:0:0:
300,321,154261,1,0,0:0:0:0:
330,242,154437,2,0,P|295:235|253:257,1,59.9999981689454,8|0,0:0|0:0,0:0:0:0:
382,302,154790,2,0,P|417:309|459:287,1,59.9999981689454,0|0,0:0|0:0,0:0:0:0:
497,351,155143,2,0,P|513:292|482:232,1,119.999996337891,2|0,0:0|0:0,0:0:0:0:
456,175,155672,1,0,0:0:0:0:
388,149,155849,1,8,0:0:0:0:
385,76,156025,1,0,0:0:0:0:
453,55,156201,1,0,0:0:0:0:
496,112,156378,1,0,0:0:0:0:
456,175,156554,38,0,P|441:237|464:302,1,119.999996337891,2|0,0:0|0:0,0:0:0:0:
391,321,157084,1,0,0:0:0:0:
391,321,157260,2,0,P|337:345|271:330,1,119.999996337891,8|0,0:0|0:0,0:0:0:0:
236,275,157789,1,0,0:0:0:0:
236,202,157966,2,0,L|248:129,1,59.9999981689454,2|0,0:0|0:0,0:0:0:0:
158,227,158318,2,0,L|170:154,1,59.9999981689454,0|0,0:0|0:0,0:0:0:0:
117,64,158671,2,0,L|107:123,1,59.9999981689454,8|0,0:0|0:0,0:0:0:0:
197,33,159024,2,0,L|187:92,1,59.9999981689454,0|0,0:0|0:0,0:0:0:0:
269,71,159377,6,0,P|322:96|384:79,1,119.999996337891,4|0,0:0|0:0,0:0:0:0:
421,140,159906,1,0,0:0:0:0:
421,140,160082,2,0,L|410:208,1,59.9999981689454,8|0,0:0|0:0,0:0:0:0:
337,174,160435,2,0,L|326:242,1,59.9999981689454,0|0,0:0|0:0,0:0:0:0:
396,278,160788,2,0,P|342:313|285:301,1,119.999996337891,2|0,0:0|0:0,0:0:0:0:
244,247,161317,1,0,0:0:0:0:
290,304,161494,2,0,L|332:368,1,59.9999981689454,8|0,0:0|0:0,0:0:0:0:
446,309,161847,2,0,L|396:278,1,59.9999981689454,0|0,0:0|0:0,0:0:0:0:
344,221,162199,70,0,P|408:238|460:218,1,120,2|0,0:0|0:0,0:0:0:0:
312,264,162905,22,0,P|364:304|452:308,1,150.000005722046,8|0,0:0|0:0,0:0:0:0:
264,277,163611,6,0,P|312:349|396:385,1,180,2|0,0:0|0:0,0:0:0:0:
395,384,164316,38,0,L|422:320,1,59.9999981689454,8|0,0:0|0:0,0:0:0:0:
352,206,164669,2,0,L|374:261,1,59.9999981689454,0|0,0:0|0:0,0:0:0:0:
324,323,165022,38,0,P|263:353|213:333,1,119.999996337891,4|0,0:0|0:0,0:0:0:0:
165,286,165551,1,0,0:0:0:0:
165,286,165728,2,0,P|161:225|193:165,1,119.999996337891,8|0,0:0|0:0,0:0:0:0:
248,134,166257,1,0,0:0:0:0:
248,134,166433,2,0,L|234:69,1,59.9999981689454,2|0,0:0|0:0,0:0:0:0:
306,66,166786,2,0,L|293:7,1,59.9999981689454,0|0,0:0|0:0,0:0:0:0:
332,142,167139,2,0,L|344:200,1,59.9999981689454,8|0,0:0|0:0,0:0:0:0:
268,208,167492,2,0,L|280:266,1,59.9999981689454,0|0,0:0|0:0,0:0:0:0:
352,275,167844,38,0,P|337:314|259:335,1,119.999996337891,2|0,0:0|0:0,0:0:0:0:
213,289,168374,1,0,0:0:0:0:
191,220,168550,2,0,B|186:168|230:141|230:141|218:109,1,119.999996337891,8|0,0:0|0:0,0:0:0:0:
180,56,169079,1,0,0:0:0:0:
310,42,169256,2,0,L|251:49,1,59.9999981689454,2|0,0:0|0:0,0:0:0:0:
372,79,169609,2,0,L|431:72,1,59.9999981689454,0|0,0:0|0:0,0:0:0:0:
311,118,169961,2,0,P|305:151|317:195,1,59.9999981689454,8|0,0:0|0:0,0:0:0:0:
373,263,170314,2,0,P|379:234|375:205,1,59.9999981689454,0|0,0:0|0:0,0:0:0:0:
314,311,170667,6,0,P|368:338|430:312,1,119.999996337891,4|0,0:0|0:0,0:0:0:0:
451,254,171196,1,0,0:0:0:0:
444,182,171373,2,0,L|426:112,1,59.9999981689454,8|0,0:0|0:0,0:0:0:0:
365,159,171725,2,0,L|347:89,1,59.9999981689454,0|0,0:0|0:0,0:0:0:0:
286,135,172078,2,0,P|235:153|166:129,1,119.999996337891,2|0,0:0|0:0,0:0:0:0:
104,261,172784,2,0,P|155:243|224:267,1,119.999996337891,8|0,0:0|0:0,0:0:0:0:
216,260,173489,6,0,L|233:135,1,119.999996337891,2|0,0:0|0:0,0:0:0:0:
226,69,174019,1,0,0:0:0:0:
226,69,174195,2,0,P|189:78|151:69,1,59.9999981689454,8|0,0:0|0:0,0:0:0:0:
306,98,174548,5,0,0:0:0:0:
306,98,174724,1,0,0:0:0:0:
395,211,175077,1,0,0:0:0:0:
286,305,175430,1,0,0:0:0:0:
198,191,175783,1,0,0:0:0:0:
198,191,175959,1,0,0:0:0:0:
298,206,176312,37,4,0:0:0:0:
256,192,176400,12,4,187602,0:0:0:0:
