osu file format v12

[General]
AudioFilename: Secret Of My Heart.mp3
AudioLeadIn: 0
PreviewTime: 57646
Countdown: 0
SampleSet: Soft
StackLeniency: 0.7
Mode: 0
LetterboxInBreaks: 0
WidescreenStoryboard: 0

[Editor]
DistanceSpacing: 1.2
BeatDivisor: 4
GridSize: 32

[Metadata]
Title:Secret of my heart
TitleUnicode:Secret of my heart
Artist:Kuraki Mai
ArtistUnicode:倉木麻衣
Creator:Atrue
Version:Hard
Source:Detective Conan
Tags:lkx_Shore jyc-Binggan case closed meitantei konan ending 9 名探偵コナン
BeatmapID:345497
BeatmapSetID:138321

[Difficulty]
HPDrainRate:6
CircleSize:4
OverallDifficulty:6
ApproachRate:7
SliderMultiplier:1.9
SliderTickRate:2

[Events]
//Background and Video events
0,0,"bg.jpg",0,0
//Break Periods
//Storyboard Layer 0 (Background)
//Storyboard Layer 1 (Fail)
//Storyboard Layer 2 (Pass)
//Storyboard Layer 3 (Foreground)
//Storyboard Sound Samples
//Background Colour Transformations
3,100,163,162,255

[TimingPoints]
1196,705.633305892038,4,1,1,40,1,0
34360,-100,4,2,1,40,0,0
34537,-100,4,1,1,40,0,0
54824,-100,4,1,1,50,0,0
57646,-83.3333333333333,4,2,1,70,0,1
59410,-83.3333333333333,4,1,1,70,0,1
59587,-83.3333333333333,4,2,1,70,0,1
62233,-83.3333333333333,4,1,1,70,0,1
62409,-83.3333333333333,4,2,1,70,0,1
63644,-83.3333333333333,4,1,1,70,0,1
63820,-83.3333333333333,4,2,1,70,0,1
66467,-83.3333333333333,4,1,1,70,0,1
66643,-83.3333333333333,4,2,1,70,0,1
67172,-83.3333333333333,4,1,1,70,0,1
67349,-83.3333333333333,4,2,1,70,0,1
67878,-83.3333333333333,4,1,1,70,0,1
68054,-83.3333333333333,4,2,1,70,0,1
70700,-83.3333333333333,4,1,1,70,0,1
70877,-83.3333333333333,4,2,1,70,0,1
73523,-83.3333333333333,4,1,1,70,0,1
73699,-83.3333333333333,4,2,1,70,0,1
80226,-100,4,2,1,60,0,0

[Colours]
Combo1 : 255,128,255
Combo2 : 0,128,255

[HitObjects]
169,95,1196,2,0,P|256:56|348:105,1,190,4|8,0:0|2:0,0:0:0:0:
395,189,2254,1,0,0:0:0:0:
447,290,2607,2,0,L|479:338,1,47.5
363,363,3136,2,0,L|334:323,1,47.5,0|8,0:0|2:0,0:0:0:0:
286,224,3665,1,0,0:0:0:0:
286,224,3842,1,0,0:0:0:0:
286,224,4018,6,0,P|234:215|202:176,1,95
293,111,4724,1,8,2:0:0:0:
206,185,5076,1,0,0:0:0:0:
94,206,5429,2,0,L|41:243,1,47.5,0|8,0:0|2:0,0:0:0:0:
119,328,5959,2,0,L|168:292,1,47.5,0|8,0:0|2:0,0:0:0:0:
271,251,6488,1,0,0:0:0:0:
271,251,6664,1,0,0:0:0:0:
271,251,6841,6,0,L|371:298,2,95,0|0|8,0:0|0:0|2:0,0:0:0:0:
168,231,7899,1,0,0:0:0:0:
112,131,8252,2,0,L|47:100,1,47.5,0|8,0:0|2:0,0:0:0:0:
153,33,8781,2,0,L|204:58,1,47.5,0|8,0:0|2:0,0:0:0:0:
227,164,9310,1,0,0:0:0:0:
227,164,9486,1,0,0:0:0:0:
227,164,9663,6,0,L|329:212,1,95
313,204,10192,1,0,0:0:0:0:
313,204,10369,2,0,P|346:240|389:249,1,95,8|0,2:0|0:0,0:0:0:0:
416,131,11074,2,0,L|377:190,1,47.5,0|8,0:0|2:0,0:0:0:0:
324,275,11603,2,0,L|286:329,1,47.5,0|8,0:0|2:0,0:0:0:0:
173,327,12132,1,0,0:0:0:0:
173,327,12309,1,0,0:0:0:0:
173,327,12485,6,0,L|56:344,1,95,4|0,0:0|0:0,0:0:0:0:
37,239,13191,2,0,L|152:224,1,95,8|0,2:0|0:0,0:0:0:0:
175,193,13720,2,0,P|201:154|260:135,1,95,0|8,0:0|2:0,0:0:0:0:
300,144,14250,2,0,P|339:178|353:231,1,95,0|8,0:0|2:0,0:0:0:0:
244,244,14955,1,0,0:0:0:0:
244,244,15131,1,0,0:0:0:0:
244,244,15308,6,0,P|212:209|161:191,1,95
150,137,15837,2,0,L|264:118,1,95
267,69,16367,2,0,P|233:46|176:37,1,95
124,24,16896,1,8,2:0:0:0:
49,105,17248,2,0,L|13:141,1,47.5,0|8,0:0|2:0,0:0:0:0:
89,210,17778,2,0,L|33:267,2,47.5
219,158,18484,5,0,0:0:0:0:
339,90,18836,2,0,P|359:140|346:187,1,95,8|0,2:0|0:0,0:0:0:0:
348,231,19366,2,0,P|375:282|430:300,1,95,0|8,0:0|2:0,0:0:0:0:
454,275,19895,1,0,0:0:0:0:
441,142,20247,1,8,2:0:0:0:
455,275,20600,1,0,0:0:0:0:
441,142,20953,6,0,P|468:105|533:79,1,95
348,231,21659,2,0,P|312:270|252:289,1,95,8|0,2:0|0:0,0:0:0:0:
329,128,22364,2,0,P|251:77|158:89,1,190,0|8,0:0|2:0,0:0:0:0:
68,140,23422,1,0,0:0:0:0:
155,197,23775,5,4,0:0:0:0:
103,287,24129,2,0,L|58:328,2,47.5,0|0|8,0:0|0:0|2:0,0:0:0:0:
207,287,24834,2,0,L|257:335,2,47.5
156,197,25540,2,0,P|180:146|215:118,1,95,0|8,0:0|2:0,0:0:0:0:
266,219,26245,2,0,L|339:207,1,47.5
369,222,26598,5,0,0:0:0:0:
452,299,26951,1,0,0:0:0:0:
452,299,27128,1,0,0:0:0:0:
452,299,27304,1,8,2:0:0:0:
476,187,27657,1,0,0:0:0:0:
394,108,28010,6,0,P|301:98|223:148,1,190,0|8,0:0|2:0,0:0:0:0:
219,262,29068,1,0,0:0:0:0:
219,262,29245,1,0,0:0:0:0:
219,262,29421,6,0,P|275:252|315:212,1,95
223,148,30127,2,0,P|130:117|41:157,1,190,8|0,2:0|0:0,0:0:0:0:
223,148,31185,1,0,0:0:0:0:
137,251,31538,1,8,2:0:0:0:
223,148,31891,6,0,P|298:99|407:116,1,190
473,193,32949,1,8,2:0:0:0:
439,301,33302,1,0,0:0:0:0:
369,213,33655,2,0,L|228:274,2,142.5
473,193,35066,5,4,0:0:0:0:
329,81,35419,1,0,0:0:0:0:
329,81,35596,1,0,0:0:0:0:
329,81,35772,2,0,P|274:102|220:96,1,95,8|0,2:0|0:0,0:0:0:0:
186,103,36301,1,0,0:0:0:0:
137,122,36478,2,0,L|67:147,1,47.5,0|8,0:0|2:0,0:0:0:0:
167,211,37007,2,0,L|100:234,1,47.5,0|8,0:0|2:0,0:0:0:0:
54,317,37536,1,0,0:0:0:0:
54,317,37712,1,0,0:0:0:0:
54,317,37889,6,0,P|100:336|162:328,1,95
197,334,38418,2,0,P|225:296|280:269,1,95
317,265,38947,1,0,0:0:0:0:
406,318,39300,2,0,L|447:348,1,47.5,0|8,0:0|2:0,0:0:0:0:
474,246,39829,2,0,L|434:215,1,47.5,0|8,0:0|2:0,0:0:0:0:
461,115,40359,2,0,L|513:156,2,47.5
356,120,41064,5,0,0:0:0:0:
306,134,41240,1,0,0:0:0:0:
254,122,41417,2,0,P|209:112|148:123,1,95,8|0,2:0|0:0,0:0:0:0:
110,133,41946,1,0,0:0:0:0:
78,174,42122,2,0,L|30:148,1,47.5,0|8,0:0|2:0,0:0:0:0:
80,280,42651,2,0,L|15:313,1,47.5,0|8,0:0|2:0,0:0:0:0:
182,232,43180,1,0,0:0:0:0:
234,332,43533,6,0,L|322:389,1,95
339,241,44239,2,0,L|248:180,1,95,8|0,2:0|0:0,0:0:0:0:
125,143,44945,2,0,P|94:238|142:318,1,190,0|8,0:0|2:0,0:0:0:0:
230,284,46003,1,0,0:0:0:0:
230,284,46179,1,0,0:0:0:0:
230,284,46356,6,0,L|333:251,1,95,4|0,0:0|0:0,0:0:0:0:
373,234,46885,1,0,0:0:0:0:
422,206,47062,2,0,P|451:163|395:46,1,190,8|0,2:0|0:0,0:0:0:0:
287,65,48120,2,0,L|231:176,1,95,0|8,0:0|2:0,0:0:0:0:
180,243,48826,1,0,0:0:0:0:
180,243,49002,1,0,0:0:0:0:
180,243,49178,6,0,L|232:344,1,95
325,151,49884,2,0,L|285:59,1,95,8|0,2:0|0:0,0:0:0:0:
180,148,50590,2,0,L|180:259,1,95
325,150,51295,2,0,L|325:38,1,95,8|0,2:0|0:0,0:0:0:0:
448,49,52001,5,0,0:0:0:0:
451,172,52354,1,0,0:0:0:0:
451,172,52530,1,0,0:0:0:0:
451,172,52707,2,0,P|421:249|360:297,1,142.5,8|0,2:0|0:0,0:0:0:0:
327,314,53412,2,0,L|259:284,1,47.5,0|8,0:0|2:0,0:0:0:0:
241,258,53765,2,0,L|131:203,2,95,0|8|0,0:0|2:0|0:0,0:0:0:0:
343,235,54824,6,0,P|395:210|426:177,1,95,2|0,2:0|2:0,0:0:0:0:
318,164,55529,2,0,P|355:122|361:73,1,95,10|0,2:0|2:0,0:0:0:0:
259,108,56235,2,0,P|275:57|262:15,1,95,2|0,2:0|2:0,0:0:0:0:
186,89,56941,2,0,P|158:44|113:24,1,95,10|0,2:0|2:0,0:0:0:0:
75,142,57646,6,0,L|76:271,1,113.999996520996,6|2,0:2|0:2,0:0:0:0:
189,309,58352,2,0,L|187:177,1,113.999996520996,8|2,0:2|0:0,0:0:0:0:
273,104,59057,2,0,P|351:89|451:110,1,170.999994781494,2|0,0:2|0:0,0:0:0:0:
456,177,59763,2,0,L|457:256,1,56.9999982604981,8|0,0:0|0:0,0:0:0:0:
382,231,60116,2,0,L|380:146,1,56.9999982604981,2|0,0:0|0:0,0:0:0:0:
306,177,60469,6,0,P|263:215|198:228,1,113.999996520996,2|2,0:0|0:0,0:0:0:0:
201,91,61174,2,0,P|150:57|85:60,1,113.999996520996,8|2,0:0|0:0,0:0:0:0:
117,191,61880,2,0,P|37:223|22:299,1,170.999994781494,2|0,0:0|0:0,0:0:0:0:
85,337,62586,2,0,L|166:339,1,56.9999982604981,8|0,0:0|0:0,0:0:0:0:
203,296,62938,2,0,L|262:296,1,56.9999982604981
309,239,63291,6,0,L|488:239,1,170.999994781494,6|0,0:0|0:0,0:0:0:0:
503,170,63997,2,0,L|464:116,1,56.9999982604981,8|0,0:0|0:0,0:0:0:0:
511,62,64350,2,0,L|476:18,1,56.9999982604981,2|0,0:0|0:0,0:0:0:0:
407,45,64702,1,2,0:0:0:0:
248,155,65055,1,2,0:0:0:0:
441,157,65408,1,8,0:0:0:0:
282,45,65761,1,2,0:0:0:0:
94,86,66114,6,0,P|47:140|58:238,1,170.999994781494,2|0,0:0|0:0,0:0:0:0:
94,86,66819,2,0,P|79:173|134:232,1,170.999994781494,8|0,0:0|0:0,0:0:0:0:
94,86,67525,2,0,P|121:166|214:189,1,170.999994781494,2|0,0:0|0:0,0:0:0:0:
262,157,68231,2,0,L|327:129,1,56.9999982604981,8|0,0:0|0:0,0:0:0:0:
342,203,68583,2,0,L|410:170,1,56.9999982604981,2|0,0:0|0:0,0:0:0:0:
440,121,68936,6,0,P|464:175|429:250,1,113.999996520996,6|2,0:0|0:0,0:0:0:0:
340,310,69642,2,0,P|325:252|347:197,1,113.999996520996,8|2,0:0|0:0,0:0:0:0:
440,122,70348,2,0,P|379:98|264:103,1,170.999994781494,2|0,0:0|0:0,0:0:0:0:
203,114,71053,2,0,L|144:150,1,56.9999982604981,8|0,0:0|0:0,0:0:0:0:
195,205,71406,2,0,L|132:247,1,56.9999982604981,2|0,0:0|0:0,0:0:0:0:
97,291,71759,6,0,P|151:312|212:271,1,113.999996520996,2|2,0:0|0:0,0:0:0:0:
324,266,72464,2,0,P|384:250|451:276,1,113.999996520996,8|2,0:0|0:0,0:0:0:0:
383,379,73170,2,0,L|382:186,1,170.999994781494,2|0,0:0|0:0,0:0:0:0:
335,148,73876,2,0,L|283:85,1,56.9999982604981,8|0,0:0|0:0,0:0:0:0:
249,160,74229,2,0,L|187:88,1,56.9999982604981,2|0,0:0|0:0,0:0:0:0:
165,58,74581,5,6,0:0:0:0:
353,286,75287,2,0,L|390:329,1,56.9999982604981,8|0,0:0|0:0,0:0:0:0:
426,264,75640,2,0,L|462:307,1,56.9999982604981,2|0,0:0|0:0,0:0:0:0:
446,380,75993,1,2,0:0:0:0:
335,148,76345,1,2,0:0:0:0:
274,280,76698,1,8,0:0:0:0:
177,43,77051,1,2,0:0:0:0:
167,181,77404,6,0,L|110:221,1,56.9999982604981,2|0,0:0|2:0,0:0:0:0:
221,231,77757,2,0,L|201:289,1,56.9999982604981,2|0,0:0|2:0,0:0:0:0:
296,232,78110,2,0,L|326:301,1,56.9999982604981,8|0,0:0|2:0,0:0:0:0:
349,182,78462,2,0,L|392:222,1,56.9999982604981,2|0,0:0|2:0,0:0:0:0:
256,192,78815,12,4,80226,0:0:0:0:
