osu file format v12

[General]
AudioFilename: Secret Of My Heart.mp3
AudioLeadIn: 0
PreviewTime: 57646
Countdown: 0
SampleSet: Normal
StackLeniency: 0.7
Mode: 0
LetterboxInBreaks: 0
WidescreenStoryboard: 0

[Editor]
DistanceSpacing: 1.2
BeatDivisor: 4
GridSize: 8

[Metadata]
Title:Secret of my heart
TitleUnicode:Secret of my heart
Artist:Kuraki Mai
ArtistUnicode:倉木麻衣
Creator:Atrue
Version:Easy
Source:Detective Conan
Tags:lkx_Shore jyc-Binggan case closed meitantei konan ending 9 名探偵コナン
BeatmapID:363786
BeatmapSetID:138321

[Difficulty]
HPDrainRate:3
CircleSize:3
OverallDifficulty:2
ApproachRate:3
SliderMultiplier:1.2
SliderTickRate:2

[Events]
//Background and Video events
0,0,"bg.jpg",0,0
//Break Periods
//Storyboard Layer 0 (Background)
//Storyboard Layer 1 (Fail)
//Storyboard Layer 2 (Pass)
//Storyboard Layer 3 (Foreground)
//Storyboard Sound Samples
//Background Colour Transformations
3,100,163,162,255

[TimingPoints]
1196,705.633305892038,4,1,1,40,1,0
54824,-100,4,1,1,50,0,0
57646,-100,4,2,1,70,0,1
57999,-100,4,1,1,70,0,1
58175,-100,4,2,1,70,0,1
58705,-100,4,1,1,70,0,1
58881,-100,4,2,1,70,0,1
60822,-100,4,1,1,70,0,1
60998,-100,4,2,1,70,0,1
61527,-100,4,1,1,70,0,1
61704,-100,4,2,1,70,0,1
62938,-100,4,1,1,70,0,1
63115,-100,4,2,1,70,0,1
64350,-100,4,1,1,70,0,1
64526,-100,4,2,1,70,0,1
65055,-100,4,1,1,70,0,1
65232,-100,4,2,1,70,0,1
67878,-100,4,1,1,70,0,1
68054,-100,4,2,1,70,0,1
69289,-100,4,1,1,70,0,1
69466,-100,4,2,1,70,0,1
69995,-100,4,1,1,70,0,1
70171,-100,4,2,1,70,0,1
72112,-100,4,1,1,70,0,1
72288,-100,4,2,1,70,0,1
72817,-100,4,1,1,70,0,1
72994,-100,4,2,1,70,0,1
74229,-100,4,1,1,70,0,1
74405,-100,4,2,1,70,0,1
75640,-100,4,1,1,70,0,1
75816,-100,4,2,1,70,0,1
76345,-100,4,1,1,70,0,1
76522,-100,4,2,1,70,0,1
77757,-100,4,1,1,70,0,1
77933,-100,4,2,1,70,0,1
78462,-100,4,1,1,70,0,1
78639,-100,4,2,1,70,0,1
80226,-100,4,1,1,60,0,0

[Colours]
Combo1 : 255,128,255
Combo2 : 0,128,255

[HitObjects]
286,98,1196,2,0,P|328:56|385:40,1,120,0|8,0:0|2:0,0:0:0:0:
456,49,2254,1,0,0:0:0:0:
464,120,2607,2,0,P|437:172|387:204,1,120,0|8,0:0|2:0,0:0:0:0:
253,149,4018,6,0,P|202:180|176:233,1,120,0|8,0:0|2:0,0:0:0:0:
199,300,5076,1,0,0:0:0:0:
269,312,5429,2,0,P|325:289|361:225,1,120,0|8,0:0|2:0,0:0:0:0:
498,209,6841,6,0,P|454:169|389:165,1,120,0|8,0:0|2:0,0:0:0:0:
277,245,8252,2,0,P|242:248|167:207,1,120,0|8,0:0|2:0,0:0:0:0:
139,68,9663,6,0,L|9:48,2,120,0|8|0,0:0|2:0|0:0,0:0:0:0:
274,116,11780,1,8,2:0:0:0:
386,24,12486,5,4,0:0:0:0:
449,153,13191,2,0,P|479:215|476:270,1,120,8|0,2:0|0:0,0:0:0:0:
334,241,14603,1,8,2:0:0:0:
199,191,15308,6,0,P|140:211|101:253,2,120,0|8|0,0:0|2:0|0:0,0:0:0:0:
223,333,17425,1,8,2:0:0:0:
334,241,18131,5,0,0:0:0:0:
199,191,18836,2,0,P|152:165|112:103,1,120,8|0,2:0|0:0,0:0:0:0:
246,52,20248,1,8,2:0:0:0:
378,107,20953,2,0,L|469:206,2,120,0|8|0,0:0|2:0|0:0,0:0:0:0:
246,52,23070,1,8,2:0:0:0:
181,180,23776,6,0,L|135:239,2,60,4|0|8,0:0|0:0|2:0,0:0:0:0:
325,180,25187,2,0,L|369:237,2,60,0|0|8,0:0|0:0|2:0,0:0:0:0:
208,95,26598,2,0,P|181:151|182:211,1,120,0|8,0:0|2:0,0:0:0:0:
199,277,27657,1,0,0:0:0:0:
239,336,28010,2,0,L|382:335,1,120,0|8,0:0|2:0,0:0:0:0:
474,251,29421,6,0,L|439:131,1,120,0|8,0:0|2:0,0:0:0:0:
311,70,30832,1,0,0:0:0:0:
243,94,31185,2,0,L|165:121,1,60,0|8,0:0|2:0,0:0:0:0:
119,141,31891,2,0,P|78:183|81:258,1,120
117,299,32949,2,0,L|236:349,1,120,8|0,2:0|0:0,0:0:0:0:
280,211,34360,2,0,L|399:261,1,120,8|4,2:0|0:0,0:0:0:0:
428,118,35772,6,0,L|507:151,2,60,8|0|0,2:0|0:0|0:0,0:0:0:0:
287,84,37183,2,0,P|223:79|164:102,2,120,8|0|8,2:0|0:0|2:0,0:0:0:0:
245,221,39300,1,0,0:0:0:0:
153,331,40005,2,0,L|111:373,2,60,8|0|0,2:0|0:0|0:0,0:0:0:0:
245,221,41417,6,0,P|312:207|374:227,1,120,8|0,2:0|0:0,0:0:0:0:
481,298,42828,1,8,2:0:0:0:
442,159,43533,2,0,L|394:104,2,60,0|0|8,0:0|0:0|2:0,0:0:0:0:
482,298,44945,2,0,P|418:305|353:277,2,120,0|8|4,0:0|2:0|0:0,0:0:0:0:
442,159,47062,6,0,P|400:112|329:94,1,120,8|0,2:0|0:0,0:0:0:0:
264,212,48473,2,0,P|194:239|137:237,1,120,8|0,2:0|0:0,0:0:0:0:
31,156,49884,2,0,L|4:98,2,60,8|0|0,2:0|0:0|0:0,0:0:0:0:
149,239,51295,1,8,2:0:0:0:
233,122,52001,6,0,P|259:65|326:18,1,120,0|8,0:0|2:0,0:0:0:0:
432,89,53412,1,0,0:0:0:0:
451,158,53765,2,0,P|455:203|444:241,1,60,0|8,0:0|2:0,0:0:0:0:
437,288,54471,1,0,0:0:0:0:
370,314,54824,6,0,L|252:266,1,120,0|8,0:0|2:0,0:0:0:0:
189,142,56235,2,0,L|323:191,1,120,0|8,0:0|2:0,0:0:0:0:
440,220,57646,6,0,P|483:176|496:100,2,120,6|10|2,2:0|2:0|2:0,0:0:0:0:
319,298,59763,2,0,L|251:323,1,60,10|2,0:0|0:0,0:0:0:0:
190,315,60469,2,0,P|134:304|85:249,2,120,2|10|2,0:0|0:0|0:0,0:0:0:0:
312,239,62586,6,0,P|364:195|423:172,1,120,10|2,0:0|0:0,0:0:0:0:
268,159,63997,2,0,P|323:114|388:89,2,120,10|2|10,0:0|0:0|0:0,0:0:0:0:
219,294,66114,5,2,0:0:0:0:
139,174,66819,1,10,0:0:0:0:
238,69,67525,2,0,P|290:25|352:8,1,120,2|10,0:0|0:0,0:0:0:0:
473,60,68936,6,0,P|501:130|505:189,2,120,6|10|2,0:0|0:0|0:0,0:0:0:0:
338,8,71053,2,0,L|255:23,1,60,10|2,0:0|0:0,0:0:0:0:
212,46,71759,2,0,P|162:81|126:138,2,120,2|10|2,0:0|0:0|0:0,0:0:0:0:
318,139,73876,6,0,P|290:191|223:243,1,120,10|2,0:0|0:0,0:0:0:0:
387,205,75287,2,0,P|359:257|292:309,2,120,10|2|10,0:0|0:0|0:0,0:0:0:0:
263,131,77404,6,0,P|290:78|335:38,2,120,2|10|2,0:0|0:0|0:0,0:0:0:0:
220,268,79521,1,10,0:0:0:0:
358,228,80226,1,4,0:0:0:0:
