osu file format v14

[General]
AudioFilename: Mou Ichido.mp3
AudioLeadIn: 0
PreviewTime: 136858
Countdown: 0
SampleSet: Soft
StackLeniency: 0.7
Mode: 0
LetterboxInBreaks: 0
StoryFireInFront: 0
WidescreenStoryboard: 0

[Editor]
DistanceSpacing: 1.1
BeatDivisor: 8
GridSize: 4
TimelineZoom: 1

[Metadata]
Title:Mou Ichido
TitleUnicode:もう一度
Artist:Kuraki Mai
ArtistUnicode:倉木麻衣
Creator:Backstep
Version:Easy
Source:霧に棲む悪魔
Tags:OVER THE RAINBOW One More Time jpop j-pop Niva HeatKai Devil in the Mist
BeatmapID:301780
BeatmapSetID:112887

[Difficulty]
HPDrainRate:2
CircleSize:3
OverallDifficulty:2
ApproachRate:3
SliderMultiplier:1.6
SliderTickRate:2

[Events]
//Background and Video events
0,0,"MI-BG.jpg",0,0
//Break Periods
2,91617,93507
2,193970,202918
//Storyboard Layer 0 (Background)
Sprite,Background,TopLeft,"MI-BG.jpg",0,0
//Storyboard Layer 1 (Fail)
//Storyboard Layer 2 (Pass)
//Storyboard Layer 3 (Foreground)
Sprite,Foreground,Centre,"MI-BG.jpg",320,240 M,0,0,,320,240 S,0,0,,0.6266666 F,0,0,13770,0,1 F,0,13770,17300,1,0.9997821
Sprite,Foreground,Centre,"SB/bg-a.jpg",320,240 F,0,15535,17300,0,1 M,0,15535,31417,320,240
Sprite,Foreground,Centre,"SB/bg-c.jpg",320,240 F,0,29652,31417,0,1 F,0,31417,43770,1 F,0,43770,45535,1,0
Sprite,Foreground,Centre,"SB/kudo-ran2-c.png",320,240 S,0,15535,,0.7866666 M,0,17300,,181,290 F,0,17300,18182,0,1 M,0,17300,31417,181,290,237,290 F,0,18182,29652,1 F,0,29652,31417,1,0
Sprite,Foreground,Centre,"SB/kudoran.png",320,240 S,0,31307,,0.872 F,0,31307,32189,0,1 M,0,31307,44652,217,269,292,270 F,0,32189,42888,1 F,0,42888,44652,1,0
Sprite,Foreground,Centre,"SB/bg-d.jpg",320,240 F,0,43770,45094,0,1 F,0,45094,57888,1 F,0,57888,59652,1,0
Sprite,Foreground,Centre,"SB/ai-conan.png",320,240 S,0,45094,,0.8826668 F,0,45094,46417,0.002666473,0.9909539 M,0,45094,58770,153,321,189,326 F,0,46417,57888,0.9909539 F,0,57888,58770,0.9909539,0
Sprite,Foreground,Centre,"SB/bg-b.jpg",320,240 F,0,57888,59652,0,1 F,0,59652,89652,1 F,0,89652,91417,1,0
Sprite,Foreground,Centre,"SB/ran-b.png",320,240 F,0,58770,59652,0,1 M,0,58770,72888,152,325,152,275 S,0,59652,,0.8506666 F,0,59652,71123,1 F,0,71123,72888,1,0
Sprite,Foreground,Centre,"SB/conan 1.png",320,240 S,0,73329,,0.8613333 F,0,73329,74211,0,1 M,0,73329,91417,122,329,121,273 F,0,74211,89652,1 F,0,89652,91417,1,0
Sprite,Foreground,Centre,"SB/bg-b.jpg",320,240 F,0,135535,137300,0,1 F,0,137300,166417,1 F,0,166417,168182,1,0
Sprite,Foreground,Centre,"SB/ran-b.png",320,240 S,0,137300,,0.904 F,0,137300,138182,0,1 M,0,137300,150535,163,314,162,262 F,0,138182,148770,1 F,0,148770,150535,1,0.002834439
Sprite,Foreground,Centre,"SB/kudo1.png",320,240 S,0,150535,,0.936 F,0,150535,151417,0,1 M,0,150535,167300,173,298,173,259 F,0,151417,165535,1 F,0,165535,167300,1,0
Sprite,Foreground,Centre,"SB/bg-b.jpg",320,240 M,0,206123,,320,240 F,0,206123,207888,0,1 F,0,207888,222888,1 F,0,222888,225535,1,0
Sprite,Foreground,Centre,"SB/ran-b.png",320,240 F,0,207888,208770,0,1 M,0,207888,214064,181,342,180,263 F,0,208770,212300,1 F,0,212300,214064,1,0
Sprite,Foreground,Centre,"SB/conan 1.png",320,240 S,0,214064,,0.8400002 F,0,214064,214947,0,1 M,0,214064,223770,119,357,120,276 F,0,214947,222005,1 F,0,222005,223770,1,0
Sprite,Foreground,Centre,"SB/kudo1.png",320,240 S,0,214064,,0.8079998 R,0,214064,,-3.136 F,0,214064,214947,0,1 M,0,214064,223770,489,123,489,194 F,0,214947,222005,1 F,0,222005,223770,1,0
Sprite,Foreground,Centre,"SB/Detective.Conan.full.814975.jpg",320,240 F,0,166417,168182,0,1 M,0,166417,192005,734,241,-93,236 F,0,168182,190241,1 F,0,190241,192005,1,0
Sprite,Foreground,Centre,"SB/ai-kudo.jpg",320,240 F,0,94064,107300,1 S,0,94064,109064,1,0.8826667 R,0,94064,109064,0.1493335,0 M,0,94947,,320,240 F,0,107300,109064,1,0
Sprite,Foreground,Centre,"SB/child.jpg",320,240 F,0,107300,109064,0,1 M,0,107300,123182,357,233,289,234 F,0,109064,121417,1 F,0,121417,123182,1,0
Sprite,Foreground,Centre,"SB/white.jpg",320,240 S,0,93182,,1.010667 F,0,93182,94064,0,0.9200001 F,0,94064,94947,0.9200001,0
Sprite,Foreground,Centre,"SB/Ring.png",320,240 F,0,91858,92079,0,1 S,0,91858,92520,0.1,0.8146665 F,0,92079,92520,1,0
Sprite,Foreground,Centre,"SB/Ring.png",320,240 M,0,92079,,376,321 F,0,92079,92300,0,1 S,0,92079,92741,0.1,0.6546664 F,0,92300,92741,1,0
Sprite,Foreground,Centre,"SB/policestation.jpg",320,240 S,0,121417,,0.8506666 F,0,121417,123182,0,1 M,0,121417,137300,293,240,353,243 F,0,123182,135535,1 F,0,135535,137300,1,0
Sprite,Foreground,Centre,"SB/Mini Light.png",320,240 S,0,94947,,1.650667 F,0,94947,95829,0,1 R,0,94947,166417,0,-2.529164 F,0,95829,165535,1 F,0,165535,166417,1,0 F,0,166417,,0,0.8334965 R,0,166417,,-2.529164
Sprite,Foreground,Centre,"SB/Ring.png",320,240 M,0,193550,,317,257 F,0,193550,193770,0,1 S,0,193550,194652,0.1,1.262667 F,0,193770,194652,1,0
Sprite,Foreground,Centre,"SB/Mini Light.png",320,240 M,0,59652,,320,240 S,0,59652,,1.533333 F,0,59652,60535,0,1 R,0,59652,91417,0,1.642667 F,0,60535,89652,1 F,0,89652,91417,1,0
Sprite,Foreground,Centre,"SB/Mini Light.png",320,240 S,0,207888,,1.704 F,0,207888,208770,0,1 R,0,207888,225535,0,1.6 F,0,208770,222888,1 F,0,222888,225535,1,0
Sprite,Foreground,Centre,"SB/lyrics/sb-lyric1.png",320,240 F,0,17300,17741,0,1 M,0,17300,22594,474,385,403,384 F,0,17741,21711,1 F,0,21711,22594,1,0
Sprite,Foreground,Centre,"SB/lyrics/sb-lyric2.png",320,240 F,0,23035,23476,0.06133301,1 M,0,23035,30535,298,429,401,428 F,0,23476,29652,1 F,0,29652,30535,1,0.01333298
Sprite,Foreground,Centre,"SB/lyrics/sb-lyric3.png",320,240 F,0,31417,31858,0,1 M,0,31417,36711,446,382,384,385 F,0,31858,35829,1 F,0,35829,36711,1,0
Sprite,Foreground,Centre,"SB/lyrics/sb-lyric4.png",320,240 F,0,37152,37594,0.05066635,1 M,0,37152,42005,354,429,412,426 F,0,37594,41123,1 F,0,41123,42005,1,0.02933289
Sprite,Foreground,Centre,"SB/lyrics/sb-lyric5.png",320,240 F,0,41123,41454,0,1 M,0,41123,44652,399,384,358,384 F,0,41454,43770,1 F,0,43770,44652,1,0
Sprite,Foreground,Centre,"SB/lyrics/sb-lyric6.png",320,240 F,0,44652,45094,0.06133301,1 M,0,44652,50829,306,428,401,429 F,0,45094,49947,1 F,0,49947,50829,1,0.03999969
Sprite,Foreground,Centre,"SB/lyrics/sb-lyric7.png",320,240 F,0,51711,52152,0,1 M,0,51711,58770,398,386,302,385 F,0,52152,57888,1 F,0,57888,58770,1,0
Sprite,Foreground,Centre,"SB/lyrics/sb-lyric8.png",320,240 F,0,58770,59211,0.08266632,1 M,0,58770,63182,348,429,414,428 F,0,59211,62300,1 F,0,62300,63182,1,0.02399979
Sprite,Foreground,Centre,"SB/lyrics/sb-lyric9.png",320,240 F,0,62300,62741,0,1 M,0,62300,66270,426,376,346,377 F,0,62741,65388,1 F,0,65388,66270,1,0
Sprite,Foreground,Centre,"SB/lyrics/sb-lyricTen.png",320,240 F,0,65829,66270,0.02933289,1 M,0,65829,73309,301,429,379,427 F,0,66270,72447,1 F,0,72447,73329,1,0.002666321
Sprite,Foreground,Centre,"SB/lyrics/sb-lyric11.png",320,240 F,0,72888,73329,0,1 M,0,72888,76858,441,373,374,373 F,0,73329,75976,1 F,0,75976,76858,1,0
Sprite,Foreground,Centre,"SB/lyrics/sb-lyric12.png",320,240 F,0,76417,76858,0,1 M,0,76417,80388,379,427,458,430 F,0,76858,79505,1 F,0,79505,80388,1,0.02933289
Sprite,Foreground,Centre,"SB/lyrics/sb-lyric13.png",320,240 F,0,79947,80388,0,1 M,0,79947,84358,401,373,347,375 F,0,80388,83476,1 F,0,83476,84358,1,0
Sprite,Foreground,Centre,"SB/lyrics/sb-lyric14.png",320,240 F,0,85241,85682,0.05066635,1 M,0,85241,89652,392,429,467,429 F,0,85682,88770,1 F,0,88770,89652,1,0
Sprite,Foreground,Centre,"SB/lyrics/sb-lyric15.png",320,240 F,0,94947,95388,0,1 M,0,94947,100241,442,370,360,370 F,0,95388,99358,1 F,0,99358,100241,1,0
Sprite,Foreground,Centre,"SB/lyrics/sb-lyric16.png",320,240 F,0,100682,101123,0,1 M,0,100682,108182,299,430,405,429 F,0,101123,107300,1 F,0,107300,108182,1,0
Sprite,Foreground,Centre,"SB/lyrics/sb-lyric17.png",320,240 F,0,109064,109505,0,1 M,0,109064,114358,400,371,347,373 F,0,109505,113476,1 F,0,113476,114358,1,0
Sprite,Foreground,Centre,"SB/lyrics/sb-lyric18.png",320,240 F,0,114800,115241,0,1 M,0,114800,122300,288,430,370,430 F,0,115241,121417,1 F,0,121417,122300,1,0.01333298
Sprite,Foreground,Centre,"SB/lyrics/sb-lyric19.png",320,240 F,0,122300,122741,0,1 M,0,122300,128476,412,371,339,370 F,0,122741,127594,1 F,0,127594,128476,1,0
Sprite,Foreground,Centre,"SB/lyrics/sb-lyricDiTen.png",320,240 F,0,129358,129800,0.03999969,1 M,0,129358,136417,323,432,398,430 F,0,129800,135535,1 F,0,135535,136417,1,0.05066635
Sprite,Foreground,Centre,"SB/lyrics/sb-lyric21.png",320,240 F,0,136417,136858,0,1 M,0,136417,140388,420,374,363,372 F,0,136858,139505,1 F,0,139505,140388,1,0
Sprite,Foreground,Centre,"SB/lyrics/sb-lyric22.png",320,240 F,0,139947,140388,0.05599976,1 M,0,139947,143917,337,429,400,427 F,0,140388,143035,1 F,0,143035,143917,1,0.02399979
Sprite,Foreground,Centre,"SB/lyrics/sb-lyric23.png",320,240 F,0,143476,143917,0,1 M,0,143476,150976,339,369,299,371 F,0,143917,150094,1 F,0,150094,150976,1,0
Sprite,Foreground,Centre,"SB/lyrics/sb-lyric24.png",320,240 F,0,150535,150976,0.03999969,1 M,0,150535,154505,333,427,400,428 F,0,150976,153623,1 F,0,153623,154505,1,0
Sprite,Foreground,Centre,"SB/lyrics/sb-lyric25.png",320,240 F,0,154064,154505,0,1 M,0,154064,158035,423,371,363,372 F,0,154505,157152,1 F,0,157152,158035,1,0
Sprite,Foreground,Centre,"SB/lyrics/sb-lyric26.png",320,240 F,0,157594,158035,0.02933289,1 M,0,157594,162005,340,429,404,427 F,0,158035,161123,1 F,0,161123,162005,1,0.007999726
Sprite,Foreground,Centre,"SB/lyrics/sb-lyric27.png",320,240 F,0,162888,163219,0,1 M,0,162888,167300,400,371,345,374 F,0,163219,167300,1,0
Sprite,Foreground,Centre,"SB/lyrics/sb-lyric28.png",320,240 F,0,168182,168623,0.007999726,1 M,0,168182,173917,315,428,383,427 F,0,168623,173035,1 F,0,173035,173917,1,0.002666321
Sprite,Foreground,Centre,"SB/lyrics/sb-lyric29.png",320,240 F,0,173476,173917,0,1 M,0,173476,182300,386,371,266,371 F,0,173917,181417,1 F,0,181417,182300,1,0
Sprite,Foreground,Centre,"SB/lyrics/sb-lyricTriTen.png",320,240 F,0,181858,,0 F,0,181858,182300,0,1 M,0,181858,189358,324,426,438,425 F,0,182300,188476,1 F,0,188476,189358,1,0.007999726
Sprite,Foreground,Centre,"SB/lyrics/sb-lyric31.png",320,240 F,0,192888,193329,0,1 M,0,192888,196858,264,357,340,357 F,0,193329,195976,1 F,0,195976,196858,1,0
Sprite,Foreground,Centre,"SB/lyrics/sb-lyric32.png",320,240 F,0,196417,196858,0,1 M,0,196417,200388,369,130,278,131 F,0,196858,199505,1 F,0,199505,200388,1,0
Sprite,Foreground,Centre,"SB/lyrics/sb-lyric33.png",320,240 F,0,199947,200388,0,1 M,0,199947,207447,299,353,377,353 F,0,200388,206564,1 F,0,206564,207447,1,0
Sprite,Foreground,Centre,"SB/lyrics/sb-lyric34.png",320,240 F,0,207005,207447,0,1 M,0,207005,210976,323,429,403,428 F,0,207447,210094,1 F,0,210094,210976,1,0.02399979
Sprite,Foreground,Centre,"SB/lyrics/sb-lyric35.png",320,240 F,0,210535,210976,0,1 M,0,210535,214505,447,373,409,372 F,0,210976,213623,1 F,0,213623,214505,1,0
Sprite,Foreground,Centre,"SB/lyrics/sb-lyric36.png",320,240 F,0,214064,214505,0.02399979,1 M,0,214064,218476,305,429,401,428 F,0,214505,217594,1 F,0,217594,218476,1,0.05066635
Sprite,Foreground,Centre,"SB/lyrics/sb-lyric37.png",320,240 F,0,219358,219800,0,1 M,0,219358,223770,439,361,344,362 F,0,219800,222888,1 F,0,222888,223770,1,0
Sprite,Foreground,Centre,"SB/Ring.png",320,240 F,0,92520,92741,0,1 S,0,92520,93182,0.1,0.9213333 F,0,92741,93182,1,0
Sprite,Foreground,Centre,"SB/Ring.png",320,240 F,0,94836,94947,0,1 M,0,94947,,319,249 F,0,94947,95829,1,0 S,0,94947,95829,0.1,1.870667
Sprite,Foreground,Centre,"SB/Mini Light.png",320,240 M,0,17300,,442,188 S,0,17300,,0.7226666 F,0,17300,18182,0,1 R,0,17300,59211,0,-3.306667 F,0,18182,58329,1 F,0,58329,59211,1,0
//Storyboard Sound Samples

[TimingPoints]
1418,882.352941176471,4,2,4,30,1,0
17300,882.352941176471,4,2,2,30,1,0
17410,-100,4,2,1,30,0,0
31417,-100,4,2,2,30,0,0
31527,-100,4,2,1,30,0,0
56895,-100,4,2,2,30,0,0
57116,-100,4,2,1,30,0,0
58660,-100,4,2,2,30,0,0
58880,-100,4,2,1,30,0,0
59653,-100,4,2,2,40,0,1
59763,-100,4,2,1,60,0,1
62189,-100,4,2,2,60,0,1
62410,-100,4,2,3,60,0,1
62630,-100,4,2,1,60,0,1
69248,-100,4,2,2,60,0,1
69469,-100,4,2,3,60,0,1
69689,-100,4,2,1,60,0,1
71013,-100,4,2,2,60,0,1
71233,-100,4,2,1,60,0,1
72777,-100,4,2,2,60,0,1
72998,-100,4,2,1,60,0,1
76307,-100,4,2,2,60,0,1
76527,-100,4,2,3,60,0,1
76748,-100,4,2,1,60,0,1
88550,-100,4,2,0,30,0,0
94947,-100,4,1,1,40,0,0
95167,-100,4,2,1,70,0,0
129138,-100,4,2,1,70,0,0
129248,-100,4,2,2,70,0,0
129469,-100,4,2,1,70,0,0
133770,-100,4,2,0,50,0,0
134211,-100,4,2,1,70,0,0
135425,-100,4,2,3,70,0,0
135645,-100,4,2,1,70,0,0
136086,-100,4,2,3,70,0,0
136307,-100,4,2,1,70,0,0
137300,-100,4,1,1,50,0,1
137410,-100,4,2,1,80,0,1
139836,-100,4,2,2,80,0,1
140057,-100,4,2,3,80,0,1
140277,-100,4,2,1,80,0,1
146895,-100,4,2,2,80,0,1
147116,-100,4,2,1,80,0,1
148770,-100,4,1,1,50,0,1
148880,-100,4,2,1,80,0,1
150535,-100,4,1,1,50,0,1
150645,-100,4,2,1,80,0,1
151417,-100,4,1,1,50,0,1
151527,-100,4,2,1,80,0,1
153954,-100,4,2,2,80,0,1
154175,-100,4,2,3,80,0,1
154395,-100,4,2,1,80,0,1
161013,-100,4,2,2,80,0,1
161233,-100,4,2,1,80,0,1
162888,-100,4,1,1,50,0,1
162998,-100,4,2,1,80,0,1
164652,-100,4,1,1,50,0,1
164763,-100,4,2,1,80,0,1
166418,-100,4,2,2,70,0,0
166527,-100,4,2,1,70,0,0
167189,-100,4,2,3,70,0,0
167410,-100,4,2,1,70,0,0
167851,-100,4,2,3,70,0,0
168072,-100,4,2,2,70,0,0
168292,-100,4,2,3,70,0,0
168733,-100,4,2,1,70,0,0
173366,-100,4,2,2,70,0,0
173586,-100,4,2,1,70,0,0
174910,-100,4,2,3,70,0,0
175130,-100,4,2,1,70,0,0
176895,-100,4,1,1,50,0,0
177116,-100,4,2,1,70,0,0
178770,-100,4,1,1,50,0,0
178870,-100,4,1,1,50,0,0
178880,-100,4,2,1,70,0,0
179542,-100,4,1,1,50,0,0
179763,-100,4,2,1,70,0,0
181858,-100,4,1,1,50,0,0
181969,-100,4,2,1,70,0,0
182520,-100,4,1,1,50,0,0
182630,-100,4,2,1,70,0,0
183182,-100,4,1,1,50,0,0
183623,-100,4,2,1,70,0,0
185498,-100,4,2,3,70,0,0
185719,-100,4,2,1,70,0,0
187484,-100,4,2,2,70,0,0
187704,-100,4,2,1,70,0,0
188366,-100,4,2,3,70,0,0
188586,-100,4,2,1,70,0,0
189027,-100,4,2,3,70,0,0
189248,-100,4,1,1,30,0,0
189800,-100,4,2,0,50,0,0
193770,-100,4,2,2,50,0,1
193881,-100,4,1,1,50,0,0
207888,-100,4,1,1,50,0,1
207998,-100,4,2,1,80,0,1
210425,-100,4,2,2,80,0,1
210645,-100,4,2,3,80,0,1
210866,-100,4,2,1,80,0,1
217594,-100,4,1,1,50,0,1
217704,-100,4,2,1,80,0,1
219358,-100,4,1,1,50,0,1
219469,-100,4,2,1,80,0,1
221013,-100,4,2,2,60,0,1
221233,-100,4,2,1,80,0,1
222888,-100,4,2,0,30,0,0

[Colours]
Combo1 : 255,185,220
Combo2 : 255,172,172
Combo3 : 255,202,149
Combo4 : 255,255,128
Combo5 : 184,255,176
Combo6 : 164,255,237
Combo7 : 140,198,255
Combo8 : 209,164,255

[HitObjects]
256,36,1418,5,2,0:0:0:0:
436,340,3182,1,2,0:0:0:0:
84,340,4947,5,2,0:0:0:0:
404,192,6712,2,0,P|420:108|392:24,1,160,0|2,0:0|0:0,0:0:0:0:
256,124,8476,5,2,0:0:0:0:
111,37,9359,2,0,P|91:114|108:192,1,160,2|0,0:0|0:0,0:0:0:0:
436,312,12006,6,0,P|320:336|200:312,1,240,2|2,0:0|0:0,0:0:0:0:
256,192,13770,12,2,17300,0:0:0:0:
176,96,18182,6,0,B|216:84|256:96|256:96|296:84|336:96,1,160,8|0,0:0|0:0,0:0:0:0:
328,272,19947,2,0,P|256:300|180:272,1,160,8|0,0:0|0:0,0:0:0:0:
52,152,21711,5,8,0:0:0:0:
184,36,22594,1,0,0:0:0:0:
152,208,23476,5,8,0:0:0:0:
76,48,24358,1,0,0:0:0:0:
228,136,25241,2,0,P|312:152|400:136,2,160,8|0|8,0:0|0:0|0:0,0:0:0:0:
60,184,27888,6,0,B|48:220|48:220|0:260|16:344,1,160,0|8,0:0|0:0,0:0:0:0:
100,296,29211,2,0,P|144:304|176:320,1,80
344,360,30535,1,8,0:0:0:0:
428,208,31417,5,2,0:0:0:0:
420,120,31858,2,0,P|376:136|352:164,1,80,0|8,0:0|0:0,0:0:0:0:
256,308,33182,1,0,0:0:0:0:
295,227,33623,2,0,P|256:216|216:228,1,80,0|8,0:0|0:0,0:0:0:0:
60,308,34947,2,0,B|48:268|64:232|64:232|80:196|64:152,2,160,0|8|0,0:0|0:0|0:0,0:0:0:0:
224,248,37594,6,0,P|256:232|300:228,1,80,8|0,0:0|0:0,0:0:0:0:
324,312,38476,2,0,P|388:248|376:180,1,160,0|8,0:0|0:0,0:0:0:0:
228,96,40241,2,0,P|168:145|172:222,1,160,0|8,0:0|0:0,0:0:0:0:
324,312,42005,6,0,B|404:332|404:332|488:312,1,160,0|8,0:0|0:0,0:0:0:0:
396,160,43770,2,0,B|316:140|316:140|232:160,1,160,2|8,0:0|0:0,0:0:0:0:
76,216,45535,6,0,B|52:188|52:188|28:132|64:60,1,160,2|8,0:0|0:0,0:0:0:0:
220,136,47300,2,0,P|260:128|300:136,1,80,0|2,0:0|0:0,0:0:0:0:
260,212,48182,1,8,0:0:0:0:
180,56,49064,6,0,P|260:40|344:56,1,160,0|8,0:0|0:0,0:0:0:0:
412,212,50829,1,2,0:0:0:0:
256,288,51711,1,8,0:0:0:0:
92,224,52594,6,0,P|80:304|16:360,2,160,0|8|0,0:0|0:0|0:0,0:0:0:0:
112,140,54800,2,0,L|40:96,2,80,2|8|0,0:0|0:0|0:0,0:0:0:0:
176,200,56123,6,0,B|212:180|252:196|252:196|328:260|348:324|296:376|216:376|168:324|184:260|260:196|260:196|304:180|348:200,1,560
368,112,59652,6,0,P|425:163|417:240,1,160,4|8,0:0|0:0,0:0:0:0:
400,328,60976,1,0,0:0:0:0:
316,360,61417,2,0,L|184:344,2,120,4|4|0,0:0|0:0|0:0,0:0:0:0:
312,272,63182,5,4,0:0:0:0:
208,132,64064,1,8,0:0:0:0:
148,300,64947,2,0,P|76:276|44:204,1,160,4|8,0:0|0:0,0:0:0:0:
208,132,66711,6,0,L|376:112,1,160,4|8,0:0|0:0,0:0:0:0:
452,100,68035,1,4,0:0:0:0:
504,172,68476,2,0,P|512:236|504:296,2,120,4|4|0,0:0|0:0|0:0,0:0:0:0:
432,224,70241,6,0,P|406:283|370:331,2,120,4|4|0,0:0|0:0|0:0,0:0:0:0:
344,232,72005,2,0,P|292:270|236:294,2,120,4|0|4,0:0|0:0|0:0,0:0:0:0:
272,184,73770,5,4,0:0:0:0:
188,28,74652,1,8,0:0:0:0:
28,96,75535,2,0,P|12:152|24:220,2,120,4|4|0,0:0|0:0|0:0,0:0:0:0:
104,56,77300,5,4,0:0:0:0:
256,148,78182,1,8,0:0:0:0:
404,56,79064,2,0,P|432:140|400:212,1,160,4|8,0:0|0:0,0:0:0:0:
348,268,80388,1,4,0:0:0:0:
264,300,80829,6,0,L|104:252,1,160,4|8,0:0|0:0,0:0:0:0:
64,84,82594,2,0,L|224:132,1,160,4|8,0:0|0:0,0:0:0:0:
388,176,84358,6,0,P|382:254|338:321,1,160,4|8,0:0|0:0,0:0:0:0:
204,208,86123,6,0,L|212:112,1,80,4|0,0:0|0:0,0:0:0:0:
300,132,87005,2,0,L|308:220,2,80,10|0|4,0:0|0:0|0:0,0:0:0:0:
256,192,88550,12,2,91417,0:0:0:0:
256,192,94947,5,4,0:0:0:0:
408,284,95829,1,8,0:0:0:0:
256,368,96711,2,0,P|208:376|168:376,2,80,4|2|8,0:0|0:0|0:0,0:0:0:0:
408,284,98476,6,0,B|420:208|420:208|408:116,1,160,4|8,0:0|0:0,0:0:0:0:
256,36,100241,2,0,L|256:120,2,80,4|2|8,0:0|0:0|0:0,0:0:0:0:
102,125,102005,6,0,B|92:208|92:208|104:284,1,160,4|8,0:0|0:0,0:0:0:0:
256,372,103770,2,0,L|256:288,2,80,4|2|8,0:0|0:0|0:0,0:0:0:0:
420,304,105535,6,0,B|388:284|388:284|380:216|324:184,1,160,4|8,0:0|0:0,0:0:0:0:
256,128,106858,1,0,0:0:0:0:
186,184,107300,2,0,B|132:216|124:284|124:284|92:304,2,160,4|8|4,0:0|0:0|0:0,0:0:0:0:
180,360,109947,6,0,P|256:380|340:360,1,160,8|4,0:0|0:0,0:0:0:0:
316,276,111270,2,0,L|300:196,1,80,2|8,0:0|0:0,0:0:0:0:
211,197,112152,2,0,L|196:276,2,80,0|4|0,0:0|0:0|0:0,0:0:0:0:
180,116,113476,2,0,P|257:98|334:118,1,160,8|4,0:0|0:0,0:0:0:0:
428,264,115241,5,8,0:0:0:0:
256,300,116123,2,0,L|256:380,2,80,4|0|8,0:0|0:0|0:0,0:0:0:0:
84,264,117888,1,4,0:0:0:0:
80,88,118770,1,8,0:0:0:0:
140,152,119211,6,0,P|172:176|216:184,1,80,0|4,0:0|0:0,0:0:0:0:
300,184,120094,2,0,P|338:175|370:151,1,80,2|8,0:0|0:0,0:0:0:0:
432,88,120976,1,0,0:0:0:0:
496,148,121417,2,0,B|532:196|512:256|512:256|480:304,1,160,6|8,0:0|0:0,0:0:0:0:
316,336,123182,6,0,B|280:308|280:308|248:288|160:296,1,160,4|8,0:0|0:0,0:0:0:0:
16,208,124947,2,0,P|56:216|96:208,1,80,4|2,0:0|0:0,0:0:0:0:
184,204,125829,2,0,B|240:204|240:204|268:204|300:184|324:140,1,160,8|4,0:0|0:0,0:0:0:0:
380,80,127152,2,0,P|420:72|460:80,1,80,0|8,0:0|0:0,0:0:0:0:
424,252,128476,2,0,B|392:252|392:252|344:272|292:240,2,120,4|4|4,0:0|0:0|0:0,0:0:0:0:
512,252,130241,5,4,0:0:0:0:
352,176,131123,2,0,B|368:112|348:68|348:68|320:48|296:32,1,160,8|4,0:0|0:0,0:0:0:0:
256,112,132447,1,2,0:0:0:0:
205,39,132888,2,0,B|192:48|164:68|164:68|144:116|160:176,1,160,8|4,0:0|0:0,0:0:0:0:
100,340,134652,6,0,B|176:376|256:340|256:340|332:308|420:340,1,320,8|8,0:0|0:0,0:0:0:0:
372,164,137300,6,0,L|396:80,1,80,4|0,0:0|0:0,0:0:0:0:
308,92,138182,2,0,L|286:7,1,80,8|0,0:0|0:0,0:0:0:0:
220,68,139064,2,0,P|152:68|104:104,2,120,4|4|0,0:0|0:0|0:0,0:0:0:0:
184,148,140829,5,4,0:0:0:0:
256,308,141711,1,8,0:0:0:0:
328,148,142594,2,0,P|404:124|476:152,1,160,4|8,0:0|0:0,0:0:0:0:
404,316,144358,6,0,P|368:336|324:344,1,80,4|0,0:0|0:0,0:0:0:0:
332,256,145241,2,0,P|288:260|248:252,1,80,8|4,0:0|0:0,0:0:0:0:
288,172,146123,2,0,P|244:116|244:68,2,120,4|4|4,0:0|0:0|0:0,0:0:0:0:
328,92,147888,5,4,0:0:0:0:
256,252,148770,1,4,0:0:0:0:
188,92,149652,2,0,P|112:72|28:92,1,160,4|4,0:0|0:0,0:0:0:0:
12,264,151417,6,0,B|12:304|12:304|20:348,1,80,4|0,0:0|0:0,0:0:0:0:
96,300,152300,2,0,B|115:334|115:334|144:368,1,80,8|4,0:0|0:0,0:0:0:0:
196,296,153182,2,0,P|252:312|316:296,2,120,4|4|0,0:0|0:0|0:0,0:0:0:0:
256,228,154947,5,4,0:0:0:0:
404,328,155829,1,8,0:0:0:0:
476,168,156711,2,0,P|480:88|432:28,1,160,4|8,0:0|0:0,0:0:0:0:
256,40,158476,5,4,0:0:0:0:
256,216,159358,2,0,L|256:308,1,80,8|4,0:0|0:0,0:0:0:0:
316,360,160241,2,0,P|256:380|192:356,2,120,4|4|4,0:0|0:0|0:0,0:0:0:0:
384,304,162005,5,4,0:0:0:0:
256,180,162888,1,4,0:0:0:0:
132,304,163770,2,0,P|56:256|32:184,1,160,4|4,0:0|0:0,0:0:0:0:
208,216,165535,6,0,B|208:180|208:180|188:160|160:140|116:156|92:76|144:12|208:-4|256:40|256:40|304:-4|360:12|408:76|392:156|344:140|320:156|304:180|304:180|304:228,1,640,4|4,0:0|0:0,0:0:0:0:
404,360,169947,6,0,L|492:324,1,80,8|0,0:0|0:0,0:0:0:0:
432,256,170829,2,0,P|460:176|432:92,1,160,4|8,0:0|0:0,0:0:0:0:
368,60,172152,6,0,L|292:36,1,80,0|4,0:0|0:0,0:0:0:0:
256,116,173035,2,0,P|180:144|108:116,1,160,0|2,0:0|0:0,0:0:0:0:
44,60,174358,2,0,P|-4:132|16:216,1,160,4|8,0:0|0:0,0:0:0:0:
72,364,176123,6,0,P|156:356|236:368,1,160,6|4,0:0|0:0,0:0:0:0:
328,220,177888,2,0,P|407:230|486:222,1,160,4|4,0:0|0:0,0:0:0:0:
392,72,179652,6,0,B|352:56|312:68|312:68|272:56|224:72,1,160,4|8,0:0|0:0,0:0:0:0:
272,148,180976,2,0,P|228:156|188:148,1,80,0|4,0:0|0:0,0:0:0:0:
152,72,181858,2,0,L|28:52,2,120,4|4|4,0:0|0:0|0:0,0:0:0:0:
104,240,184064,5,8,0:0:0:0:
260,324,184947,2,0,P|344:292|392:236,1,160,4|8,0:0|0:0,0:0:0:0:
411,66,186711,6,0,B|363:50|315:66|303:118|303:118|295:170|256:280|219:170|207:118|207:118|195:66|143:50|96:68,1,480,4|4,0:0|0:0,0:0:0:0:
256,192,190241,12,4,192005,0:0:0:0:
252,200,193770,5,2,0:0:0:0:
256,192,204358,12,4,207005,0:0:0:0:
312,320,207888,6,0,L|300:232,1,80,4|0,0:0|0:0,0:0:0:0:
388,224,208770,2,0,L|376:136,1,80,8|4,0:0|0:0,0:0:0:0:
312,84,209653,2,0,P|256:68|192:84,2,120,4|4|0,0:0|0:0|0:0,0:0:0:0:
256,152,211418,5,4,0:0:0:0:
108,56,212300,1,8,0:0:0:0:
0,196,213182,2,0,B|25:253|25:253|47:266|47:266|79:329,1,160,4|8,0:0|0:0,0:0:0:0:
256,352,214947,5,4,0:0:0:0:
256,176,215829,2,0,B|260:140|260:140|252:140|252:140|256:96,1,80,8|0,0:0|0:0,0:0:0:0:
196,40,216712,2,0,P|256:20|320:44,2,120,4|4|0,0:0|0:0|0:0,0:0:0:0:
120,84,218476,5,4,0:0:0:0:
256,200,219359,1,4,0:0:0:0:
388,84,220241,2,0,P|464:132|488:204,1,160,4|4,0:0|0:0,0:0:0:0:
316,248,222005,6,0,P|256:264|196:248,1,120,2|2,0:0|0:0,0:0:0:0:
256,192,222888,12,2,225204,0:0:0:0:
