osu file format v14

[General]
AudioFilename: Mou Ichido.mp3
AudioLeadIn: 0
PreviewTime: 136858
Countdown: 0
SampleSet: Soft
StackLeniency: 0.7
Mode: 0
LetterboxInBreaks: 0
StoryFireInFront: 0
WidescreenStoryboard: 0

[Editor]
Bookmarks: 17749,91425,94955,193778,204367
DistanceSpacing: 1.4
BeatDivisor: 8
GridSize: 4
TimelineZoom: 1

[Metadata]
Title:Mou Ichido
TitleUnicode:もう一度
Artist:Kuraki Mai
ArtistUnicode:倉木麻衣
Creator:Backstep
Version:Collab Hard
Source:霧に棲む悪魔
Tags:OVER THE RAINBOW One More Time jpop j-pop Niva HeatKai Devil in the Mist
BeatmapID:297999
BeatmapSetID:112887

[Difficulty]
HPDrainRate:7
CircleSize:4.2
OverallDifficulty:7
ApproachRate:8.5
SliderMultiplier:2.8
SliderTickRate:4

[Events]
//Background and Video events
0,0,"MI-BG.jpg",0,0
//Break Periods
2,91617,94272
2,193970,203683
//Storyboard Layer 0 (Background)
Sprite,Background,TopLeft,"MI-BG.jpg",0,0
//Storyboard Layer 1 (Fail)
//Storyboard Layer 2 (Pass)
//Storyboard Layer 3 (Foreground)
Sprite,Foreground,Centre,"MI-BG.jpg",320,240 M,0,0,,320,240 S,0,0,,0.6266666 F,0,0,13770,0,1 F,0,13770,17300,1,0.9997821
Sprite,Foreground,Centre,"SB/bg-a.jpg",320,240 F,0,15535,17300,0,1 M,0,15535,31417,320,240
Sprite,Foreground,Centre,"SB/bg-c.jpg",320,240 F,0,29652,31417,0,1 F,0,31417,43770,1 F,0,43770,45535,1,0
Sprite,Foreground,Centre,"SB/kudo-ran2-c.png",320,240 S,0,15535,,0.7866666 M,0,17300,,181,290 F,0,17300,18182,0,1 M,0,17300,31417,181,290,237,290 F,0,18182,29652,1 F,0,29652,31417,1,0
Sprite,Foreground,Centre,"SB/kudoran.png",320,240 S,0,31307,,0.872 F,0,31307,32189,0,1 M,0,31307,44652,217,269,292,270 F,0,32189,42888,1 F,0,42888,44652,1,0
Sprite,Foreground,Centre,"SB/bg-d.jpg",320,240 F,0,43770,45094,0,1 F,0,45094,57888,1 F,0,57888,59652,1,0
Sprite,Foreground,Centre,"SB/ai-conan.png",320,240 S,0,45094,,0.8826668 F,0,45094,46417,0.002666473,0.9909539 M,0,45094,58770,153,321,189,326 F,0,46417,57888,0.9909539 F,0,57888,58770,0.9909539,0
Sprite,Foreground,Centre,"SB/Backstep.png",320,240 F,0,535,12006,0,1 F,0,12006,,1 F,0,12006,13770,1 F,0,13770,14653,1,0 F,0,14653,17300,0 M,0,17300,,471,189 F,0,17300,,0 F,0,17300,18182,0,1 F,0,18182,58329,1 F,0,58329,59211,1,0
Sprite,Foreground,Centre,"SB/bg-b.jpg",320,240 F,0,57888,59652,0,1 F,0,59652,89652,1 F,0,89652,91417,1,0
Sprite,Foreground,Centre,"SB/ran-b.png",320,240 F,0,58770,59652,0,1 M,0,58770,72888,152,325,152,275 S,0,59652,,0.8506666 F,0,59652,71123,1 F,0,71123,72888,1,0
Sprite,Foreground,Centre,"SB/conan 1.png",320,240 S,0,73329,,0.8613333 F,0,73329,74211,0,1 M,0,73329,91417,122,329,121,273 F,0,74211,89652,1 F,0,89652,91417,1,0
Sprite,Foreground,Centre,"SB/HeatKai.png",320,240 M,0,58329,,472,293 F,0,58329,59211,0,1 F,0,59211,89652,1 F,0,89652,91417,1,0
Sprite,Foreground,Centre,"SB/bg-b.jpg",320,240 F,0,135535,137300,0,1 F,0,137300,166417,1 F,0,166417,168182,1,0
Sprite,Foreground,Centre,"SB/ran-b.png",320,240 S,0,137300,,0.904 F,0,137300,138182,0,1 M,0,137300,150535,163,314,162,262 F,0,138182,148770,1 F,0,148770,150535,1,0.002834439
Sprite,Foreground,Centre,"SB/kudo1.png",320,240 S,0,150535,,0.936 F,0,150535,151417,0,1 M,0,150535,167300,173,298,173,259 F,0,151417,165535,1 F,0,165535,167300,1,0
Sprite,Foreground,Centre,"SB/Backstep.png",320,240 M,0,135976,,472,292 F,0,135976,136858,0,1 F,0,136858,167741,1 F,0,167741,168623,1,0
Sprite,Foreground,Centre,"SB/bg-b.jpg",320,240 M,0,206123,,320,240 F,0,206123,207888,0,1 F,0,207888,222888,1 F,0,222888,225535,1,0
Sprite,Foreground,Centre,"SB/ran-b.png",320,240 F,0,207888,208770,0,1 M,0,207888,214064,181,342,180,263 F,0,208770,212300,1 F,0,212300,214064,1,0
Sprite,Foreground,Centre,"SB/conan 1.png",320,240 S,0,214064,,0.8400002 F,0,214064,214947,0,1 M,0,214064,223770,119,357,120,276 F,0,214947,222005,1 F,0,222005,223770,1,0
Sprite,Foreground,Centre,"SB/kudo1.png",320,240 S,0,214064,,0.8079998 R,0,214064,,-3.136 F,0,214064,214947,0,1 M,0,214064,223770,489,123,489,194 F,0,214947,222005,1 F,0,222005,223770,1,0
Sprite,Foreground,Centre,"SB/Niva.png",320,240 M,0,206564,,101,384 F,0,206564,207447,0,1 F,0,207447,222888,1 F,0,222888,225535,1,0
Sprite,Foreground,Centre,"SB/Detective.Conan.full.814975.jpg",320,240 F,0,166417,168182,0,1 M,0,166417,192005,734,241,-93,236 F,0,168182,190241,1 F,0,190241,192005,1,0
Sprite,Foreground,Centre,"SB/HeatKai.png",320,240 M,0,167741,,163,294 F,0,167741,168623,0,1 F,0,168623,190241,1 F,0,190241,192005,1,0
Sprite,Foreground,Centre,"SB/ai-kudo.jpg",320,240 F,0,94064,107300,1 S,0,94064,109064,1,0.8826667 R,0,94064,109064,0.1493335,0 M,0,94947,,320,240 F,0,107300,109064,1,0
Sprite,Foreground,Centre,"SB/child.jpg",320,240 F,0,107300,109064,0,1 M,0,107300,123182,357,233,289,234 F,0,109064,121417,1 F,0,121417,123182,1,0
Sprite,Foreground,Centre,"SB/white.jpg",320,240 S,0,93182,,1.010667 F,0,93182,94064,0,0.9200001 F,0,94064,94947,0.9200001,0
Sprite,Foreground,Centre,"SB/Ring.png",320,240 F,0,91858,92079,0,1 S,0,91858,92520,0.1,0.8146665 F,0,92079,92520,1,0
Sprite,Foreground,Centre,"SB/Ring.png",320,240 M,0,92079,,376,321 F,0,92079,92300,0,1 S,0,92079,92741,0.1,0.6546664 F,0,92300,92741,1,0
Sprite,Foreground,Centre,"SB/policestation.jpg",320,240 S,0,121417,,0.8506666 F,0,121417,123182,0,1 M,0,121417,137300,293,240,353,243 F,0,123182,135535,1 F,0,135535,137300,1,0
Sprite,Foreground,Centre,"SB/Niva.png",320,240 M,0,94947,,137,348 R,0,94947,,0 F,0,94947,95829,0,1 F,0,95829,135976,1 F,0,135976,136858,1,0
Sprite,Foreground,Centre,"SB/Mini Light.png",320,240 S,0,94947,,1.650667 F,0,94947,95829,0,1 R,0,94947,166417,0,-2.529164 F,0,95829,165535,1 F,0,165535,166417,1,0 F,0,166417,,0,0.8334965 R,0,166417,,-2.529164
Sprite,Foreground,Centre,"SB/Ring.png",320,240 M,0,193550,,317,257 F,0,193550,193770,0,1 S,0,193550,194652,0.1,1.262667 F,0,193770,194652,1,0
Sprite,Foreground,Centre,"SB/Mini Light.png",320,240 M,0,59652,,320,240 S,0,59652,,1.533333 F,0,59652,60535,0,1 R,0,59652,91417,0,1.642667 F,0,60535,89652,1 F,0,89652,91417,1,0
Sprite,Foreground,Centre,"SB/Mini Light.png",320,240 S,0,207888,,1.704 F,0,207888,208770,0,1 R,0,207888,225535,0,1.6 F,0,208770,222888,1 F,0,222888,225535,1,0
Sprite,Foreground,Centre,"SB/lyrics/sb-lyric1.png",320,240 F,0,17300,17741,0,1 M,0,17300,22594,474,385,403,384 F,0,17741,21711,1 F,0,21711,22594,1,0
Sprite,Foreground,Centre,"SB/lyrics/sb-lyric2.png",320,240 F,0,23035,23476,0.06133301,1 M,0,23035,30535,298,429,401,428 F,0,23476,29652,1 F,0,29652,30535,1,0.01333298
Sprite,Foreground,Centre,"SB/lyrics/sb-lyric3.png",320,240 F,0,31417,31858,0,1 M,0,31417,36711,446,382,384,385 F,0,31858,35829,1 F,0,35829,36711,1,0
Sprite,Foreground,Centre,"SB/lyrics/sb-lyric4.png",320,240 F,0,37152,37594,0.05066635,1 M,0,37152,42005,354,429,412,426 F,0,37594,41123,1 F,0,41123,42005,1,0.02933289
Sprite,Foreground,Centre,"SB/lyrics/sb-lyric5.png",320,240 F,0,41123,41454,0,1 M,0,41123,44652,399,384,358,384 F,0,41454,43770,1 F,0,43770,44652,1,0
Sprite,Foreground,Centre,"SB/lyrics/sb-lyric6.png",320,240 F,0,44652,45094,0.06133301,1 M,0,44652,50829,306,428,401,429 F,0,45094,49947,1 F,0,49947,50829,1,0.03999969
Sprite,Foreground,Centre,"SB/lyrics/sb-lyric7.png",320,240 F,0,51711,52152,0,1 M,0,51711,58770,398,386,302,385 F,0,52152,57888,1 F,0,57888,58770,1,0
Sprite,Foreground,Centre,"SB/lyrics/sb-lyric8.png",320,240 F,0,58770,59211,0.08266632,1 M,0,58770,63182,348,429,414,428 F,0,59211,62300,1 F,0,62300,63182,1,0.02399979
Sprite,Foreground,Centre,"SB/lyrics/sb-lyric9.png",320,240 F,0,62300,62741,0,1 M,0,62300,66270,426,376,346,377 F,0,62741,65388,1 F,0,65388,66270,1,0
Sprite,Foreground,Centre,"SB/lyrics/sb-lyricTen.png",320,240 F,0,65829,66270,0.02933289,1 M,0,65829,73309,301,429,379,427 F,0,66270,72447,1 F,0,72447,73329,1,0.002666321
Sprite,Foreground,Centre,"SB/lyrics/sb-lyric11.png",320,240 F,0,72888,73329,0,1 M,0,72888,76858,441,373,374,373 F,0,73329,75976,1 F,0,75976,76858,1,0
Sprite,Foreground,Centre,"SB/lyrics/sb-lyric12.png",320,240 F,0,76417,76858,0,1 M,0,76417,80388,379,427,458,430 F,0,76858,79505,1 F,0,79505,80388,1,0.02933289
Sprite,Foreground,Centre,"SB/lyrics/sb-lyric13.png",320,240 F,0,79947,80388,0,1 M,0,79947,84358,401,373,347,375 F,0,80388,83476,1 F,0,83476,84358,1,0
Sprite,Foreground,Centre,"SB/lyrics/sb-lyric14.png",320,240 F,0,85241,85682,0.05066635,1 M,0,85241,89652,392,429,467,429 F,0,85682,88770,1 F,0,88770,89652,1,0
Sprite,Foreground,Centre,"SB/lyrics/sb-lyric15.png",320,240 F,0,94947,95388,0,1 M,0,94947,100241,442,370,360,370 F,0,95388,99358,1 F,0,99358,100241,1,0
Sprite,Foreground,Centre,"SB/lyrics/sb-lyric16.png",320,240 F,0,100682,101123,0,1 M,0,100682,108182,299,430,405,429 F,0,101123,107300,1 F,0,107300,108182,1,0
Sprite,Foreground,Centre,"SB/lyrics/sb-lyric17.png",320,240 F,0,109064,109505,0,1 M,0,109064,114358,400,371,347,373 F,0,109505,113476,1 F,0,113476,114358,1,0
Sprite,Foreground,Centre,"SB/lyrics/sb-lyric18.png",320,240 F,0,114800,115241,0,1 M,0,114800,122300,288,430,370,430 F,0,115241,121417,1 F,0,121417,122300,1,0.01333298
Sprite,Foreground,Centre,"SB/lyrics/sb-lyric19.png",320,240 F,0,122300,122741,0,1 M,0,122300,128476,412,371,339,370 F,0,122741,127594,1 F,0,127594,128476,1,0
Sprite,Foreground,Centre,"SB/lyrics/sb-lyricDiTen.png",320,240 F,0,129358,129800,0.03999969,1 M,0,129358,136417,323,432,398,430 F,0,129800,135535,1 F,0,135535,136417,1,0.05066635
Sprite,Foreground,Centre,"SB/lyrics/sb-lyric21.png",320,240 F,0,136417,136858,0,1 M,0,136417,140388,420,374,363,372 F,0,136858,139505,1 F,0,139505,140388,1,0
Sprite,Foreground,Centre,"SB/lyrics/sb-lyric22.png",320,240 F,0,139947,140388,0.05599976,1 M,0,139947,143917,337,429,400,427 F,0,140388,143035,1 F,0,143035,143917,1,0.02399979
Sprite,Foreground,Centre,"SB/lyrics/sb-lyric23.png",320,240 F,0,143476,143917,0,1 M,0,143476,150976,339,369,299,371 F,0,143917,150094,1 F,0,150094,150976,1,0
Sprite,Foreground,Centre,"SB/lyrics/sb-lyric24.png",320,240 F,0,150535,150976,0.03999969,1 M,0,150535,154505,333,427,400,428 F,0,150976,153623,1 F,0,153623,154505,1,0
Sprite,Foreground,Centre,"SB/lyrics/sb-lyric25.png",320,240 F,0,154064,154505,0,1 M,0,154064,158035,423,371,363,372 F,0,154505,157152,1 F,0,157152,158035,1,0
Sprite,Foreground,Centre,"SB/lyrics/sb-lyric26.png",320,240 F,0,157594,158035,0.02933289,1 M,0,157594,162005,340,429,404,427 F,0,158035,161123,1 F,0,161123,162005,1,0.007999726
Sprite,Foreground,Centre,"SB/lyrics/sb-lyric27.png",320,240 F,0,162888,163219,0,1 M,0,162888,167300,400,371,345,374 F,0,163219,167300,1,0
Sprite,Foreground,Centre,"SB/lyrics/sb-lyric28.png",320,240 F,0,168182,168623,0.007999726,1 M,0,168182,173917,315,428,383,427 F,0,168623,173035,1 F,0,173035,173917,1,0.002666321
Sprite,Foreground,Centre,"SB/lyrics/sb-lyric29.png",320,240 F,0,173476,173917,0,1 M,0,173476,182300,386,371,266,371 F,0,173917,181417,1 F,0,181417,182300,1,0
Sprite,Foreground,Centre,"SB/lyrics/sb-lyricTriTen.png",320,240 F,0,181858,,0 F,0,181858,182300,0,1 M,0,181858,189358,324,426,438,425 F,0,182300,188476,1 F,0,188476,189358,1,0.007999726
Sprite,Foreground,Centre,"SB/lyrics/sb-lyric31.png",320,240 F,0,192888,193329,0,1 M,0,192888,196858,264,357,340,357 F,0,193329,195976,1 F,0,195976,196858,1,0
Sprite,Foreground,Centre,"SB/lyrics/sb-lyric32.png",320,240 F,0,196417,196858,0,1 M,0,196417,200388,369,130,278,131 F,0,196858,199505,1 F,0,199505,200388,1,0
Sprite,Foreground,Centre,"SB/lyrics/sb-lyric33.png",320,240 F,0,199947,200388,0,1 M,0,199947,207447,299,353,377,353 F,0,200388,206564,1 F,0,206564,207447,1,0
Sprite,Foreground,Centre,"SB/lyrics/sb-lyric34.png",320,240 F,0,207005,207447,0,1 M,0,207005,210976,323,429,403,428 F,0,207447,210094,1 F,0,210094,210976,1,0.02399979
Sprite,Foreground,Centre,"SB/lyrics/sb-lyric35.png",320,240 F,0,210535,210976,0,1 M,0,210535,214505,447,373,409,372 F,0,210976,213623,1 F,0,213623,214505,1,0
Sprite,Foreground,Centre,"SB/lyrics/sb-lyric36.png",320,240 F,0,214064,214505,0.02399979,1 M,0,214064,218476,305,429,401,428 F,0,214505,217594,1 F,0,217594,218476,1,0.05066635
Sprite,Foreground,Centre,"SB/lyrics/sb-lyric37.png",320,240 F,0,219358,219800,0,1 M,0,219358,223770,439,361,344,362 F,0,219800,222888,1 F,0,222888,223770,1,0
Sprite,Foreground,Centre,"SB/Ring.png",320,240 F,0,92520,92741,0,1 S,0,92520,93182,0.1,0.9213333 F,0,92741,93182,1,0
Sprite,Foreground,Centre,"SB/Ring.png",320,240 F,0,94836,94947,0,1 M,0,94947,,319,249 F,0,94947,95829,1,0 S,0,94947,95829,0.1,1.870667
Sprite,Foreground,Centre,"SB/Mini Light.png",320,240 M,0,17300,,442,188 S,0,17300,,0.7226666 F,0,17300,18182,0,1 R,0,17300,59211,0,-3.306667 F,0,18182,58329,1 F,0,58329,59211,1,0
//Storyboard Sound Samples

[TimingPoints]
1418,882.352941176471,4,2,4,30,1,0
10020,-200,4,2,4,30,0,0
11344,-100,4,2,4,30,0,0
17300,882.352941176471,4,2,2,30,1,0
17410,-100,4,2,1,30,0,0
31417,-100,4,2,2,30,0,0
31527,-100,4,2,1,30,0,0
39248,-100,4,2,2,30,0,0
39469,-100,4,2,1,30,0,0
56895,-100,4,2,2,30,0,0
57116,-100,4,2,1,30,0,0
59652,-100,4,2,0,40,0,1
59763,-100,4,2,1,35,0,1
65719,-100,4,2,2,35,0,1
65940,-100,4,2,1,35,0,1
71013,-100,4,2,2,35,0,1
71233,-100,4,2,1,35,0,1
83366,-100,4,2,2,35,0,1
83586,-100,4,2,1,35,0,1
86895,-100,4,2,2,35,0,1
87116,-100,4,2,1,35,0,1
88550,-100,4,2,2,30,0,0
94947,-100,4,2,0,40,0,0
96491,-100,4,2,0,30,0,0
96601,-100,4,2,0,40,0,0
97667,-100,4,2,2,40,0,0
97814,-100,4,2,0,40,0,0
100020,-100,4,2,0,30,0,0
100241,-100,4,2,0,40,0,0
101013,-100,4,2,0,40,0,0
103550,-100,4,2,0,40,0,0
103660,-100,4,2,0,40,0,0
106307,-100,4,2,0,40,0,0
106528,-100,4,2,0,40,0,0
106969,-100,4,2,0,30,0,0
107190,-100,4,2,0,40,0,0
110609,-100,4,2,0,30,0,0
110719,-100,4,2,0,40,0,0
111711,-100,4,2,2,40,0,0
111932,-100,4,2,0,40,0,0
113807,-100,4,2,0,30,0,0
114138,-100,4,2,0,30,0,0
114248,-100,4,2,0,40,0,0
114689,-100,4,2,0,30,0,0
115020,-100,4,2,0,40,0,0
117557,-100,4,2,0,30,0,0
117778,-100,4,2,0,40,0,0
118770,-100,4,2,2,40,0,0
118991,-100,4,2,0,40,0,0
121197,-100,4,2,0,30,0,0
121307,-100,4,2,0,40,0,0
124726,-100,4,2,0,30,0,0
124837,-100,4,2,0,40,0,0
128256,-100,4,2,0,30,0,0
128366,-100,4,2,0,40,0,0
131785,-100,4,2,0,30,0,0
131895,-100,4,2,0,40,0,0
135314,-100,4,2,0,30,0,0
135535,-100,4,2,0,40,0,0
137300,-83.3333333333333,4,1,1,40,0,1
137410,-83.3333333333333,4,2,1,60,0,1
139064,-83.3333333333333,4,2,1,40,0,1
139175,-83.3333333333333,4,2,1,60,0,1
139616,-83.3333333333333,4,2,1,40,0,1
139836,-83.3333333333333,4,2,1,60,0,1
140057,-83.3333333333333,4,2,1,40,0,1
140277,-83.3333333333333,4,2,1,60,0,1
140719,-83.3333333333333,4,2,1,40,0,1
140939,-83.3333333333333,4,2,1,60,0,1
142483,-83.3333333333333,4,2,1,40,0,1
143366,-83.3333333333333,4,2,1,60,0,1
143807,-83.3333333333333,4,2,1,40,0,1
144027,-83.3333333333333,4,2,1,60,0,1
144248,-83.3333333333333,4,2,1,40,0,1
144469,-83.3333333333333,4,2,1,60,0,1
145572,-83.3333333333333,4,2,1,40,0,1
145792,-83.3333333333333,4,2,1,60,0,1
146013,-83.3333333333333,4,2,1,40,0,1
146233,-83.3333333333333,4,2,1,60,0,1
146675,-83.3333333333333,4,2,1,40,0,1
146895,-83.3333333333333,4,2,1,60,0,1
147116,-83.3333333333333,4,2,1,40,0,1
147336,-83.3333333333333,4,2,1,60,0,1
147777,-83.3333333333333,4,2,1,40,0,1
147998,-83.3333333333333,4,2,1,60,0,1
148770,-83.3333333333333,4,1,1,40,0,1
148880,-83.3333333333333,4,2,1,40,0,1
150535,-83.3333333333333,4,1,1,40,0,1
150645,-83.3333333333333,4,2,1,40,0,1
151417,-83.3333333333333,4,1,1,40,0,1
151527,-83.3333333333333,4,2,1,60,0,1
152741,-83.3333333333333,4,2,1,40,0,1
152851,-83.3333333333333,4,2,1,60,0,1
153072,-83.3333333333333,4,2,1,40,0,1
153292,-83.3333333333333,4,2,1,60,0,1
153733,-83.3333333333333,4,2,1,40,0,1
153954,-83.3333333333333,4,2,1,60,0,1
154175,-83.3333333333333,4,2,1,40,0,1
154395,-83.3333333333333,4,2,1,60,0,1
154836,-83.3333333333333,4,2,1,40,0,1
155057,-83.3333333333333,4,2,1,60,0,1
156160,-83.3333333333333,4,2,1,40,0,1
156380,-83.3333333333333,4,2,1,60,0,1
156601,-83.3333333333333,4,2,1,40,0,1
157483,-83.3333333333333,4,2,1,60,0,1
157925,-83.3333333333333,4,2,1,40,0,1
158145,-83.3333333333333,4,2,1,60,0,1
158366,-83.3333333333333,4,2,1,40,0,1
158586,-83.3333333333333,4,2,1,60,0,1
159689,-83.3333333333333,4,2,1,40,0,1
159910,-83.3333333333333,4,2,1,60,0,1
160130,-83.3333333333333,4,2,1,40,0,1
160351,-83.3333333333333,4,2,1,60,0,1
160792,-83.3333333333333,4,2,1,40,0,1
161013,-83.3333333333333,4,2,1,60,0,1
161233,-83.3333333333333,4,2,1,40,0,1
161454,-83.3333333333333,4,2,1,60,0,1
161895,-83.3333333333333,4,2,1,40,0,1
162116,-83.3333333333333,4,2,1,60,0,1
162888,-83.3333333333333,4,1,1,40,0,1
162998,-83.3333333333333,4,2,1,60,0,1
163660,-83.3333333333333,4,2,1,40,0,1
164542,-83.3333333333333,4,2,2,60,0,1
164763,-83.3333333333333,4,2,1,40,0,1
166307,-100,4,2,1,40,0,0
177005,-100,4,1,1,40,0,0
177116,-100,4,2,1,40,0,0
178770,-100,4,1,1,40,0,0
178880,-100,4,2,1,40,0,0
179652,-100,4,1,1,40,0,0
179763,-100,4,2,1,40,0,0
181858,-100,4,1,1,40,0,0
181969,-100,4,2,1,40,0,0
182410,-100,4,1,1,40,0,0
182630,-100,4,2,1,40,0,0
183182,-100,4,1,1,40,0,0
183292,-100,4,2,1,40,0,0
186822,-100,4,2,0,40,0,0
193770,-100,4,2,2,70,0,1
193881,-100,4,2,0,50,0,0
207447,-83.3333333333333,4,2,0,50,0,0
207888,-83.3333333333333,4,2,0,60,0,1
209432,-83.3333333333333,4,2,0,40,0,1
209652,-83.3333333333333,4,2,0,60,0,1
212961,-83.3333333333333,4,2,0,40,0,1
213182,-83.3333333333333,4,2,0,60,0,1
216491,-83.3333333333333,4,2,0,40,0,1
216711,-83.3333333333333,4,2,0,60,0,1
217594,-83.3333333333333,4,2,0,40,0,1
217704,-83.3333333333333,4,2,0,60,0,1
219358,-83.3333333333333,4,2,0,40,0,1
219469,-83.3333333333333,4,2,0,60,0,1
220020,-83.3333333333333,4,2,0,40,0,1
220241,-83.3333333333333,4,2,0,60,0,1
222888,-100,4,2,0,30,0,0

[Colours]
Combo1 : 255,185,220
Combo2 : 255,172,172
Combo3 : 255,202,149
Combo4 : 255,255,128
Combo5 : 184,255,176
Combo6 : 164,255,237
Combo7 : 140,198,255
Combo8 : 209,164,255

[HitObjects]
104,104,1418,6,0,P|176:112|248:104,1,140,2|0,0:0|0:0,0:0:0:0:
432,228,2300,2,0,P|360:220|288:228,1,140,2|0,0:0|0:0,0:0:0:0:
112,236,3182,2,0,P|88:168|104:104,1,140,2|0,0:0|0:0,0:0:0:0:
400,148,4065,2,0,P|424:216|408:280,1,140,0|2,0:0|0:0,0:0:0:0:
200,192,4947,6,0,P|128:184|48:192,1,140,2|0,0:0|0:0,0:0:0:0:
312,192,5829,2,0,P|384:184|464:192,1,140,2|0,0:0|0:0,0:0:0:0:
332,328,6712,5,2,0:0:0:0:
200,192,7153,1,0,0:0:0:0:
312,192,7594,1,2,0:0:0:0:
180,328,8035,1,0,0:0:0:0:
24,236,8476,6,0,B|0:200|8:140|8:140|60:96,1,140,2|0,0:0|0:0,0:0:0:0:
194,205,9359,2,0,B|218:241|210:301|210:301|180:328,1,140,2|0,0:0|0:0,0:0:0:0:
324,220,10241,2,0,P|384:168|376:108,1,140,2|0,0:0|0:0,0:0:0:0:
196,36,11565,5,2,0:0:0:0:
256,104,11785,1,0,0:0:0:0:
316,36,12006,1,2,0:0:0:0:
192,168,12447,2,0,P|256:192|328:160,2,140,0|2|2,0:0|0:0|0:0,0:0:0:0:
256,192,13770,12,2,17300,0:0:0:0:
256,95,17741,5,0,0:0:0:0:
312,269,18182,1,8,0:0:0:0:
163,161,18623,1,0,0:0:0:0:
347,161,19064,1,0,0:0:0:0:
199,269,19505,6,0,P|142:288|68:268,1,140,0|8,0:0|0:0,0:0:0:0:
32,184,20167,1,0,0:0:0:0:
32,184,20388,2,0,L|4:40,2,140,0|0|0,0:0|0:0|0:0,0:0:0:0:
0,268,21491,1,0,0:0:0:0:
76,312,21711,2,0,P|144:312|208:264,1,140,8|0,0:0|0:0,0:0:0:0:
416,224,22594,2,0,L|276:224,1,140,2|0,0:0|0:0,0:0:0:0:
184,224,23255,1,0,0:0:0:0:
144,140,23476,5,8,0:0:0:0:
60,176,23697,1,0,0:0:0:0:
96,260,23917,2,0,P|152:308|232:308,1,140,0|0,0:0|0:0,0:0:0:0:
300,280,24579,2,0,P|332:272|376:276,1,70
452,312,25020,1,0,0:0:0:0:
404,196,25241,1,8,0:0:0:0:
488,228,25461,2,0,P|504:188|500:156,1,70
472,68,25902,1,0,0:0:0:0:
368,100,26123,2,0,P|302:118|222:102,2,140,2|0|8,0:0|0:0|0:0,0:0:0:0:
124,36,27447,5,0,0:0:0:0:
68,108,27667,1,0,0:0:0:0:
124,180,27888,2,0,P|140:252|116:320,1,140
56,248,28550,1,0,0:0:0:0:
196,120,28770,2,0,P|268:104|332:120,1,140,8|0,0:0|0:0,0:0:0:0:
264,188,29432,1,0,0:0:0:0:
140,56,29652,2,0,P|72:40|0:56,1,140,2|0,0:0|0:0,0:0:0:0:
24,144,30314,6,0,L|0:216,1,70,0|8,0:0|0:0,0:0:0:0:
92,224,30755,2,0,L|107:298,1,70
196,280,31197,2,0,L|246:336,1,70,0|2,0:0|0:0,0:0:0:0:
196,108,31858,5,0,0:0:0:0:
256,40,32079,1,0,0:0:0:0:
336,88,32300,2,0,P|396:124|476:112,1,140,8|0,0:0|0:0,0:0:0:0:
420,40,32961,1,0,0:0:0:0:
500,196,33182,2,0,P|508:244|500:284,1,70,2|0,0:0|0:0,0:0:0:0:
448,336,33623,1,0,0:0:0:0:
360,320,33844,1,0,0:0:0:0:
276,356,34064,2,0,P|204:364|132:356,1,140,8|0,0:0|0:0,0:0:0:0:
52,328,34726,1,0,0:0:0:0:
52,328,34947,6,0,L|20:176,1,140,2|0,0:0|0:0,0:0:0:0:
60,108,35608,1,0,0:0:0:0:
132,164,35829,2,0,P|200:180|272:164,1,140,8|0,0:0|0:0,0:0:0:0:
352,128,36491,1,0,0:0:0:0:
436,96,36711,1,2,0:0:0:0:
468,180,36932,1,0,0:0:0:0:
384,212,37152,1,0,0:0:0:0:
256,340,37594,6,0,L|256:264,1,70,8|0,0:0|0:0,0:0:0:0:
256,180,38035,1,0,0:0:0:0:
256,340,38476,6,0,P|326:341|390:314,1,140
424,232,39138,2,0,P|390:171|334:129,1,140
244,140,39800,2,0,P|208:199|199:268,1,140
128,324,40461,1,0,0:0:0:0:
56,268,40682,1,0,0:0:0:0:
84,184,40902,1,0,0:0:0:0:
176,184,41123,1,8,0:0:0:0:
304,52,41564,5,0,0:0:0:0:
376,108,41785,1,0,0:0:0:0:
372,200,42005,2,0,P|384:272|364:344,1,140
268,372,42667,1,0,0:0:0:0:
178,313,42888,2,0,P|109:305|40:312,1,140,8|0,0:0|0:0,0:0:0:0:
256,192,43770,12,8,44652,0:0:0:0:
296,80,45094,5,0,0:0:0:0:
244,156,45314,1,0,0:0:0:0:
168,207,45535,2,0,P|92:216|36:168,1,140,2|0,0:0|0:0,0:0:0:0:
120,128,46197,1,0,0:0:0:0:
212,284,46417,1,8,0:0:0:0:
288,336,46638,2,0,P|372:336|420:292,1,140
432,208,47300,6,0,L|432:136,1,70
344,232,47741,2,0,L|304:172,1,70,2|0,0:0|0:0,0:0:0:0:
254,99,48182,1,8,0:0:0:0:
316,24,48402,1,0,0:0:0:0:
414,38,48623,2,0,P|479:74|498:148,1,140
500,224,49285,6,0,L|500:300,2,70
428,328,49947,2,0,P|360:352|276:352,1,140,8|0,0:0|0:0,0:0:0:0:
200,356,50608,1,0,0:0:0:0:
112,336,50829,1,0,0:0:0:0:
52,268,51050,1,0,0:0:0:0:
40,180,51270,1,2,0:0:0:0:
76,96,51491,1,0,0:0:0:0:
160,56,51711,2,0,P|199:50|246:59,1,70,8|0,0:0|0:0,0:0:0:0:
312,92,52152,1,0,0:0:0:0:
312,92,52594,6,0,B|332:128|332:128|372:160|372:220,1,140
308,280,53255,2,0,P|292:248|296:196,1,70,0|8,0:0|0:0,0:0:0:0:
418,68,53697,2,0,P|441:94|452:128,1,70
340,24,54138,1,0,0:0:0:0:
256,56,54358,1,0,0:0:0:0:
256,72,54800,5,2,0:0:0:0:
256,320,55241,1,8,0:0:0:0:
340,32,55682,5,0,0:0:0:0:
256,88,55902,1,0,0:0:0:0:
169,33,56123,2,0,B|68:52|48:176|80:240|172:276|232:284|256:336|256:336|280:284|332:276|424:240|468:176|436:48|328:28,1,840,0|8,0:0|0:0,0:0:0:0:
108,116,59211,5,0,0:0:0:0:
56,192,59432,1,0,0:0:0:0:
108,268,59652,2,0,P|112:300|104:344,1,70,4|0,0:0|0:0,0:0:0:0:
256,248,60094,2,0,L|256:168,1,70
404,267,60535,2,0,P|400:302|405:337,2,70,8|0|0,0:0|0:0|0:0,0:0:0:0:
324,104,61417,6,0,P|256:80|193:101,1,140,4|0,0:0|0:0,0:0:0:0:
256,168,62079,2,0,L|256:248,1,70,4|8,0:0|0:0,0:0:0:0:
432,188,62741,5,4,0:0:0:0:
416,100,62961,1,0,0:0:0:0:
324,104,63182,2,0,B|316:84|304:68|304:68|304:28,1,70,4|0,0:0|0:0,0:0:0:0:
256,136,63623,2,0,L|256:208,1,70
188,104,64064,2,0,B|196:84|208:68|208:68|208:28,1,70,8|0,0:0|0:0,0:0:0:0:
120,56,64505,6,0,P|108:128|160:184,1,140,0|4,0:0|0:0,0:0:0:0:
224,228,65167,1,0,0:0:0:0:
256,312,65388,1,0,0:0:0:0:
324,252,65608,2,0,B|364:200|364:200|388:169|432:164,1,140,4|4,0:0|0:0,0:0:0:0:
420,256,66270,6,0,L|372:316,1,70
292,340,66711,2,0,P|256:343|212:340,1,70,4|0,0:0|0:0,0:0:0:0:
135,310,67152,2,0,L|92:256,1,70
100,164,67594,6,0,P|140:92|192:76,1,140,8|4,0:0|0:0,0:0:0:0:
256,140,68255,1,0,0:0:0:0:
320,76,68476,2,0,P|383:101|412:164,1,140,4|0,0:0|0:0,0:0:0:0:
464,240,69138,2,0,P|444:280|412:304,1,70,0|8,0:0|0:0,0:0:0:0:
256,364,69800,5,0,0:0:0:0:
256,364,70241,2,0,P|192:348|128:292,1,140,4|0,0:0|0:0,0:0:0:0:
92,224,70902,2,0,P|96:152|128:92,1,140,4|0,0:0|0:0,0:0:0:0:
204,44,71564,1,4,0:0:0:0:
384,80,72005,6,0,B|396:144|396:144|368:184|384:232,1,140,4|0,0:0|0:0,0:0:0:0:
468,200,72667,1,0,0:0:0:0:
436,284,72888,6,4,L|440:308,16,17.5,8|0|0|0|0|0|0|0|2|0|0|0|0|0|0|0|4,0:0|0:0|0:0|0:0|0:0|0:0|0:0|0:0|0:0|0:0|0:0|0:0|0:0|0:0|0:0|0:0|0:0,0:0:0:0:
464,108,73991,1,0,0:0:0:0:
396,52,74211,1,0,0:0:0:0:
304,60,74432,1,0,0:0:0:0:
256,136,74652,2,0,P|208:192|136:200,1,140,8|0,0:0|0:0,0:0:0:0:
164,112,75314,1,0,0:0:0:0:
184,24,75535,6,0,P|116:36|73:90,1,140,4|0,0:0|0:0,0:0:0:0:
52,180,76197,2,0,P|50:216|52:260,1,70,4|8,0:0|0:0,0:0:0:0:
212,336,76858,5,4,0:0:0:0:
384,280,77300,1,4,0:0:0:0:
372,100,77741,1,0,0:0:0:0:
196,48,78182,1,8,0:0:0:0:
80,180,78623,5,4,0:0:0:0:
64,268,78844,1,0,0:0:0:0:
112,344,79064,2,0,P|204:368|264:336,1,140,4|0,0:0|0:0,0:0:0:0:
312,296,79726,2,0,P|328:268|340:224,1,70,4|8,0:0|0:0,0:0:0:0:
316,52,80388,5,4,0:0:0:0:
256,120,80608,1,0,0:0:0:0:
196,52,80829,1,4,0:0:0:0:
196,52,81711,6,0,P|148:112|80:136,1,140,8|4,0:0|0:0,0:0:0:0:
12,84,82373,1,0,0:0:0:0:
16,176,82594,2,0,B|35:252|35:252|28:288|44:320,1,140,4|0,0:0|0:0,0:0:0:0:
120,360,83255,2,0,P|208:356|268:312,1,140,4|4,0:0|0:0,0:0:0:0:
316,264,83917,2,0,P|372:224|456:216,1,140,4|4,0:0|0:0,0:0:0:0:
344,60,84800,5,0,0:0:0:0:
256,36,85020,1,0,0:0:0:0:
168,60,85241,2,0,P|144:92|116:108,1,70,8|0,0:0|0:0,0:0:0:0:
28,124,85682,6,0,B|36:172|84:196|84:196|76:244,2,140,4|4|0,0:0|0:0|0:0,0:0:0:0:
116,108,86785,2,0,B|172:84|172:84|204:52|252:56,2,140,0|2|0,0:0|0:0|0:0,0:0:0:0:
160,188,87888,2,0,B|160:260|160:260|160:304|120:324,1,140,4|0,0:0|0:0,0:0:0:0:
256,192,88550,12,2,91417,0:0:0:0:
31,290,94947,6,0,B|75:290|75:290|116:330|168:313,2,140,4|2|10,1:2|0:0|0:0,0:0:0:0:
148,223,96270,5,2,0:0:0:0:
131,133,96491,1,0,1:2:0:0:
58,77,96711,2,0,P|126:91|184:56,1,140,0|2,1:2|0:0,0:0:0:0:
256,111,97373,1,0,0:0:0:0:
339,147,97594,2,0,B|384:147|384:147|435:165|435:165|485:165,1,140,2|0,0:0|0:0,0:0:0:0:
483,154,98476,6,0,P|465:220|506:275,1,140,2|2,1:2|0:0,0:0:0:0:
385,229,99138,2,0,L|316:239,1,70,0|8,0:0|0:0,0:0:0:0:
226,255,99579,1,2,0:0:0:0:
206,165,99800,1,0,0:0:0:0:
295,150,100020,1,0,1:2:0:0:
277,328,100241,2,0,P|219:293|146:306,1,140,2|0,1:2|0:0,0:0:0:0:
85,239,100902,1,0,1:2:0:0:
30,166,101123,2,0,L|41:80,2,70,10|0|2,0:0|0:0|0:0,0:0:0:0:
28,182,102005,6,0,B|71:182|71:182|120:166|120:166|169:166,1,140,2|0,1:2|0:0,0:0:0:0:
318,76,102667,2,0,B|282:83|254:100|254:100|222:85|187:78,1,140,2|0,0:0|0:0,0:0:0:0:
346,166,103329,1,2,0:0:0:0:
346,166,103550,2,0,B|392:166|392:166|441:182|441:182|484:182,2,140,2|0|0,1:2|0:0|0:0,0:0:0:0:
360,293,104652,1,8,0:0:0:0:
257,367,104873,1,0,0:0:0:0:
151,294,105094,1,2,0:0:0:0:
167,167,105314,1,0,0:0:0:0:
256,245,105535,6,0,L|256:104,1,140,2|0,1:2|0:0,0:0:0:0:
315,35,106197,1,2,0:0:0:0:
315,35,106417,2,0,P|255:68|187:54,1,140,8|2,0:0|0:0,0:0:0:0:
88,209,107079,1,0,1:2:0:0:
9,159,107300,2,0,P|64:119|133:127,1,140,2|0,1:2|0:0,0:0:0:0:
256,100,107961,1,2,1:2:0:0:
256,87,108072,1,0,0:0:0:0:
256,73,108182,1,8,0:0:0:0:
379,126,108402,2,0,P|447:118|503:159,1,140,2|0,0:0|0:0,0:0:0:0:
394,345,109064,6,0,B|398:297|398:297|419:257|419:257|423:211,1,140,2|2,1:2|0:0,0:0:0:0:
431,119,109726,1,0,0:0:0:0:
348,156,109947,2,0,B|303:157|303:157|267:193|215:183,1,140,10|2,0:0|0:0,0:0:0:0:
239,95,110608,1,2,1:2:0:0:
269,271,110829,2,0,B|226:285|174:267|174:267|129:268,1,140,0|2,1:2|0:0,0:0:0:0:
68,334,111491,1,0,0:0:0:0:
68,334,111711,2,0,P|92:269|62:210,1,140,2|2,0:0|0:0,0:0:0:0:
6,384,112594,6,0,P|74:360|148:373,1,140,2|2,1:2|0:0,0:0:0:0:
229,382,113255,1,0,0:0:0:0:
200,295,113476,2,0,B|195:259|195:259|201:225|201:225|195:188,2,105,10|2|0,0:0|0:0|1:2,0:0:0:0:
234,125,114358,2,0,P|189:148|134:145,2,105,2|2|0,1:2|0:0|1:2,0:0:0:0:
315,165,115241,1,10,0:0:0:0:
362,87,115461,1,0,0:0:0:0:
281,44,115682,1,2,0:0:0:0:
389,219,116123,6,0,P|321:207|262:250,1,140,2|2,1:2|0:0,0:0:0:0:
434,297,116785,2,0,P|475:244|466:173,1,140,2|0,0:0|0:0,0:0:0:0:
428,60,117447,1,2,0:0:0:0:
428,60,117888,2,0,B|381:61|381:61|336:45|336:45|289:46,1,140,2|2,1:2|0:0,0:0:0:0:
228,112,118550,1,2,0:0:0:0:
164,176,118770,2,0,L|178:254,1,70,2|0,0:0|0:0,0:0:0:0:
335,244,119211,2,0,L|348:176,1,70,2|0,0:0|0:0,0:0:0:0:
190,333,119652,6,0,B|228:328|257:309|257:309|285:327|321:332,1,140,2|2,1:3|0:0,0:0:0:0:
408,357,120314,1,0,0:0:0:0:
494,329,120535,2,0,P|526:266|492:209,1,140,10|2,0:0|0:0,0:0:0:0:
406,185,121197,1,0,1:2:0:0:
395,186,121307,1,0,0:0:0:0:
385,186,121417,2,0,B|346:186|346:186|312:228|256:224,1,140,2|0,1:2|0:0,0:0:0:0:
151,273,122079,1,0,1:2:0:0:
45,227,122300,1,10,0:0:0:0:
47,215,122741,6,0,L|54:138,1,70,2|0,0:0|0:0,0:0:0:0:
8,66,123182,2,0,P|66:107|135:91,1,140,4|2,1:2|0:0,0:0:0:0:
211,53,123844,1,0,0:0:0:0:
202,143,124064,2,0,L|197:221,1,70,10|0,0:0|0:0,0:0:0:0:
285,317,124505,2,0,L|281:248,1,70,0|0,0:0|1:2,0:0:0:0:
227,384,124947,6,0,P|288:358|359:372,1,140,2|0,1:2|0:0,0:0:0:0:
387,285,125608,2,0,B|424:297|442:327|442:327|441:293|453:258,1,140,2|2,0:0|0:0,0:0:0:0:
389,193,126270,1,0,0:0:0:0:
356,107,126491,1,0,0:0:0:0:
393,24,126711,6,0,P|344:70|271:69,1,140,2|2,1:2|0:0,0:0:0:0:
196,117,127373,1,0,0:0:0:0:
117,70,127594,2,0,P|48:70|-1:23,1,140,10|0,0:0|0:0,0:0:0:0:
3,116,128255,1,0,1:2:0:0:
8,208,128476,2,0,B|11:257|11:257|29:309|75:317,1,140,2|0,1:2|0:0,0:0:0:0:
156,354,129138,2,0,P|190:348|225:346,1,70,2|8,1:2|0:0,0:0:0:0:
371,284,129579,2,0,P|336:286|301:282,1,70,2|0,0:0|0:0,0:0:0:0:
421,362,130020,1,0,0:0:0:0:
421,362,130241,6,0,P|460:311|451:237,1,140,2|2,1:2|0:0,0:0:0:0:
416,156,130902,1,2,0:0:0:0:
452,72,131123,1,8,0:0:0:0:
404,149,131344,1,0,0:0:0:0:
304,184,131564,1,0,0:0:0:0:
196,138,131785,1,0,1:2:0:0:
164,22,132005,6,0,B|115:22|115:22|76:46|28:24,1,140,0|2,1:2|0:0,0:0:0:0:
12,113,132667,1,0,0:0:0:0:
0,203,132888,2,0,L|-11:278,1,70,10|0,0:0|0:0,0:0:0:0:
84,260,133329,2,0,L|70:343,1,70,2|0,0:0|0:0,0:0:0:0:
168,307,133770,6,0,P|231:334|301:303,1,140,2|0,1:2|0:0,0:0:0:0:
292,298,134652,1,10,0:0:0:0:
287,285,135094,2,0,L|296:208,1,70,2|2,0:0|1:2,0:0:0:0:
362,31,135535,6,0,L|346:149,1,105,0|0,1:2|1:2,0:0:0:0:
346,150,135976,2,0,P|314:132|280:134,1,70,2|0,0:0|1:2,0:0:0:0:
180,183,136417,1,8,0:0:0:0:
79,135,136638,1,0,1:2:0:0:
292,300,136858,5,0,0:0:0:0:
348,152,137079,1,0,0:0:0:0:
180,183,137300,2,0,P|168:112|176:60,1,125.999996154785,4|0,0:0|0:0,0:0:0:0:
180,36,137741,2,0,L|96:16,1,83.9999974365235
0,112,138182,2,0,L|79:135,1,83.9999974365235,8|0,0:0|0:0,0:0:0:0:
48,276,138623,2,0,P|96:308|200:292,1,167.999994873047,0|0,0:0|1:0,0:0:0:0:
312,336,139285,2,0,P|320:288|312:244,1,83.9999974365235
228,184,139726,2,0,P|223:142|230:101,1,83.9999974365235,0|8,1:0|0:0,0:0:0:0:
332,40,140167,1,0,1:0:0:0:
332,40,140388,2,0,P|364:40|420:60,1,83.9999974365235
496,140,140829,6,0,B|496:176|496:176|516:224|496:268,1,125.999996154785,0|0,1:0|0:0,0:0:0:0:
484,284,141270,2,0,P|472:332|484:376,1,83.9999974365235
396,248,141711,2,0,P|404:207|396:164,1,83.9999974365235,8|0,0:0|0:0,0:0:0:0:
340,60,142152,1,0,0:0:0:0:
184,184,142373,1,0,0:0:0:0:
144,72,142594,2,0,P|80:48|24:56,2,125.999996154785,0|0|0,1:0|1:0|1:0,0:0:0:0:
184,184,143476,2,0,L|156:272,1,83.9999974365235,8|0,0:0|0:0,0:0:0:0:
256,360,143917,2,0,L|256:272,1,83.9999974365235,0|0,1:0|0:0,0:0:0:0:
328,184,144358,6,0,L|364:308,1,125.999996154785,0|0,1:0|0:0,0:0:0:0:
372,328,144800,2,0,P|400:356|448:360,1,83.9999974365235
500,268,145241,1,8,0:0:0:0:
440,176,145461,1,0,0:0:0:0:
328,184,145682,2,0,L|208:196,1,83.9999974365235,0|0,1:0|0:0,0:0:0:0:
50,121,146123,2,0,L|176:108,1,125.999996154785,0|0,1:0|0:0,0:0:0:0:
200,104,146564,2,0,P|216:64|216:16,1,83.9999974365235,0|0,0:0|1:0,0:0:0:0:
244,192,147005,2,0,P|228:232|228:280,1,83.9999974365235,8|0,0:0|1:0,0:0:0:0:
88,136,147447,2,0,L|4:112,1,83.9999974365235
4,264,147888,6,0,L|100:244,1,83.9999974365235,0|0,1:0|0:0,0:0:0:0:
202,104,148329,2,0,L|176:184,1,83.9999974365235
247,354,148770,2,0,L|192:292,2,83.9999974365235,4|0|0,0:0|0:0|0:0,0:0:0:0:
256,208,149432,1,0,0:0:0:0:
156,168,149652,2,0,P|92:160|36:184,2,125.999996154785,0|0|0,1:0|1:0|1:0,0:0:0:0:
0,80,150535,2,0,P|20:172|-16:252,1,167.999994873047,4|0,0:0|0:0,0:0:0:0:
44,336,151197,1,0,0:0:0:0:
124,260,151417,6,0,L|216:248,1,83.9999974365235,4|0,0:0|0:0,0:0:0:0:
388,260,151858,2,0,L|296:248,1,83.9999974365235
176,132,152300,2,0,P|256:108|340:136,1,167.999994873047,8|0,0:0|1:0,0:0:0:0:
436,168,152961,1,0,0:0:0:0:
484,268,153182,2,0,P|460:332|404:360,1,125.999996154785,0|0,1:0|0:0,0:0:0:0:
388,352,153623,2,0,L|304:336,1,83.9999974365235,0|0,0:0|1:0,0:0:0:0:
244,236,154064,1,8,0:0:0:0:
128,360,154285,1,0,1:0:0:0:
48,272,154505,2,0,P|32:232|32:188,1,83.9999974365235
91,31,154947,6,0,P|107:70|104:160,1,125.999996154785,0|0,1:0|0:0,0:0:0:0:
132,160,155388,2,0,L|216:184,1,83.9999974365235
288,264,155829,1,8,0:0:0:0:
328,44,156050,1,0,0:0:0:0:
399,137,156270,2,0,L|383:219,1,83.9999974365235,0|0,1:0|0:0,0:0:0:0:
212,184,156711,2,0,B|200:232|200:232|192:256|176:272|152:284|152:284|132:284,2,125.999996154785,0|0|0,1:0|1:0|1:0,0:0:0:0:
204,344,157594,2,0,P|176:300|148:284,1,83.9999974365235,8|0,0:0|0:0,0:0:0:0:
36,256,158035,1,0,1:0:0:0:
84,100,158255,1,0,0:0:0:0:
84,100,158476,6,0,P|148:80|216:80,1,125.999996154785,0|0,1:0|0:0,0:0:0:0:
232,88,158917,2,0,P|272:96|316:88,1,83.9999974365235
482,156,159358,2,0,P|441:148|400:156,1,83.9999974365235,8|0,0:0|0:0,0:0:0:0:
316,224,159800,1,0,1:0:0:0:
256,316,160020,1,0,0:0:0:0:
200,224,160241,2,0,B|164:212|164:212|120:228|120:228|80:212,1,125.999996154785,0|0,1:0|0:0,0:0:0:0:
64,232,160682,2,0,L|44:136,2,83.9999974365235,0|0|8,0:0|1:0|0:0,0:0:0:0:
144,360,161344,1,0,1:0:0:0:
144,360,161564,2,0,P|180:368|232:356,1,83.9999974365235
308,288,162005,6,0,L|444:288,1,125.999996154785,0|0,1:0|0:0,0:0:0:0:
456,304,162447,2,0,P|444:256|444:204,1,83.9999974365235
358,53,162888,2,0,P|369:94|372:136,1,83.9999974365235,4|0,0:0|0:0,0:0:0:0:
276,192,163329,1,0,0:0:0:0:
176,144,163550,1,0,0:0:0:0:
75,206,163770,2,0,P|63:145|76:84,1,125.999996154785,0|0,1:0|1:0,0:0:0:0:
104,52,164211,2,0,L|196:32,2,83.9999974365235,0|0|4,0:0|1:0|0:0,0:0:0:0:
24,156,164873,1,0,0:0:0:0:
176,144,165094,1,0,0:0:0:0:
40,304,165314,1,0,0:0:0:0:
192,288,165535,5,0,1:0:0:0:
300,308,165756,1,0,0:0:0:0:
320,200,165976,1,0,0:0:0:0:
212,180,166197,1,0,1:0:0:0:
48,296,166417,6,0,P|28:257|0:235,1,70,8|0,0:0|0:0,0:0:0:0:
112,212,166858,2,0,P|114:168|100:135,1,70
212,180,167300,2,0,P|236:144|239:107,1,70,0|0,1:0|0:0,0:0:0:0:
320,200,167741,2,0,P|358:180|380:151,1,70,0|0,0:0|1:0,0:0:0:0:
468,156,168182,1,8,0:0:0:0:
488,244,168402,1,0,0:0:0:0:
444,324,168623,5,0,1:0:0:0:
358,355,168844,1,0,0:0:0:0:
276,316,169064,2,0,P|232:288|216:220,1,105,6|0,0:0|0:0,0:0:0:0:
212,196,169505,2,0,P|192:152|156:132,2,70,0|0|8,0:0|0:0|0:0,0:0:0:0:
124,212,170167,1,0,0:0:0:0:
84,132,170388,5,0,0:0:0:0:
140,60,170608,1,0,0:0:0:0:
232,68,170829,2,0,P|276:108|296:172,1,105,0|0,1:0|1:0,0:0:0:0:
304,192,171270,2,0,P|308:236|304:280,1,70,0|0,0:0|1:0,0:0:0:0:
200,152,171711,2,0,P|220:216|216:268,1,105,8|0,0:0|0:0,0:0:0:0:
220,300,172152,2,0,P|212:352|200:376,1,70,0|0,1:0|0:0,0:0:0:0:
136,304,172594,6,0,P|88:272|60:204,1,105,0|0,1:0|0:0,0:0:0:0:
68,188,173035,2,0,P|68:136|60:108,1,70
36,32,173476,1,8,0:0:0:0:
208,92,173917,1,2,0:0:0:0:
208,92,174358,6,0,P|248:136|264:204,1,105,0|0,1:0|0:0,0:0:0:0:
268,224,174800,2,0,P|280:264|304:288,1,70,0|0,0:0|1:0,0:0:0:0:
380,324,175241,1,8,0:0:0:0:
468,300,175461,2,0,B|476:248|476:248|512:208|504:152,1,140,0|0,0:0|0:0,0:0:0:0:
416,176,176123,6,0,B|392:156|392:156|340:156|312:116,1,105,6|0,0:0|0:0,0:0:0:0:
300,92,176564,2,0,P|296:52|308:12,1,70
384,68,177005,2,0,B|428:72|428:72|484:124,1,105,4|0,0:0|0:0,0:0:0:0:
496,152,177447,2,0,P|500:188|484:236,1,70,0|0,0:0|1:0,0:0:0:0:
412,268,177888,1,0,1:0:0:0:
284,316,178219,5,0,1:0:0:0:
284,316,178329,2,0,P|252:304|216:272,1,70,0|0,0:0|1:0,0:0:0:0:
188,196,178770,2,0,P|176:144|108:88,2,140,4|0|4,0:0|0:0|0:0,0:0:0:0:
52,204,179983,5,0,0:0:0:0:
52,204,180094,1,0,0:0:0:0:
92,284,180314,1,0,0:0:0:0:
176,324,180535,1,8,0:0:0:0:
268,316,180755,2,0,L|296:284,2,35
212,244,181197,2,0,B|248:200|248:200|264:148|304:128,1,140
384,112,181858,5,4,0:0:0:0:
460,160,182079,1,0,0:0:0:0:
464,256,182300,2,0,P|448:304|392:344,2,105,12|0|0,0:0|0:0|0:0,0:0:0:0:
372,260,183182,6,0,P|324:280|264:280,1,105,4|0,0:0|0:0,0:0:0:0:
232,260,183623,2,0,P|200:236|152:228,1,70
80,228,184064,2,0,B|84:176|120:148|120:148|100:80,1,140,8|0,0:0|0:0,0:0:0:0:
180,48,184726,1,0,0:0:0:0:
256,96,184947,6,0,P|272:132|352:168,1,105,0|0,1:0|1:0,0:0:0:0:
372,172,185388,2,0,P|392:200|408:252,1,70,0|0,0:0|1:0,0:0:0:0:
416,324,185829,1,8,0:0:0:0:
336,372,186050,2,0,P|300:380|240:372,2,70
296,292,186711,1,4,0:1:0:0:
256,192,186932,12,0,190130,0:0:0:0:
256,192,190241,12,4,192005,0:0:0:0:
252,200,193770,5,2,0:0:0:0:
256,192,204358,12,0,207005,0:0:0:0:
71,157,207447,6,0,L|160:157,1,83.9999974365235,0|0,0:0|0:0,0:0:0:0:
270,39,207888,2,0,L|225:116,1,83.9999974365235,4|2,1:2|0:0,0:0:0:0:
273,268,208329,2,0,L|228:190,1,83.9999974365235,0|2,0:0|0:2,0:0:0:0:
229,357,208770,2,0,P|287:300|377:303,1,167.999994873047,8|2,0:0|0:0,0:0:0:0:
472,336,209432,1,0,1:2:0:0:
449,229,209652,2,0,B|441:186|441:186|450:150|450:150|442:105,1,125.999996154785,2|0,1:2|0:0,0:0:0:0:
450,91,210094,2,0,P|411:101|368:92,1,83.9999974365235,2|0,0:0|1:2,0:0:0:0:
257,52,210535,1,8,0:0:0:0:
143,92,210755,1,0,1:2:0:0:
133,87,210866,1,0,0:0:0:0:
123,82,210976,2,0,L|130:165,1,83.9999974365235,2|0,0:2|0:0,0:0:0:0:
32,251,211417,6,0,B|80:250|80:250|116:271|155:259,1,125.999996154785,2|0,1:2|0:0,0:0:0:0:
166,248,211858,2,0,L|156:336,1,83.9999974365235,2|0,0:0|0:0,0:0:0:0:
256,377,212300,1,10,0:2:0:0:
354,331,212520,2,0,L|345:248,1,83.9999974365235,0|2,0:0|0:0,0:0:0:0:
344,235,212851,1,0,0:0:0:0:
342,222,212961,1,0,1:2:0:0:
312,116,213182,2,0,P|254:139|196:117,2,125.999996154785,2|0|2,1:2|1:2|1:2,0:0:0:0:
185,107,214064,2,0,L|191:208,1,83.9999974365235,8|0,0:0|1:2,0:0:0:0:
192,205,214395,1,0,0:0:0:0:
193,220,214505,2,0,L|197:283,2,41.9999987182618,2|0|0,0:0|0:0|0:0,0:0:0:0:
130,302,214947,6,0,B|170:302|170:302|212:319|212:319|262:319,1,125.999996154785,2|0,1:2|0:0,0:0:0:0:
259,333,215388,2,0,P|299:321|346:327,1,83.9999974365235
496,250,215829,2,0,P|455:258|409:245,1,83.9999974365235,10|0,0:0|0:0,0:0:0:0:
352,158,216270,2,0,L|357:111,2,41.9999987182618,2|0|0,0:0|0:0|1:2,0:0:0:0:
424,66,216711,2,0,P|366:80|307:54,1,125.999996154785,2|0,1:2|0:0,0:0:0:0:
314,43,217152,2,0,L|231:43,1,83.9999974365235,2|0,0:2|1:2,0:0:0:0:
117,103,217594,1,4,0:0:0:0:
139,17,217814,1,0,1:2:0:0:
202,131,218035,1,2,0:0:0:0:
201,148,218145,1,0,0:0:0:0:
200,163,218255,1,0,0:0:0:0:
94,238,218476,6,0,B|141:238|141:238|176:263|217:254,1,125.999996154785,2|0,1:2|0:0,0:0:0:0:
230,250,218917,1,0,0:0:0:0:
328,297,219138,1,0,0:0:0:0:
422,242,219358,2,0,P|445:187|410:122,1,125.999996154785,4|0,0:2|0:0,0:0:0:0:
411,123,219800,2,0,P|450:135|490:122,1,83.9999974365235,2|0,0:0|1:2,0:0:0:0:
321,170,220241,2,0,P|258:157|199:175,2,125.999996154785,2|0|2,1:2|1:2|1:2,0:0:0:0:
191,188,221123,2,0,L|202:99,1,83.9999974365235,4|2,0:0|1:2,0:0:0:0:
204,91,221454,1,0,0:0:0:0:
207,77,221564,2,0,L|212:27,2,41.9999987182618
256,256,222005,5,4,1:2:0:0:
256,192,222116,12,2,225204,0:0:0:0:
