osu file format v14

[General]
AudioFilename: Hoshikuzu Kosu Pure Uicchi! Desu! Omega.mp3
AudioLeadIn: 0
PreviewTime: 56245
Countdown: 0
SampleSet: Soft
StackLeniency: 0.7
Mode: 0
LetterboxInBreaks: 0
WidescreenStoryboard: 1

[Editor]
Bookmarks: 44737,45334,48917,76379,76827,77573
DistanceSpacing: 1.2
BeatDivisor: 4
GridSize: 4
TimelineZoom: 1

[Metadata]
Title:Hoshikuzu Cosplay Witch! Desu! Omega (TV Size)
TitleUnicode:星くずこすぷれ☆うぃっち!です!・おめが (TV Size)
Artist:Kuno Misaki
ArtistUnicode:久野美咲
Creator:Yuthuil
Version:Lower Hard
Source:俺の妹がこんなに可愛いわけがない
Tags:OreImo Ore no Imouto ga Konnani Kawaii Wake ga Nai My Little Sister Can't Be This Cute insert song 星くずういっちメルル Stardust Uicchi Meruru ブリジット エヴァンス Bridget Evans Moecho Kanako Kurusu
BeatmapID:649187
BeatmapSetID:247914

[Difficulty]
HPDrainRate:4
CircleSize:4
OverallDifficulty:6
ApproachRate:8
SliderMultiplier:1.4
SliderTickRate:2

[Events]
//Background and Video events
0,0,"february_desktop__stardust_witch_meruru__by_princesscakenikki-d77nef9.png",0,0
//Break Periods
//Storyboard Layer 0 (Background)
//Storyboard Layer 1 (Fail)
//Storyboard Layer 2 (Pass)
//Storyboard Layer 3 (Foreground)
//Storyboard Sound Samples

[TimingPoints]
275,298.507462686567,4,2,0,50,1,0
56394,-100,4,2,0,50,0,1
75498,-100,4,2,0,50,0,0

[Colours]
Combo1 : 255,255,0
Combo2 : 255,128,128
Combo3 : 255,128,192
Combo4 : 255,128,255

[HitObjects]
312,136,6245,5,0,0:0:0:0:
312,136,6543,1,0,0:0:0:0:
200,260,6842,1,0,0:0:0:0:
200,260,7140,1,0,0:0:0:0:
152,100,7439,6,0,P|128:128|96:140,1,70
16,116,7737,1,0,0:0:0:0:
84,68,7886,2,0,L|172:176,1,140
172,260,8334,1,0,0:0:0:0:
196,340,8483,6,0,B|240:332|256:288|256:288|268:308|296:328,1,140
380,348,8931,2,0,P|404:316|404:280,1,70
464,228,9230,2,0,P|428:204|392:204,1,70
332,160,9528,2,0,P|320:200|328:232,1,70
300,308,9827,5,0,0:0:0:0:
220,292,9976,2,0,B|184:292|184:292|152:276,1,70
128,196,10274,2,0,P|124:264|60:296,1,140
66,296,10722,1,0,0:0:0:0:
16,136,11021,6,0,P|44:108|84:100,1,70
148,64,11319,2,0,P|156:100|144:140,1,70
136,216,11618,2,0,P|100:204|80:164,1,70
12,224,11916,6,0,P|56:280|136:300,1,140
204,304,12364,1,0,0:0:0:0:
268,248,12513,1,0,0:0:0:0:
328,308,12663,2,0,P|389:276|427:218,1,140
420,136,13110,1,0,0:0:0:0:
344,96,13260,6,0,B|276:76|276:76|208:96,1,140
132,128,13707,1,0,0:0:0:0:
60,172,13857,1,0,0:0:0:0:
56,256,14006,1,0,0:0:0:0:
108,320,14155,2,0,B|144:348|144:348|168:296|224:292,1,140
332,172,14752,6,0,P|296:164|260:172,2,70
408,212,15200,1,0,0:0:0:0:
256,284,15498,2,0,L|224:256,3,35,0|0|0|0,0:0|0:0|0:0|0:0,0:0:0:0:
196,236,15797,6,0,P|160:218|126:221,1,70
96,144,16095,2,0,P|132:118|146:85,1,70
228,108,16394,2,0,P|236:142|262:173,1,70
308,236,16692,2,0,P|336:208|340:172,1,70
316,100,16991,5,0,0:0:0:0:
268,32,17140,1,0,0:0:0:0:
184,36,17289,2,0,P|156:60|144:96,1,70
96,160,17588,2,0,L|152:212,1,70
228,180,17886,6,0,L|296:232,1,70
320,296,18185,2,0,P|352:272|364:236,1,70
424,188,18483,2,0,P|436:224|468:252,1,70
508,180,18782,1,0,0:0:0:0:
464,108,18931,1,0,0:0:0:0:
408,44,19080,2,0,B|384:16|384:16|344:16,1,70
256,156,19528,6,0,L|256:232,1,70
220,304,19827,2,0,P|256:312|292:304,1,70
376,148,20573,1,0,0:0:0:0:
324,80,20722,2,0,B|256:56|256:56|184:80,1,140
120,120,21170,2,0,P|144:144|156:180,1,70
236,200,21469,2,0,P|220:232|184:256,1,70
108,252,21767,5,0,0:0:0:0:
152,324,21916,2,0,L|228:344,1,70
300,320,22215,1,0,0:0:0:0:
376,284,22364,1,0,0:0:0:0:
399,204,22513,2,0,P|400:186|395:169,2,35
428,92,22812,1,0,0:0:0:0:
364,40,22961,5,0,0:0:0:0:
299,89,23110,2,0,L|216:92,1,70
164,36,23409,1,0,0:0:0:0:
132,112,23558,2,0,P|144:144|176:168,1,70
240,212,23857,2,0,P|260:244|260:284,1,70
264,360,24155,5,0,0:0:0:0:
340,324,24304,2,0,P|376:308|396:284,1,70
404,200,24603,1,0,0:0:0:0:
348,136,24752,2,0,L|276:132,1,70
252,212,25051,2,0,L|328:216,1,70
404,200,25349,6,0,B|448:172|444:124|444:124|460:144|492:152,1,140
496,68,25797,1,0,0:0:0:0:
412,56,25946,2,0,B|368:84|372:132|372:132|356:112|324:104,1,140
248,92,26394,6,0,P|212:84|172:96,1,70
68,160,26692,2,0,P|100:168|140:160,1,70
104,84,26991,2,0,L|104:228,1,140
164,284,27439,2,0,B|204:300|204:300|220:328,1,70
300,324,27737,6,0,B|336:300|336:300|368:200,1,140
344,128,28185,2,0,P|280:116|224:172,2,140,0|0|0,0:0|0:0|0:0,0:0:0:0:
400,192,28931,5,0,0:0:0:0:
400,276,29080,1,0,0:0:0:0:
332,328,29230,2,0,L|260:344,1,70
184,312,29528,1,0,0:0:0:0:
76,72,30125,5,0,0:0:0:0:
148,112,30274,2,0,B|196:136|248:92|296:116,1,140
368,136,30722,2,0,P|376:172|364:212,1,70
296,315,31021,2,0,P|288:281|296:248,1,70
372,284,31319,5,0,0:0:0:0:
368,204,31469,2,0,L|304:168,1,70
260,100,31767,2,0,B|220:124|220:172|220:172|188:120,1,140
116,92,32215,1,0,0:0:0:0:
44,132,32364,1,0,0:0:0:0:
40,216,32513,5,0,0:0:0:0:
104,272,32663,2,0,P|136:280|180:272,2,70
192,200,33110,2,0,P|180:256|240:316,1,140
316,316,33558,1,0,0:0:0:0:
324,232,33707,6,0,L|244:244,2,70
408,248,34155,2,0,B|424:192|360:152|392:96,1,140
404,32,34603,1,0,0:0:0:0:
324,52,34752,1,0,0:0:0:0:
244,32,34901,6,0,L|236:112,2,70
244,32,35349,1,0,0:0:0:0:
76,52,35648,2,0,B|52:80|52:80|48:116,1,70
60,196,35946,6,0,B|80:232|80:232|120:188|184:220,2,140
48,112,36692,1,0,0:0:0:0:
100,44,36842,1,0,0:0:0:0:
184,60,36991,2,0,L|268:68,1,70
324,112,37289,6,0,P|348:176|320:240,1,140
252,284,37737,2,0,P|216:296|180:292,1,70
104,276,38036,2,0,P|116:312|112:348,1,70
32,320,38334,1,0,0:0:0:0:
184,152,38633,6,0,L|216:80,2,70
256,192,39080,1,0,0:0:0:0:
328,152,39230,2,0,L|296:80,2,70
328,236,39677,6,0,P|312:280|288:296,1,70
217,293,39976,2,0,P|192:269|184:236,1,70
256,232,40274,1,0,0:0:0:0:
128,124,40573,1,0,0:0:0:0:
48,100,40722,6,0,P|80:52|164:48,1,140
128,124,41170,2,0,L|100:200,1,70
148,264,41469,1,0,0:0:0:0:
296,344,41767,1,0,0:0:0:0:
380,332,41916,6,0,B|416:300|416:272|416:272|400:248|416:200,1,140
436,124,42364,1,0,0:0:0:0:
420,40,42513,1,0,0:0:0:0:
336,32,42663,2,0,P|300:44|280:76,2,70
348,108,43110,6,0,L|208:108,2,140
380,272,44006,1,0,0:0:0:0:
380,272,44155,1,0,0:0:0:0:
216,236,44454,2,0,L|216:316,1,70
132,288,44752,2,0,L|132:216,1,70
80,152,45051,1,0,0:0:0:0:
188,24,45349,1,0,0:0:0:0:
212,104,45498,6,0,B|256:116|256:152|256:152|256:116|316:104,1,140
384,100,45946,2,0,P|396:136|388:180,2,70
212,104,46543,1,0,0:0:0:0:
212,104,46692,1,0,0:0:0:0:
212,104,46842,6,0,B|176:120|176:120|140:216,1,140
164,296,47289,2,0,B|220:328|248:276|312:300,2,140
204,236,48036,6,0,L|224:384,1,140
292,332,48483,2,0,L|272:192,1,140
336,140,48931,2,0,L|300:64,1,70
224,56,49230,1,0,0:0:0:0:
68,120,49528,1,0,0:0:0:0:
108,284,49827,2,0,P|132:320|160:328,2,70
108,284,50274,1,0,0:0:0:0:
256,200,50573,6,0,L|256:128,2,70
256,284,51021,1,0,0:0:0:0:
256,284,51170,1,0,0:0:0:0:
256,284,51319,2,0,P|296:296|384:248,1,140
420,92,51916,5,0,0:0:0:0:
256,48,52215,2,0,L|256:124,2,70
92,92,52812,2,0,P|52:124|44:144,2,70
176,92,53260,1,0,0:0:0:0:
196,260,53558,1,0,0:0:0:0:
196,260,53707,6,0,P|260:284|324:260,1,140
396,108,54304,1,0,0:0:0:0:
324,60,54454,2,0,P|260:36|196:60,1,140
140,120,54901,1,0,0:0:0:0:
256,192,55051,12,0,56095,0:0:0:0:
196,140,56394,6,0,P|256:168|328:132,1,140
256,88,56842,2,0,L|256:240,2,140
176,64,57588,5,0,0:0:0:0:
100,104,57737,2,0,P|84:136|80:176,1,70
40,244,58036,2,0,B|96:272|124:224|192:256,1,140
252,284,58483,1,0,0:0:0:0:
368,164,58782,6,0,B|360:92|360:92|320:92|300:68,1,140
216,68,59230,2,0,B|196:92|156:92|156:92|148:164,1,140
104,236,59677,1,0,0:0:0:0:
188,248,59827,6,0,B|256:268|256:268|328:248,1,140
256,192,60274,1,0,0:0:0:0:
322,134,60424,2,0,B|256:116|256:116|188:136,1,140
104,136,60872,1,0,0:0:0:0:
40,192,61021,1,0,0:0:0:0:
96,256,61170,6,0,P|148:304|216:312,1,140
297,312,61618,2,0,P|365:303|416:256,1,140
360,192,62066,1,0,0:0:0:0:
416,128,62215,1,0,0:0:0:0:
415,127,62364,6,0,P|365:80|297:71,1,140
214,71,62812,2,0,P|146:80|96:127,1,140
44,192,63260,1,0,0:0:0:0:
92,264,63409,1,0,0:0:0:0:
92,264,63558,2,0,B|112:304|148:316|148:316|168:292|208:292,2,140
256,72,64454,1,0,0:0:0:0:
256,72,64603,1,0,0:0:0:0:
372,192,64901,1,0,0:0:0:0:
140,192,65200,1,0,0:0:0:0:
256,72,65498,1,0,0:0:0:0:
256,72,65648,1,0,0:0:0:0:
188,224,65946,6,0,B|232:216|256:236|256:236|280:216|328:228,1,140
296,296,66394,2,0,L|284:152,2,140
224,340,67140,5,0,0:0:0:0:
144,320,67289,2,0,P|112:300|96:264,1,70
12,268,67588,2,0,P|32:196|88:156,1,140
168,160,68036,1,0,0:0:0:0:
316,80,68334,6,0,B|360:136|360:136|432:148,1,140
480,212,68782,2,0,B|436:268|436:268|368:279,1,140
296,324,69230,1,0,0:0:0:0:
256,252,69379,2,0,L|256:100,1,140
180,76,69827,1,0,0:0:0:0:
196,160,69976,2,0,P|248:188|320:156,1,140
332,76,70424,5,0,0:0:0:0:
412,104,70573,1,0,0:0:0:0:
412,188,70722,2,0,B|412:252|412:252|412:296|376:320,1,140
336,244,71170,2,0,B|336:180|336:180|336:136|372:112,1,140
316,48,71618,1,0,0:0:0:0:
256,108,71767,1,0,0:0:0:0:
256,108,71916,6,0,L|256:256,1,140
176,244,72364,2,0,B|176:180|176:180|176:136|140:112,1,140
92,180,72812,1,0,0:0:0:0:
92,264,72961,1,0,0:0:0:0:
152,324,73110,6,0,P|196:328|256:256,2,140
256,184,74006,1,0,0:0:0:0:
256,184,74155,1,0,0:0:0:0:
156,52,74454,5,0,0:0:0:0:
156,52,74603,1,0,0:0:0:0:
156,52,74752,2,0,P|112:80|80:160,1,140
80,244,75200,1,0,0:0:0:0:
136,304,75349,1,0,0:0:0:0:
220,288,75498,6,0,L|292:268,2,70
136,304,75946,2,0,L|60:332,1,70
116,168,76394,1,0,0:0:0:0:
168,100,76543,6,0,P|216:76|296:104,1,140
332,176,76991,2,0,L|304:252,2,70
484,104,77588,1,0,0:0:0:0:
480,188,77737,6,0,B|456:236|500:280|476:336,1,140
408,372,78185,2,0,L|324:372,1,70
292,300,78483,2,0,L|216:300,1,70
136,300,78782,1,0,0:0:0:0:
84,236,78931,6,0,B|60:188|60:188|84:96,2,140
256,192,79827,1,0,0:0:0:0:
256,192,79976,1,0,0:0:0:0:
300,32,80274,6,0,P|340:40|364:64,2,70
212,32,80722,2,0,P|172:40|148:64,1,70
256,192,81170,1,0,0:0:0:0:
320,136,81319,6,0,P|256:108|188:144,1,140
164,212,81767,2,0,L|180:284,2,70
320,280,82364,1,0,0:0:0:0:
320,280,82513,1,0,0:0:0:0:
320,280,82663,6,0,P|360:264|392:176,1,140
308,184,83110,2,0,P|322:250|380:285,1,140
464,292,83558,2,0,L|504:360,1,70
128,328,84006,6,0,L|100:256,2,70
212,348,84454,1,0,0:0:0:0:
156,188,84752,1,0,0:0:0:0:
216,32,85051,6,0,B|256:88|256:88|300:32,1,140
348,100,85498,2,0,B|392:44|392:44|432:100,1,140
440,184,85946,1,0,0:0:0:0:
440,184,86095,1,0,0:0:0:0:
168,216,86394,6,0,L|196:288,1,70
264,236,86692,2,0,L|236:164,1,70
