osu file format v14

[General]
AudioFilename: Hoshikuzu Kosu Pure Uicchi! Desu! Omega.mp3
AudioLeadIn: 0
PreviewTime: 56245
Countdown: 0
SampleSet: Soft
StackLeniency: 0.7
Mode: 0
LetterboxInBreaks: 0
WidescreenStoryboard: 0

[Editor]
Bookmarks: 7723,8618,16678,19514,34290,35185,40558,49514,53543,64901,74006
DistanceSpacing: 1.1
BeatDivisor: 2
GridSize: 4
TimelineZoom: 1

[Metadata]
Title:Hoshikuzu Cosplay Witch! Desu! Omega (TV Size)
TitleUnicode:星くずこすぷれ☆うぃっち!です!・おめが (TV Size)
Artist:Kuno Misaki
ArtistUnicode:久野美咲
Creator:Yuthuil
Version:Easy
Source:俺の妹がこんなに可愛いわけがない
Tags:OreImo Ore no Imouto ga Konnani Kawaii Wake ga Nai My Little Sister Can't Be This Cute insert song 星くずういっちメルル Stardust Uicchi Meruru ブリジット エヴァンス Bridget Evans Moecho Kanako Kurusu
BeatmapID:584701
BeatmapSetID:247914

[Difficulty]
HPDrainRate:2
CircleSize:2
OverallDifficulty:2
ApproachRate:4.3
SliderMultiplier:0.8
SliderTickRate:2

[Events]
//Background and Video events
0,0,"february_desktop__stardust_witch_meruru__by_princesscakenikki-d77nef9.png",0,0
//Break Periods
//Storyboard Layer 0 (Background)
//Storyboard Layer 1 (Fail)
//Storyboard Layer 2 (Pass)
//Storyboard Layer 3 (Foreground)
//Storyboard Sound Samples

[TimingPoints]
275,298.507462686567,4,2,0,50,1,0
56394,-100,4,2,0,50,0,1
75498,-100,4,2,0,50,0,0

[HitObjects]
408,60,6244,6,0,B|400:100|364:120|364:120|380:172|344:204,1,160
284,256,7140,1,0,0:0:0:0:
235,331,7439,2,0,B|188:296|180:232|224:192|224:192|176:160,1,200
104,168,8483,6,0,P|144:96|260:116,1,200
192,172,9528,1,0,0:0:0:0:
276,196,9827,2,0,L|272:332,1,120
140,332,10722,1,0,0:0:0:0:
92,256,11021,2,0,P|68:184|124:112,1,160
156,196,11916,1,0,0:0:0:0:
200,120,12214,6,0,P|252:88|324:112,2,120
188,164,13260,2,0,L|140:44,1,120
56,32,14006,1,0,0:0:0:0:
16,112,14304,2,0,L|32:160,1,40
56,236,14752,2,0,P|104:256|176:240,1,120
236,188,15498,1,0,0:0:0:0:
324,184,15796,6,0,B|360:160|368:128|364:96|364:96|428:108,2,160,0|0|0,0:0|0:0|0:0,0:0:0:0:
276,112,17289,5,0,0:0:0:0:
188,128,17587,2,0,L|156:220,1,80
122,281,18185,2,0,B|240:340|264:232|360:280,1,240
392,292,19230,1,0,0:0:0:0:
476,316,19528,2,0,P|476:264|432:212,1,120
44,196,20572,6,0,L|64:32,1,160
144,4,21468,1,0,0:0:0:0:
180,84,21766,6,0,B|256:104|256:104|336:84,1,160
416,52,22662,1,0,0:0:0:0:
500,76,22960,5,0,0:0:0:0:
508,164,23259,2,0,P|520:216|376:280,1,240
428,208,24453,6,0,P|353:197|293:261,1,160
268,336,25348,2,0,B|195:359|195:359|115:335,2,160
304,256,26841,5,0,0:0:0:0:
376,208,27140,2,0,B|424:248|412:44|480:116,1,160
464,16,28036,2,0,L|376:16,1,80
316,72,28633,1,0,0:0:0:0:
264,144,28931,2,0,B|240:208|288:252|288:252|248:288,1,160
68,268,30125,6,0,B|40:200|92:168|60:100,1,160
40,28,31020,1,0,0:0:0:0:
128,16,31319,6,0,B|184:24|184:24|236:128,1,160
152,160,32214,1,0,0:0:0:0:
228,204,32513,6,0,P|292:176|308:88,2,160,0|0|0,0:0|0:0|0:0,0:0:0:0:
152,252,34005,6,0,B|172:312|172:312|248:380,1,160
332,368,34901,6,0,P|392:332|392:236,1,160
324,140,35945,2,0,P|264:176|264:272,1,160
172,360,36990,6,0,B|120:328|120:328|60:200,1,200,0|0,0:0|0:0,0:0:0:0:
34,118,38035,1,0,0:0:0:0:
120,96,38334,6,0,P|236:80|256:216,1,280
188,156,39677,6,0,P|168:232|224:296,1,160
340,248,40722,6,0,B|364:152|312:152|344:48,1,200
432,148,41916,6,0,B|456:244|412:252|436:348,1,200,0|0,0:0|0:0,0:0:0:0:
308,376,43110,2,0,P|240:272|92:280,1,280
68,360,44453,6,0,L|24:184,1,160
76,80,45498,6,0,P|160:60|192:156,1,200
180,236,46543,5,0,0:0:0:0:
216,316,46841,2,0,P|284:320|328:284,2,120,0|0|0,0:0|0:0|0:0,0:0:0:0:
180,236,48035,6,0,P|112:232|68:268,2,120,0|0|0,0:0|0:0|0:0,0:0:0:0:
264,260,49229,2,0,L|308:180,1,80
256,116,49826,2,0,L|256:24,1,80,0|0,0:0|0:0,0:0:0:0:
172,16,50423,6,0,P|72:44|92:172,1,240
144,100,51617,5,0,0:0:0:0:
200,168,51916,2,0,B|244:188|256:225|256:225|267:188|310:172,1,160
388,132,52811,6,0,L|440:260,1,120
256,192,53558,12,0,55051,0:0:0:0:
104,124,56393,6,0,P|172:160|268:120,1,160
320,84,57289,1,0,0:0:0:0:
348,168,57587,6,0,L|324:336,1,160,0|0,0:0|0:0,0:0:0:0:
248,364,58483,1,0,0:0:0:0:
164,336,58781,6,0,B|96:292|96:292|84:204,1,160
172,216,59677,1,0,0:0:0:0:
132,140,59975,6,0,P|57:131|0:192,1,160
84,212,60871,1,0,0:0:0:0:
172,216,61169,6,0,B|204:216|204:216|256:184|256:184|292:184,2,120,0|0|0,0:0|0:0|0:0,0:0:0:0:
172,304,62363,6,0,B|204:304|204:304|256:336|256:336|292:336,2,120
88,280,63557,5,0,0:0:0:0:
20,224,63857,2,0,P|32:128|120:88,1,200
204,104,64901,5,0,0:0:0:0:
280,148,65199,1,0,0:0:0:0:
288,236,65498,1,0,0:0:0:0:
392,316,65945,6,0,P|424:248|424:156,1,160
376,92,66841,1,0,0:0:0:0:
300,52,67140,6,0,B|268:68|258:115|258:115|248:68|212:52,1,160
168,128,68035,1,0,0:0:0:0:
124,204,68334,6,0,B|88:188|78:141|78:141|68:188|36:204,1,160
0,292,69229,1,0,0:0:0:0:
72,344,69528,6,0,P|120:356|232:296,1,160
256,236,70423,1,0,0:0:0:0:
256,148,70722,6,0,B|240:100|268:76|248:24,2,120,0|0|0,0:0|0:0|0:0,0:0:0:0:
256,236,71916,6,0,B|240:284|268:308|248:360,2,120,0|0|0,0:0|0:0|0:0,0:0:0:0:
256,148,73110,5,0,0:0:0:0:
216,68,73408,2,0,P|256:58|308:74,1,80
360,124,74006,6,0,L|384:168,1,40
316,220,74454,2,0,L|340:276,2,40
276,96,75199,5,0,0:0:0:0:
188,80,75498,2,0,B|184:124|212:156|212:156|184:124|140:132,1,160
72,244,76543,6,0,B|120:256|148:224|148:224|188:260,1,120
256,284,77289,1,0,0:0:0:0:
256,196,77588,1,0,0:0:0:0:
256,152,77737,6,0,P|304:124|368:140,1,120
420,204,78483,1,0,0:0:0:0:
468,276,78782,2,0,L|448:328,1,40
376,356,79229,6,0,B|296:332|296:332|204:364,1,160
128,268,80274,6,0,P|64:228|96:160,1,160
180,64,81319,2,0,P|244:104|176:184,1,200
104,224,82363,5,0,0:0:0:0:
112,312,82663,2,0,P|140:344|184:356,1,80
256,324,83260,1,0,0:0:0:0:
336,284,83558,2,0,L|340:236,1,40
412,196,84006,6,0,B|400:156|424:120|424:120|380:108,1,120
308,68,84752,1,0,0:0:0:0:
224,88,85051,2,0,P|180:108|160:136,1,80
96,192,85648,1,0,0:0:0:0:
116,276,85946,2,0,L|144:320,1,40
216,348,86394,6,0,P|276:356|332:308,1,120
