osu file format v13

[General]
AudioFilename: Akatsuki no Yona Opening Theme (TV Edit).mp3
AudioLeadIn: 0
PreviewTime: 14993
Countdown: 1
SampleSet: Normal
StackLeniency: 0.7
Mode: 0
LetterboxInBreaks: 1
WidescreenStoryboard: 0

[Editor]
Bookmarks: 28862,42362,54791,58649,67006,82006
DistanceSpacing: 2
BeatDivisor: 4
GridSize: 4
TimelineZoom: 1.9

[Metadata]
Title:Akatsuki no Yona
TitleUnicode:Akatsuki no Yona
Artist:Kunihiko Ryo
ArtistUnicode:Kunihiko Ryo
Creator:Teigu
Version:Insane
Source:Akatsuki no Yona
Tags:PolkaMocha Prophecy
BeatmapID:570203
BeatmapSetID:247744

[Difficulty]
HPDrainRate:6
CircleSize:4
OverallDifficulty:7
ApproachRate:9
SliderMultiplier:1.4
SliderTickRate:2

[Events]
//Background and Video events
0,0,"OSU-map-BG.jpg",0,0
//Break Periods
//Storyboard Layer 0 (Background)
//Storyboard Layer 1 (Fail)
//Storyboard Layer 2 (Pass)
//Storyboard Layer 3 (Foreground)
//Storyboard Sound Samples

[TimingPoints]
1493,428.571428571429,4,1,1,66,1,0
8350,-100,4,2,1,100,0,0
14993,-100,4,1,1,66,0,1
28921,-100,4,3,1,66,0,0
55064,-100,4,1,1,66,0,1
66635,-100,4,1,1,66,0,0

[HitObjects]
80,48,1493,5,0,0:0:0:0:
184,60,1707,1,2,0:0:0:0:
209,72,1814,1,0,0:0:0:0:
231,89,1921,1,2,0:0:0:0:
320,144,2135,1,0,0:0:0:0:
276,240,2350,5,2,0:0:0:0:
172,228,2564,1,0,0:0:0:0:
153,248,2671,1,2,0:0:0:0:
140,273,2778,1,0,0:0:0:0:
224,336,2993,1,2,0:0:0:0:
324,304,3207,5,0,0:0:0:0:
404,236,3421,1,2,0:0:0:0:
400,208,3528,1,0,0:0:0:0:
381,188,3635,1,2,0:0:0:0:
308,112,3850,1,0,0:0:0:0:
204,124,4064,5,2,0:0:0:0:
124,192,4278,1,0,0:0:0:0:
138,215,4385,1,2,0:0:0:0:
161,230,4493,1,0,0:0:0:0:
266,230,4707,1,2,0:0:0:0:
347,297,4921,5,0,0:0:0:0:
404,208,5135,1,2,0:0:0:0:
384,188,5243,1,0,0:0:0:0:
360,173,5350,1,2,0:0:0:0:
268,122,5564,1,0,0:0:0:0:
182,62,5778,5,2,0:0:0:0:
82,95,5993,1,0,0:0:0:0:
58,110,6100,1,2,0:0:0:0:
48,135,6207,1,0,0:0:0:0:
143,182,6421,1,2,0:0:0:0:
54,238,6635,5,0,0:0:0:0:
150,281,6850,1,2,0:0:0:0:
176,290,6957,1,0,0:0:0:0:
203,297,7064,1,2,0:0:0:0:
308,296,7278,1,0,0:0:0:0:
400,244,7493,5,0,0:0:0:0:
423,228,7600,1,0,0:0:0:0:
442,208,7707,1,0,0:0:0:0:
458,185,7814,1,0,0:0:0:0:
469,159,7921,1,0,0:0:0:0:
96,72,8350,5,2,0:0:0:0:
236,72,8564,2,0,L|288:72,2,35,0|0|0,0:0|0:0|0:0,0:0:0:0:
96,72,8993,1,2,0:0:0:0:
64,208,9207,1,2,0:0:0:0:
204,204,9421,1,2,0:0:0:0:
336,252,9635,2,0,P|404:280|416:292,1,70
272,332,10064,5,0,0:0:0:0:
132,332,10278,2,0,L|96:332,2,35,0|0|0,0:0|0:0|0:0,0:0:0:0:
272,332,10707,1,2,0:0:0:0:
336,208,10921,1,2,0:0:0:0:
468,161,11135,1,2,0:0:0:0:
357,76,11350,2,0,P|312:56|288:56,1,70
250,190,11778,5,0,0:0:0:0:
110,190,11993,2,0,L|64:188,2,35,0|0|0,0:0|0:0|0:0,0:0:0:0:
250,190,12421,1,0,0:0:0:0:
390,190,12635,1,0,0:0:0:0:
250,190,12850,1,0,0:0:0:0:
110,190,13064,1,0,0:0:0:0:
250,190,13278,2,0,L|304:192,2,35,0|0|0,0:0|0:0|0:0,0:0:0:0:
390,190,13707,1,0,0:0:0:0:
250,190,13921,2,0,L|196:188,4,35,0|0|0|0|0,0:0|0:0|0:0|0:0|0:0,0:0:0:0:
34,192,14993,5,4,0:0:0:0:
60,184,15100,1,4,0:0:0:0:
86,192,15207,1,4,0:0:0:0:
114,194,15314,1,4,0:0:0:0:
141,186,15421,1,4,0:0:0:0:
216,85,15635,1,2,0:0:0:0:
323,151,15850,1,4,0:0:0:0:
348,163,15957,1,4,0:0:0:0:
373,175,16064,1,4,0:0:0:0:
292,330,16707,6,0,B|208:328|208:328|156:288,1,140
246,207,17350,1,0,0:0:0:0:
338,132,17564,1,0,0:0:0:0:
425,214,17778,1,0,0:0:0:0:
338,132,17993,1,0,0:0:0:0:
249,53,18207,1,0,0:0:0:0:
160,132,18421,1,0,0:0:0:0:
279,127,18635,6,0,L|356:128,1,70
316,242,19064,1,2,0:0:0:0:
403,324,19278,1,4,0:0:0:0:
376,319,19385,1,4,0:0:0:0:
350,330,19493,1,4,0:0:0:0:
232,331,19707,6,0,P|152:296|128:236,1,140
245,220,20350,1,0,0:0:0:0:
352,167,20564,2,0,P|296:112|228:104,1,140,0|0,0:0|0:0,0:0:0:0:
119,102,21207,2,0,P|196:40|252:36,1,140
334,100,21850,5,2,0:0:0:0:
423,209,22064,1,8,0:0:0:0:
369,338,22278,1,8,0:0:0:0:
272,237,22493,1,2,0:0:0:0:
187,319,22707,1,4,0:0:0:0:
160,310,22814,1,4,0:0:0:0:
137,294,22921,2,0,P|104:228|108:160,1,140,8|0,0:0|0:0,0:0:0:0:
177,67,23564,5,0,0:0:0:0:
317,67,23778,1,0,0:0:0:0:
177,67,23993,2,0,L|263:67,1,70,0|8,0:0|0:0,0:0:0:0:
388,67,24421,1,8,0:0:0:0:
307,182,24635,1,8,0:0:0:0:
429,250,24850,1,8,0:0:0:0:
316,334,25064,6,0,L|240:332,1,70,8|4,0:0|0:0,0:0:0:0:
106,332,25493,1,2,0:0:0:0:
212,240,25707,1,8,0:0:0:0:
93,167,25921,1,2,0:0:0:0:
208,87,26135,1,4,0:0:0:0:
234,79,26243,1,4,0:0:0:0:
262,82,26350,1,4,0:0:0:0:
389,22,26564,5,0,0:0:0:0:
474,133,26778,2,0,L|420:192,1,70
312,104,27207,1,0,0:0:0:0:
223,212,27421,1,0,0:0:0:0:
83,212,27635,1,0,0:0:0:0:
256,192,27850,12,0,28922,0:0:0:0:
428,112,29350,6,0,L|344:112,1,70
217,112,29778,1,4,0:0:0:0:
87,229,29993,1,4,0:0:0:0:
276,322,30421,1,8,0:0:0:0:
304,322,30528,1,0,0:0:0:0:
332,320,30635,2,0,P|381:298|397:274,1,70,4|0,0:0|0:0,0:0:0:0:
275,206,31064,5,4,0:0:0:0:
160,297,31278,1,4,0:0:0:0:
321,292,31493,1,4,0:0:0:0:
444,167,31707,1,4,0:0:0:0:
233,117,31921,1,4,0:0:0:0:
140,358,32135,1,4,0:0:0:0:
396,88,32350,1,2,0:0:0:0:
396,88,32564,1,2,0:0:0:0:
256,88,32778,5,2,0:0:0:0:
148,137,32993,1,8,0:0:0:0:
123,149,33100,1,0,0:0:0:0:
100,166,33207,2,0,P|64:204|60:248,1,70,4|0,0:0|0:0,0:0:0:0:
184,284,33635,1,4,0:0:0:0:
314,338,33850,1,4,0:0:0:0:
399,227,34064,1,4,0:0:0:0:
283,149,34278,1,4,0:0:0:0:
408,85,34493,2,0,P|324:44|268:52,1,140,8|8,0:0|0:0,0:0:0:0:
312,184,35135,1,2,0:0:0:0:
199,100,35350,1,4,0:0:0:0:
205,240,35564,1,2,0:0:0:0:
101,147,35778,6,0,P|68:196|64:224,1,70
234,155,36207,1,2,0:0:0:0:
409,153,36421,1,8,0:0:0:0:
429,172,36528,1,0,0:0:0:0:
442,196,36635,1,0,0:0:0:0:
317,319,36850,1,4,0:0:0:0:
68,36,37278,6,0,L|148:36,1,70
239,134,37707,1,0,0:0:0:0:
363,199,37921,2,0,L|456:196,1,70
353,312,38350,1,0,0:0:0:0:
228,250,38564,2,0,L|148:248,1,70
242,361,38993,1,0,0:0:0:0:
160,248,39207,1,0,0:0:0:0:
293,204,39421,1,0,0:0:0:0:
399,296,39635,1,2,0:0:0:0:
468,217,39850,1,8,0:0:0:0:
449,196,39957,1,0,0:0:0:0:
424,184,40064,1,0,0:0:0:0:
319,93,40278,5,4,0:0:0:0:
191,213,40493,1,4,0:0:0:0:
400,340,40707,1,4,0:0:0:0:
174,73,40921,1,4,0:0:0:0:
394,178,41135,1,4,0:0:0:0:
256,192,41350,12,0,42421,0:0:0:0:
424,68,42635,5,0,0:0:0:0:
301,172,42850,1,0,0:0:0:0:
177,70,43064,1,0,0:0:0:0:
338,74,43278,2,0,L|400:76,2,35,0|0|0,0:0|0:0|0:0,0:0:0:0:
216,180,43707,1,0,0:0:0:0:
324,299,43921,1,0,0:0:0:0:
443,190,44135,1,0,0:0:0:0:
324,299,44350,1,0,0:0:0:0:
216,180,44564,1,0,0:0:0:0:
361,109,44778,6,0,P|316:80|288:80,1,70
160,156,45207,1,0,0:0:0:0:
244,293,45421,2,0,P|204:320|180:328,1,70
344,344,45850,1,0,0:0:0:0:
460,233,46064,5,0,0:0:0:0:
446,208,46171,1,0,0:0:0:0:
428,186,46278,1,0,0:0:0:0:
408,168,46385,1,0,0:0:0:0:
384,153,46493,1,0,0:0:0:0:
283,124,46707,1,0,0:0:0:0:
256,132,46814,1,0,0:0:0:0:
234,148,46921,1,0,0:0:0:0:
336,245,47135,6,0,L|252:244,1,70
162,338,47564,1,0,0:0:0:0:
76,185,47778,2,0,P|144:120|196:112,1,140
327,112,48421,2,0,L|388:112,2,35,0|0|0,0:0|0:0|0:0,0:0:0:0:
88,316,49278,5,0,0:0:0:0:
228,312,49493,2,0,L|312:312,1,70
435,281,49921,1,0,0:0:0:0:
479,148,50135,1,0,0:0:0:0:
388,42,50350,1,0,0:0:0:0:
248,42,50564,1,0,0:0:0:0:
124,104,50778,2,0,B|96:168|96:168|152:216,1,140
280,172,51421,1,0,0:0:0:0:
282,199,51528,1,0,0:0:0:0:
268,223,51635,1,0,0:0:0:0:
256,192,51850,12,0,54636,0:0:0:0:
64,48,55064,5,0,0:0:0:0:
183,49,55278,1,0,0:0:0:0:
210,55,55385,1,0,0:0:0:0:
235,67,55493,1,0,0:0:0:0:
257,85,55600,1,0,0:0:0:0:
275,106,55707,1,0,0:0:0:0:
450,326,56135,6,0,P|360:340|300:316,1,140
224,218,56778,1,0,0:0:0:0:
356,171,56993,2,0,P|328:128|296:112,1,70
173,126,57421,1,0,0:0:0:0:
112,252,57635,2,0,P|140:296|168:312,1,70
293,286,58064,1,0,0:0:0:0:
424,237,58278,2,0,P|392:204|356:200,1,70
229,199,58707,6,0,L|180:196,2,35,0|0|0,0:0|0:0|0:0,0:0:0:0:
369,199,59135,2,0,P|320:136|244:120,1,140
165,264,59778,1,0,0:0:0:0:
46,136,59993,1,0,0:0:0:0:
203,58,60207,2,0,P|260:52|288:68,1,70
387,186,60635,1,0,0:0:0:0:
212,192,60850,2,0,L|160:192,2,35,0|0|0,0:0|0:0|0:0,0:0:0:0:
349,82,61278,6,0,P|408:128|424:208,1,140
268,266,61921,1,0,0:0:0:0:
129,282,62135,1,0,0:0:0:0:
101,280,62243,1,0,0:0:0:0:
73,278,62350,2,0,P|44:224|44:204,1,70,4|8,0:0|0:0,0:0:0:0:
108,109,62778,1,0,0:0:0:0:
225,62,62993,2,0,L|301:63,1,70,4|8,0:0|0:0,0:0:0:0:
402,130,63421,5,0,0:0:0:0:
312,218,63635,2,0,P|264:240|252:260,1,70,4|8,0:0|0:0,0:0:0:0:
378,284,64064,1,0,0:0:0:0:
276,358,64278,1,0,0:0:0:0:
250,347,64385,1,0,0:0:0:0:
226,332,64493,1,0,0:0:0:0:
205,313,64600,1,0,0:0:0:0:
189,291,64707,1,0,0:0:0:0:
176,266,64814,1,0,0:0:0:0:
168,239,64921,1,0,0:0:0:0:
256,192,65135,12,0,66635,0:0:0:0:
56,104,67064,6,0,L|144:104,1,70
267,104,67493,1,0,0:0:0:0:
293,113,67600,1,0,0:0:0:0:
319,125,67707,2,0,P|392:192|396:240,1,140
257,240,68350,1,0,0:0:0:0:
157,338,68564,2,0,P|108:296|104:268,1,70
193,182,68993,5,0,0:0:0:0:
220,182,69100,1,0,0:0:0:0:
248,184,69207,2,0,P|336:168|368:116,1,140
239,66,69850,1,0,0:0:0:0:
102,95,70064,2,0,P|68:136|64:172,1,70
216,240,70493,5,0,0:0:0:0:
324,151,70707,1,0,0:0:0:0:
352,151,70814,1,0,0:0:0:0:
380,151,70921,2,0,P|440:208|456:272,1,140
256,270,71564,2,0,L|181:268,2,70,0|0|0,0:0|0:0|0:0,0:0:0:0:
480,153,72207,5,0,0:0:0:0:
96,322,72635,1,0,0:0:0:0:
412,48,73064,2,0,P|312:28|204:56,1,210
74,93,73921,5,0,0:0:0:0:
134,204,74135,1,0,0:0:0:0:
261,203,74350,1,0,0:0:0:0:
134,204,74564,1,0,0:0:0:0:
261,203,74778,2,0,B|332:204|332:204|408:252,2,140,0|0|0,0:0|0:0|0:0,0:0:0:0:
256,192,77350,12,0,81636,0:0:0:0:
256,192,82064,12,0,89993,0:0:0:0:
