osu file format v8

[General]
AudioFilename: Kukui - PICHIKATO Biyori.mp3
AudioLeadIn: 0
PreviewTime: 86830
Countdown: 0
SampleSet: Soft
StackLeniency: 0.7
Mode: 0
LetterboxInBreaks: 0

[Editor]
DistanceSpacing: 0.9
BeatDivisor: 4
GridSize: 8

[Metadata]
Title:PICHIKATO Biyori
Artist:Kukui
Creator:kioukiou
Version:Normal
Source:Rozen Maiden
Tags:

[Difficulty]
HPDrainRate:2
CircleSize:4
OverallDifficulty:4
ApproachRate:5
SliderMultiplier:1.2
SliderTickRate:1

[Events]
//Background and Video events
0,0,"BG.jpg"
//Break Periods
2,79590,85870
2,133350,139630
//Storyboard Layer 0 (Background)
//Storyboard Layer 1 (Fail)
//Storyboard Layer 2 (Pass)
//Storyboard Layer 3 (Foreground)
//Storyboard Sound Samples
//Background Colour Transformations
3,100,163,162,255

[TimingPoints]
670,480,4,2,1,75,1,0
27430,-100,4,2,1,65,0,0
42790,-100,4,2,1,85,0,0
58270,-100,4,2,1,75,0,0
62110,-200,4,2,1,50,0,0
63550,-100,4,2,1,50,0,0
63790,-100,4,2,1,65,0,0
86590,-100,4,2,1,75,0,0
98350,-100,4,2,1,65,0,0
117670,-100,4,2,1,85,0,0
148270,-100,4,2,1,65,0,0
161710,-100,4,2,1,75,0,0
163750,-100,4,2,1,85,0,0
179230,-100,4,2,1,75,0,0
183070,-200,4,2,1,50,0,0
184510,-100,4,2,1,50,0,0
184750,-100,4,2,1,75,0,0

[Colours]
Combo1 : 255,128,0
Combo2 : 255,255,255
Combo3 : 255,128,192
Combo4 : 240,5,5

[HitObjects]
88,72,12190,2,0,B|136:24|208:24,2,120,0|2|0
88,184,13630,1,2
88,240,13870,1,0
192,240,14350,1,0
192,296,14590,1,2
296,296,15070,2,0,B|296:368,2,60,0|0|2
400,296,16030,6,0,B|432:232|392:168,2,120,0|2|0
304,248,17470,1,2
216,184,17950,2,0,B|184:248|224:312,2,120,0|2|0
304,248,19390,1,2
304,144,19870,6,0,B|272:96|336:72|296:24,2,120,0|2|0
200,144,21310,1,2
248,240,21790,1,0
352,240,22270,1,2
408,144,22750,2,0,B|480:144,2,60,0|0|2
304,144,23710,5,0
224,64,24190,2,0,B|128:64|128:224|232:224,1,240,2|2
280,224,25390,1,0
336,224,25630,2,0,B|464:224,2,120,0|2|0
336,328,27070,1,2
232,328,27550,5,0
128,288,28030,1,2
24,328,28510,1,0
128,288,28990,2,0,B|88:224|140:161,1,120,2|0
248,176,29950,1,2
360,176,30430,2,0,B|400:112|348:50,1,120,0|2
256,32,31390,5,0
256,192,32350,1,0
256,352,33310,1,0
184,272,33790,1,2
256,192,34270,1,0
336,272,34750,1,2
408,192,35230,6,0,B|440:128|400:64,2,120,0|2|0
304,192,36670,1,2
216,136,37150,2,0,B|176:80|104:72,1,120,0|2
40,152,38110,2,0,B|112:136|160:200,1,120,0|2
152,296,39070,6,0,B|112:240|40:232,2,120,0|2|0
208,296,40270,1,0
264,296,40510,2,0,B|304:240|376:232,2,120,2|2|2
208,104,42190,5,0
208,104,42430,2,0,B|184:72|144:72,2,60,0|0|4
312,128,43390,1,8
392,192,43870,2,0,B|432:256|384:320,2,120,0|8|0
304,256,45310,2,0,B|264:320|312:384,2,120,8|0|8
304,136,46750,5,0
208,96,47230,1,8
112,144,47710,1,0
208,192,48190,2,0,B|208:272,1,60,8|0
312,256,48910,2,0,B|312:328,1,60,0|8
416,312,49630,2,0,B|416:376,2,60,0|0|8
416,208,50590,6,0,B|440:144|416:80,2,120,0|8|0
312,208,52030,1,8
208,208,52510,2,0,B|144:248|80:200,1,120,0|8
152,120,53470,2,0,B|152:32,2,60,0|0|8
248,176,54430,5,0
344,128,54910,1,8
440,176,55390,1,0
344,232,55870,2,0,B|368:296|339:360,2,120,8|0|8
232,232,57310,2,0,B|144:232,2,60,0|0|8
256,352,58270,5,0
32,192,59230,1,0
256,32,60190,1,0
328,112,60670,1,0
256,192,61150,1,0
176,112,61630,1,0
256,192,62110,2,0,B|216:248|296:304|256:368,1,180,2|0
64,272,64510,6,0,B|32:208,2,60,2|0|0
168,272,65470,1,2
272,272,65950,2,0,B|304:336,2,60,0|0|2
168,272,66910,2,0,B|168:136,2,120,0|2|0
256,208,68350,5,2
352,264,68830,1,0
448,208,69310,1,2
352,152,69790,2,0,B|392:88|335:22,2,120,0|2|0
352,208,70990,1,0
352,264,71230,2,0,B|392:328|335:394,2,120,2|0|2
240,264,72670,5,0
192,360,73150,1,2
88,360,73630,1,0
32,264,74110,1,2
136,264,74590,2,0,B|136:136,2,120,0|2|0
240,264,76030,6,0,B|296:320,2,60,2|0|0
240,160,76990,1,2
240,56,77470,2,0,B|192:8,2,60,2|0|2
424,160,78910,6,0,B|504:160,2,60,2|2|4
120,32,87070,6,0,B|80:96|130:161,2,120,0|2|0
208,88,88510,1,2
208,88,88750,1,0
312,88,89230,1,0
312,88,89470,1,2
408,144,89950,2,0,B|448:80|398:15,2,120,0|2|0
344,232,91390,5,2
256,176,91870,1,0
160,232,92350,1,2
256,280,92830,2,0,B|256:352,2,60,0|0|2
256,176,93790,2,0,B|256:96,2,60,0|0|2
344,232,94750,5,0
400,136,95230,1,2
344,48,95710,1,0
280,136,96190,1,2
224,136,96430,1,0
224,240,96910,1,0
168,240,97150,1,2
168,344,97630,1,0
112,344,97870,1,0
56,344,98110,1,2
56,240,98590,6,0,B|16:184|64:120,2,120,0|2|0
144,176,100030,2,0,B|184:120|136:56,2,120,2|0|2
152,288,101470,2,0,B|224:288,1,60
216,232,101950,2,0,B|280:232,1,60
280,176,102430,6,0,B|424:176,2,120,0|2|0
280,72,103870,1,2
192,128,104350,1,0
192,232,104830,1,2
280,288,105310,2,0,B|280:360,2,60,0|0|2
384,288,106270,5,0
168,288,107230,1,0
280,104,108190,2,0,B|280:176,1,60
226,164,108670,2,0,B|226:92,1,60,2|0
172,104,109150,2,0,B|172:184,2,60,0|0|2
64,104,110110,5,0
0,192,110590,1,2
64,280,111070,2,0,B|64:352,2,60,0|0|2
176,280,112030,1,0
240,192,112510,1,2
176,104,112990,2,0,B|176:32,2,60,0|0|2
288,104,113950,5,0
344,96,114190,1,0
400,104,114430,1,2
408,208,114910,1,0
352,216,115150,1,0
296,208,115390,1,2
200,160,115870,6,0,B|136:136|64:168,2,120,2|2|0
200,216,117070,1,0
200,272,117310,2,0,B|200:344,2,60,0|0|4
304,272,118270,6,0,B|368:296|440:264,2,120,8|0|8
304,160,119710,1,0
304,56,120190,2,0,B|368:32|440:64,2,120,8|0|8
192,56,121630,5,0
96,104,122110,1,8
0,56,122590,1,0
96,104,123070,2,0,B|64:168|96:232,2,120,8|0|8
184,160,124510,1,0
240,160,124750,1,0
296,160,124990,1,8
400,160,125470,6,0,B|424:224|400:288,2,120,0|8|0
312,224,126910,1,8
312,224,127150,1,0
208,224,127630,1,0
208,224,127870,1,8
112,160,128350,2,0,B|88:224|112:288,2,120,0|8|0
168,64,129790,6,0,B|216:24|288:24,1,120,8|0
256,128,130750,2,0,B|176:144|152:216,1,120,8|0
264,232,131710,2,0,B|312:192|384:192,1,120,8|0
368,296,132670,2,0,B|288:312|264:384,1,120,8|4
72,48,140830,6,0,B|208:48,1,120,4|8
296,48,141790,1,0
352,56,142030,1,0
408,48,142270,1,8
408,152,142750,6,0,B|272:152,1,120,0|8
184,152,143710,1,0
128,160,143950,1,0
72,152,144190,1,8
72,256,144670,6,0,B|32:320|83:381,2,120,0|8|0
184,256,146110,1,8
184,256,146350,1,4
288,256,146830,1,0
288,256,147070,1,0
392,256,147550,2,0,B|456:256,2,60,2|0|2
392,152,148510,6,0,B|416:88|472:56,2,120,4|2|0
288,152,149950,2,0,B|304:88|352:40,2,120,2|0|2
176,152,151390,1,0
120,152,151630,1,0
64,152,151870,1,2
112,248,152350,6,0,B|88:312|32:344,2,120,0|2|0
216,248,153790,2,0,B|200:312|152:360,2,120,2|0|2
328,248,155230,1,0
384,248,155470,1,0
440,248,155710,1,2
440,144,156190,5,0
360,72,156670,1,2
280,144,157150,1,0
368,208,157630,2,0,B|400:272|360:336,2,120,2|0|2
280,272,159070,1,0
176,272,159550,2,0,B|112:272,2,60,2|0|0
176,168,160510,1,2
280,168,160990,2,0,B|352:168,2,60,0|0|2
256,64,161950,5,0
360,24,162430,1,2
464,64,162910,1,0
360,96,163390,1,2
424,184,163870,6,0,B|464:248|414:312,2,120,4|8|0
344,256,165310,2,0,B|304:320|354:384,2,120,8|0|8
344,144,166750,1,0
288,144,166990,1,0
232,144,167230,1,8
232,248,167710,5,0
136,304,168190,1,8
40,256,168670,1,0
136,200,169150,2,0,B|136:128,1,60,8|0
224,80,169870,2,0,B|224:152,1,60,0|8
312,208,170590,2,0,B|312:136,2,60,0|0|8
416,208,171550,6,0,B|440:272|408:336,2,120,0|8|0
384,104,172990,1,8
288,48,173470,1,0
184,48,173950,1,8
80,88,174430,2,0,B|16:112,2,60,0|0|8
88,192,175390,5,0
88,192,175870,2,0,B|64:256|88:320,2,120,8|0|8
200,192,177310,1,0
200,192,177790,2,0,B|224:128|200:64,2,120,8|0|8
192,296,179230,6,0,B|304:352,1,120
384,280,180190,2,0,B|272:224,1,120
280,120,181150,5,0
232,24,181630,1,0
128,24,182110,1,0
80,120,182590,1,0
184,112,183070,2,0,B|184:304,1,180,2|0
296,296,184990,5,0
400,264,185470,1,2
504,296,185950,1,0
400,264,186430,2,0,B|400:176,1,60,2|0
292,204,187150,2,0,B|292:140,1,60,0|2
184,144,187870,2,0,B|184:64,2,60,0|0|2
184,248,188830,5,0
88,200,189310,1,2
0,256,189790,1,0
88,200,190270,2,0,B|88:120,1,60,2|0
196,140,190990,2,0,B|196:65,1,60,0|2
304,80,191710,2,0,B|304:16,2,60,0|0|2
400,136,192670,6,0,B|432:200|396:267,2,120,0|2|0
312,192,194110,2,0,B|280:256|316:323,2,120,2|0|2
312,88,195550,1,0
256,96,195790,1,0
200,88,196030,1,2
168,192,196510,6,0,B|32:192,1,120,0|2
48,296,197470,2,0,B|176:296,1,120,0|2
264,248,198430,1,0
320,264,198670,1,0
368,248,198910,1,2
368,136,199390,1,0
320,120,199630,1,0
264,136,199870,1,2
224,32,200350,6,0,B|160:8|96:40,2,120,0|2|0
224,144,201790,1,2
224,200,202030,1,0
328,200,202510,1,0
328,256,202750,1,2
432,256,203230,1,0
432,312,203470,1,0
432,368,203710,1,2
328,368,204190,6,0,B|200:368,1,120,0|2
144,280,205150,2,0,B|88:224,2,60,0|0|2
144,168,206110,2,0,B|88:112,2,60,0|0|2
144,56,207070,2,0,B|208:32|272:56,2,120,0|2|0
88,152,208510,5,2
136,248,208990,1,0
88,344,209470,1,2
136,248,209950,2,0,B|200:272|280:240,1,120,0|2
208,152,210910,2,0,B|272:128|352:160,1,120,0|2
392,240,211870,6,0,B|432:296|488:312,2,120,0|2|0
320,160,213310,1,2
320,160,213550,1,0
216,176,214030,1,0
216,176,214270,1,2
136,104,214750,1,2
136,104,214990,1,2
136,104,215230,1,2
